osu file format v14

[General]
AudioFilename: audio.mp3
AudioLeadIn: 0
PreviewTime: 35866
Countdown: 0
SampleSet: Normal
StackLeniency: 0.7
Mode: 1
LetterboxInBreaks: 0
WidescreenStoryboard: 0

[Editor]
Bookmarks: 1375,3408,3578,3747,4086,8154,8324,8663,9002,9171,9510,12222,13747,14086,14425,14595,14934,16290,16798,17307,17646,25103,25273,25612,25781,26125,31205,33917,35273,35442,35612,35951,36120,36290,36629,47476,52900,55442,56968,57985,58324,60697,60866,61036,63747,66459,69171,74595,78663,80019,81036,81205,82730,83239,83747,83917,85442,86459,86629,88154,88663,89171,89341,90193,90866,98832,100358,101713,105781,105951,106290,106629,106798,107137,109849,112561
DistanceSpacing: 0.8
BeatDivisor: 4
GridSize: 32
TimelineZoom: 1.7

[Metadata]
Title:OVERDRIVERS
TitleUnicode:OVERDRIVERS
Artist:P*Light feat. mow*2
ArtistUnicode:P*Light feat. mow*2
Creator:404 AccNotFound
Version:Inner Oni
Source:SOUND VOLTEX II -infinite infection-
Tags:SDVX 2 Happy Hardcore Lily KONAMI BEMANI Colorful Palette iloveyou4ever charlotte
BeatmapID:1443246
BeatmapSetID:682477

[Difficulty]
HPDrainRate:5
CircleSize:5
OverallDifficulty:6
ApproachRate:5
SliderMultiplier:1.4
SliderTickRate:1

[Events]
//Background and Video events
0,0,"overdrivers.jpg",0,100
//Break Periods
//Storyboard Layer 0 (Background)
//Storyboard Layer 1 (Fail)
//Storyboard Layer 2 (Pass)
//Storyboard Layer 3 (Foreground)
//Storyboard Sound Samples

[TimingPoints]
1380,338.983050847458,4,1,0,100,1,0
36634,-100,4,1,0,100,0,1
56973,-100,4,1,0,100,0,0
90871,-100,4,1,0,100,0,1
100363,-100,4,1,0,100,0,0

[HitObjects]
256,192,1380,5,12,0:0:0:0:
256,192,1634,1,12,0:0:0:0:
256,192,1888,1,4,0:0:0:0:
256,192,2057,1,12,0:0:0:0:
256,192,2312,1,12,0:0:0:0:
256,192,2566,1,4,0:0:0:0:
256,192,2735,1,12,0:0:0:0:
128,192,2990,1,12,0:0:0:0:
128,192,3244,1,12,0:0:0:0:
224,96,3413,1,0,0:0:0:0:
224,96,3498,1,8,0:0:0:0:
224,96,3583,1,0,0:0:0:0:
224,96,3668,1,0,0:0:0:0:
224,96,3752,1,8,0:0:0:0:
224,96,4091,1,12,0:0:0:0:
416,160,4346,1,8,0:0:0:0:
416,192,4430,1,0,0:0:0:0:
416,192,4600,1,8,0:0:0:0:
156,126,4685,1,8,0:0:0:0:
416,160,4769,1,0,0:0:0:0:
224,96,4854,1,0,0:0:0:0:
416,160,4939,1,8,0:0:0:0:
416,160,5108,1,0,0:0:0:0:
416,160,5278,1,8,0:0:0:0:
320,160,5363,1,0,0:0:0:0:
416,160,5447,1,8,0:0:0:0:
416,160,5702,1,8,0:0:0:0:
416,160,5786,1,0,0:0:0:0:
416,160,5956,1,8,0:0:0:0:
179,80,6041,1,8,0:0:0:0:
416,160,6125,1,0,0:0:0:0:
416,160,6210,1,0,0:0:0:0:
416,160,6295,1,8,0:0:0:0:
416,160,6464,1,0,0:0:0:0:
320,128,6634,1,8,0:0:0:0:
320,160,6718,1,8,0:0:0:0:
416,160,6803,1,8,0:0:0:0:
416,160,7057,1,8,0:0:0:0:
416,160,7142,1,0,0:0:0:0:
416,160,7312,1,8,0:0:0:0:
192,64,7396,1,8,0:0:0:0:
416,160,7481,1,0,0:0:0:0:
416,160,7566,1,8,0:0:0:0:
416,160,7651,1,0,0:0:0:0:
416,160,7820,1,8,0:0:0:0:
416,160,7990,1,8,0:0:0:0:
416,160,8159,1,4,0:0:0:0:
416,160,8329,1,4,0:0:0:0:
256,160,8668,1,12,0:0:0:0:
256,160,9007,1,12,0:0:0:0:
256,160,9176,1,8,0:0:0:0:
448,96,9233,1,8,0:0:0:0:
416,96,9289,1,8,0:0:0:0:
416,96,9346,1,8,0:0:0:0:
288,128,9515,1,4,0:0:0:0:
256,128,9769,1,8,0:0:0:0:
256,128,9854,1,0,0:0:0:0:
256,128,10024,1,8,0:0:0:0:
256,128,10108,1,8,0:0:0:0:
256,128,10193,1,0,0:0:0:0:
192,32,10278,1,0,0:0:0:0:
256,128,10363,1,8,0:0:0:0:
256,128,10532,1,0,0:0:0:0:
256,128,10702,1,8,0:0:0:0:
256,160,10786,1,0,0:0:0:0:
256,160,10871,1,8,0:0:0:0:
204,145,10956,1,8,0:0:0:0:
96,160,11041,1,0,0:0:0:0:
256,160,11210,1,8,0:0:0:0:
256,160,11380,1,0,0:0:0:0:
256,160,11464,1,8,0:0:0:0:
256,160,11634,1,8,0:0:0:0:
134,102,11718,1,0,0:0:0:0:
145,160,11803,1,0,0:0:0:0:
256,160,11888,1,8,0:0:0:0:
145,160,11973,1,0,0:0:0:0:
160,32,12057,1,8,0:0:0:0:
256,160,12227,1,0,0:0:0:0:
224,128,12312,1,0,0:0:0:0:
224,128,12396,1,8,0:0:0:0:
224,128,12481,1,0,0:0:0:0:
224,128,12566,1,8,0:0:0:0:
224,128,12651,1,8,0:0:0:0:
224,128,12735,1,0,0:0:0:0:
224,128,12820,1,0,0:0:0:0:
224,128,12905,1,8,0:0:0:0:
224,128,12990,1,8,0:0:0:0:
224,128,13074,1,0,0:0:0:0:
224,128,13159,1,8,0:0:0:0:
224,128,13244,1,8,0:0:0:0:
224,128,13329,1,0,0:0:0:0:
224,128,13413,1,0,0:0:0:0:
224,128,13498,1,8,0:0:0:0:
224,128,13752,1,12,0:0:0:0:
224,128,14091,1,12,0:0:0:0:
224,128,14430,1,4,0:0:0:0:
224,128,14600,1,8,0:0:0:0:
96,160,14685,1,8,0:0:0:0:
96,160,14769,1,0,0:0:0:0:
224,128,14939,1,4,0:0:0:0:
224,160,16295,1,12,0:0:0:0:
224,160,16803,1,12,0:0:0:0:
224,160,17312,1,8,0:0:0:0:
224,160,17651,1,4,0:0:0:0:
128,96,17990,1,8,0:0:0:0:
96,160,18159,1,0,0:0:0:0:
128,96,18329,1,8,0:0:0:0:
128,96,18498,1,0,0:0:0:0:
96,160,18583,1,0,0:0:0:0:
224,64,18668,1,8,0:0:0:0:
128,96,18837,1,8,0:0:0:0:
64,192,19007,1,0,0:0:0:0:
160,96,19176,1,8,0:0:0:0:
128,192,19261,1,0,0:0:0:0:
160,96,19346,1,8,0:0:0:0:
192,64,19515,1,8,0:0:0:0:
128,192,19685,1,0,0:0:0:0:
128,96,19854,1,8,0:0:0:0:
128,192,19939,1,0,0:0:0:0:
128,96,20024,1,8,0:0:0:0:
128,96,20108,1,8,0:0:0:0:
128,96,20193,1,0,0:0:0:0:
128,96,20363,1,8,0:0:0:0:
288,192,20532,1,0,0:0:0:0:
128,96,20702,1,8,0:0:0:0:
128,96,20871,1,0,0:0:0:0:
256,192,20956,1,8,0:0:0:0:
192,96,21041,1,0,0:0:0:0:
160,96,21210,1,0,0:0:0:0:
160,96,21380,1,8,0:0:0:0:
160,96,21549,1,8,0:0:0:0:
160,32,21634,1,8,0:0:0:0:
128,128,21718,1,0,0:0:0:0:
160,96,21888,1,8,0:0:0:0:
128,160,21973,1,0,0:0:0:0:
160,96,22057,1,8,0:0:0:0:
160,96,22227,1,0,0:0:0:0:
384,192,22312,1,0,0:0:0:0:
160,96,22396,1,8,0:0:0:0:
224,96,22481,1,8,0:0:0:0:
192,96,22566,1,0,0:0:0:0:
160,96,22735,1,8,0:0:0:0:
160,96,22905,1,8,0:0:0:0:
256,160,22990,1,8,0:0:0:0:
192,64,23074,1,0,0:0:0:0:
160,192,23244,1,0,0:0:0:0:
160,96,23413,1,8,0:0:0:0:
160,96,23583,1,0,0:0:0:0:
192,96,23668,1,8,0:0:0:0:
160,96,23752,1,0,0:0:0:0:
160,96,23922,1,8,0:0:0:0:
160,64,24091,1,0,0:0:0:0:
160,96,24261,1,8,0:0:0:0:
224,192,24346,1,8,0:0:0:0:
160,128,24430,1,0,0:0:0:0:
160,96,24600,1,0,0:0:0:0:
192,160,24685,1,8,0:0:0:0:
160,64,24769,1,0,0:0:0:0:
160,96,24939,1,8,0:0:0:0:
160,96,25108,1,0,0:0:0:0:
160,96,25278,1,8,0:0:0:0:
160,96,25617,1,8,0:0:0:0:
160,96,25786,1,4,0:0:0:0:
128,160,26125,1,8,0:0:0:0:
160,160,26295,1,8,0:0:0:0:
128,160,26464,1,0,0:0:0:0:
32,160,26634,1,8,0:0:0:0:
128,160,26803,1,0,0:0:0:0:
160,128,26888,1,0,0:0:0:0:
256,160,26973,1,8,0:0:0:0:
160,128,27142,1,0,0:0:0:0:
64,160,27312,1,8,0:0:0:0:
224,128,27396,1,8,0:0:0:0:
64,160,27481,1,0,0:0:0:0:
256,160,27651,1,8,0:0:0:0:
96,160,27735,1,0,0:0:0:0:
256,160,27820,1,8,0:0:0:0:
256,160,27990,1,0,0:0:0:0:
256,160,28159,1,8,0:0:0:0:
256,160,28329,1,8,0:0:0:0:
160,96,28413,1,8,0:0:0:0:
256,160,28498,1,0,0:0:0:0:
352,192,28668,1,0,0:0:0:0:
256,160,28837,1,8,0:0:0:0:
256,160,29007,1,8,0:0:0:0:
224,224,29091,1,8,0:0:0:0:
160,160,29176,1,0,0:0:0:0:
128,128,29261,1,0,0:0:0:0:
256,160,29346,1,8,0:0:0:0:
96,128,29515,1,8,0:0:0:0:
256,160,29685,1,0,0:0:0:0:
32,192,29769,1,8,0:0:0:0:
160,128,29854,1,0,0:0:0:0:
160,96,30024,5,8,0:0:0:0:
192,128,30108,1,8,0:0:0:0:
256,128,30193,1,0,0:0:0:0:
256,128,30363,1,8,0:0:0:0:
256,128,30532,1,0,0:0:0:0:
256,160,30702,1,8,0:0:0:0:
192,64,30786,1,0,0:0:0:0:
256,160,30871,1,8,0:0:0:0:
160,32,30956,1,8,0:0:0:0:
256,160,31041,1,0,0:0:0:0:
256,160,31210,1,12,0:0:0:0:
256,96,31464,1,0,0:0:0:0:
256,96,31549,1,0,0:0:0:0:
256,96,31718,1,8,0:0:0:0:
256,96,31888,1,4,0:0:0:0:
160,64,32057,1,8,0:0:0:0:
160,64,32142,1,0,0:0:0:0:
160,64,32227,1,8,0:0:0:0:
160,64,32396,1,8,0:0:0:0:
192,96,32566,1,4,0:0:0:0:
128,96,32735,1,8,0:0:0:0:
128,96,32820,1,8,0:0:0:0:
128,96,32905,1,8,0:0:0:0:
128,96,33074,1,0,0:0:0:0:
192,96,33244,1,12,0:0:0:0:
128,96,33413,1,0,0:0:0:0:
192,224,33498,1,0,0:0:0:0:
128,96,33583,1,8,0:0:0:0:
128,96,33752,1,8,0:0:0:0:
128,96,33837,1,8,0:0:0:0:
128,96,33922,1,0,0:0:0:0:
192,128,34007,1,0,0:0:0:0:
192,128,34091,1,8,0:0:0:0:
192,128,34176,1,0,0:0:0:0:
192,128,34261,1,8,0:0:0:0:
192,128,34346,1,8,0:0:0:0:
192,128,34430,1,0,0:0:0:0:
192,128,34515,1,8,0:0:0:0:
192,128,34600,1,0,0:0:0:0:
192,128,34685,1,0,0:0:0:0:
192,128,34769,1,0,0:0:0:0:
192,128,34854,1,0,0:0:0:0:
192,128,34939,1,8,0:0:0:0:
192,128,35024,1,8,0:0:0:0:
192,128,35108,1,0,0:0:0:0:
192,128,35278,1,12,0:0:0:0:
192,96,35447,1,12,0:0:0:0:
192,96,35617,1,12,0:0:0:0:
192,128,35956,1,0,0:0:0:0:
192,128,36041,1,0,0:0:0:0:
192,128,36125,1,0,0:0:0:0:
192,128,36210,1,0,0:0:0:0:
192,128,36295,1,8,0:0:0:0:
192,128,36634,1,4,0:0:0:0:
288,160,36803,1,8,0:0:0:0:
288,160,36973,1,0,0:0:0:0:
192,96,37142,1,8,0:0:0:0:
128,160,37227,1,8,0:0:0:0:
288,160,37312,1,0,0:0:0:0:
288,160,37481,1,8,0:0:0:0:
288,160,37651,1,0,0:0:0:0:
128,224,37820,1,0,0:0:0:0:
288,160,37905,1,8,0:0:0:0:
128,224,37990,1,0,0:0:0:0:
160,192,38159,1,8,0:0:0:0:
192,96,38329,1,0,0:0:0:0:
192,96,38498,1,8,0:0:0:0:
192,96,38583,1,8,0:0:0:0:
192,96,38668,1,0,0:0:0:0:
288,128,38752,1,0,0:0:0:0:
288,128,38837,1,8,0:0:0:0:
192,96,38922,1,0,0:0:0:0:
288,128,39007,1,8,0:0:0:0:
64,128,39091,1,8,0:0:0:0:
288,128,39176,1,0,0:0:0:0:
288,128,39346,1,8,0:0:0:0:
192,32,39515,1,0,0:0:0:0:
192,64,39600,1,0,0:0:0:0:
192,128,39685,1,8,0:0:0:0:
192,128,39854,1,8,0:0:0:0:
96,96,39939,1,8,0:0:0:0:
192,96,40024,1,0,0:0:0:0:
192,128,40108,1,0,0:0:0:0:
192,128,40193,1,8,0:0:0:0:
192,96,40363,1,0,0:0:0:0:
192,128,40532,1,8,0:0:0:0:
192,0,40617,1,8,0:0:0:0:
160,96,40702,1,0,0:0:0:0:
192,64,40871,1,8,0:0:0:0:
192,64,41041,1,0,0:0:0:0:
192,64,41210,1,8,0:0:0:0:
192,64,41295,1,8,0:0:0:0:
192,128,41380,1,0,0:0:0:0:
192,96,41549,1,0,0:0:0:0:
192,32,41634,1,0,0:0:0:0:
192,128,41718,1,8,0:0:0:0:
136,126,41803,1,0,0:0:0:0:
192,128,41888,1,8,0:0:0:0:
121,110,41973,1,8,0:0:0:0:
192,128,42057,1,0,0:0:0:0:
192,96,42227,1,8,0:0:0:0:
192,96,42396,1,0,0:0:0:0:
192,96,42566,1,8,0:0:0:0:
192,96,42651,1,8,0:0:0:0:
192,96,42735,1,0,0:0:0:0:
192,96,42905,1,8,0:0:0:0:
192,96,43074,1,0,0:0:0:0:
192,128,43244,1,0,0:0:0:0:
128,128,43329,1,8,0:0:0:0:
192,96,43413,1,0,0:0:0:0:
192,96,43583,1,8,0:0:0:0:
192,96,43752,1,0,0:0:0:0:
192,96,43922,1,8,0:0:0:0:
192,96,44007,1,8,0:0:0:0:
192,96,44091,1,0,0:0:0:0:
256,96,44176,1,0,0:0:0:0:
192,128,44261,1,8,0:0:0:0:
160,256,44346,1,0,0:0:0:0:
192,128,44430,1,8,0:0:0:0:
160,256,44515,1,8,0:0:0:0:
192,128,44600,1,0,0:0:0:0:
192,128,44769,1,8,0:0:0:0:
192,96,44939,1,0,0:0:0:0:
192,96,45024,1,0,0:0:0:0:
192,128,45108,1,8,0:0:0:0:
192,128,45278,1,8,0:0:0:0:
128,160,45363,1,8,0:0:0:0:
160,160,45447,1,0,0:0:0:0:
192,32,45532,1,8,0:0:0:0:
192,128,45617,1,0,0:0:0:0:
192,96,45786,1,8,0:0:0:0:
192,128,45956,1,8,0:0:0:0:
192,224,46041,1,8,0:0:0:0:
128,96,46125,1,0,0:0:0:0:
192,96,46295,1,8,0:0:0:0:
192,96,46464,1,0,0:0:0:0:
192,128,46634,1,8,0:0:0:0:
192,64,46718,1,8,0:0:0:0:
192,128,46803,1,0,0:0:0:0:
192,128,46973,1,8,0:0:0:0:
192,128,47142,1,8,0:0:0:0:
192,128,47312,1,0,0:0:0:0:
128,128,47396,1,0,0:0:0:0:
192,128,47481,1,8,0:0:0:0:
256,64,47651,1,0,0:0:0:0:
256,64,47820,1,8,0:0:0:0:
256,64,47990,1,0,0:0:0:0:
256,64,48074,1,0,0:0:0:0:
256,64,48159,1,8,0:0:0:0:
160,96,48244,1,8,0:0:0:0:
224,96,48329,1,0,0:0:0:0:
224,96,48498,1,8,0:0:0:0:
224,96,48668,1,0,0:0:0:0:
160,32,48752,1,8,0:0:0:0:
224,96,48837,1,0,0:0:0:0:
128,96,48922,1,0,0:0:0:0:
224,96,49007,1,8,0:0:0:0:
224,96,49176,1,0,0:0:0:0:
224,96,49346,1,8,0:0:0:0:
192,128,49430,1,8,0:0:0:0:
192,128,49515,1,0,0:0:0:0:
224,96,49685,1,8,0:0:0:0:
224,96,49854,1,0,0:0:0:0:
224,96,50024,1,8,0:0:0:0:
192,64,50108,1,8,0:0:0:0:
224,96,50193,1,0,0:0:0:0:
192,64,50363,1,8,0:0:0:0:
192,32,50532,1,0,0:0:0:0:
192,64,50702,1,8,0:0:0:0:
160,64,50786,1,0,0:0:0:0:
192,64,50871,1,8,0:0:0:0:
192,64,51041,1,0,0:0:0:0:
192,32,51125,1,0,0:0:0:0:
192,64,51210,1,8,0:0:0:0:
192,0,51295,1,0,0:0:0:0:
192,64,51380,1,8,0:0:0:0:
192,64,51549,1,0,0:0:0:0:
192,64,51718,5,8,0:0:0:0:
192,32,51803,1,8,0:0:0:0:
192,64,51888,1,0,0:0:0:0:
192,64,52057,1,8,0:0:0:0:
192,0,52142,1,0,0:0:0:0:
192,64,52227,1,8,0:0:0:0:
192,0,52312,1,8,0:0:0:0:
192,64,52396,1,0,0:0:0:0:
192,64,52566,1,8,0:0:0:0:
192,0,52735,1,8,0:0:0:0:
192,96,52820,1,8,0:0:0:0:
224,160,52905,5,0,0:0:0:0:
224,160,53074,1,0,0:0:0:0:
139,129,53159,1,8,0:0:0:0:
224,160,53244,1,0,0:0:0:0:
224,160,53413,1,8,0:0:0:0:
224,160,53583,1,0,0:0:0:0:
224,160,53752,1,8,0:0:0:0:
183,126,53837,1,8,0:0:0:0:
224,160,53922,1,0,0:0:0:0:
224,160,54091,1,8,0:0:0:0:
192,64,54176,1,8,0:0:0:0:
224,64,54261,1,0,0:0:0:0:
224,64,54346,1,0,0:0:0:0:
224,160,54430,1,8,0:0:0:0:
224,128,54600,1,0,0:0:0:0:
224,128,54769,1,8,0:0:0:0:
224,128,54854,1,0,0:0:0:0:
224,128,54939,1,8,0:0:0:0:
224,128,55108,1,0,0:0:0:0:
96,160,55193,1,0,0:0:0:0:
224,128,55278,1,8,0:0:0:0:
224,128,55447,1,8,0:0:0:0:
192,31,55532,1,8,0:0:0:0:
192,96,55617,1,0,0:0:0:0:
192,96,55702,1,0,0:0:0:0:
192,96,55786,1,8,0:0:0:0:
192,96,55871,1,8,0:0:0:0:
192,96,55956,1,0,0:0:0:0:
192,96,56041,1,0,0:0:0:0:
192,96,56125,1,8,0:0:0:0:
192,96,56210,1,0,0:0:0:0:
192,96,56295,1,8,0:0:0:0:
0,160,56380,1,8,0:0:0:0:
32,160,56464,1,0,0:0:0:0:
192,96,56549,1,8,0:0:0:0:
32,160,56634,1,0,0:0:0:0:
32,160,56718,1,0,0:0:0:0:
192,96,56803,1,8,0:0:0:0:
32,160,56888,1,8,0:0:0:0:
192,96,56973,1,0,0:0:0:0:
224,96,57990,1,8,0:0:0:0:
224,96,58329,1,4,0:0:0:0:
320,128,60702,1,0,0:0:0:0:
192,160,60871,1,0,0:0:0:0:
192,160,60956,1,0,0:0:0:0:
320,128,61041,1,8,0:0:0:0:
224,128,61295,1,0,0:0:0:0:
224,128,61549,1,8,0:0:0:0:
224,128,61803,1,0,0:0:0:0:
224,128,62057,1,8,0:0:0:0:
448,96,62114,1,8,0:0:0:0:
448,96,62170,1,8,0:0:0:0:
448,96,62227,1,0,0:0:0:0:
64,128,62396,1,8,0:0:0:0:
288,128,62481,1,8,0:0:0:0:
288,128,62566,1,8,0:0:0:0:
288,128,62735,1,0,0:0:0:0:
288,128,62905,1,12,0:0:0:0:
288,128,63244,1,12,0:0:0:0:
448,96,63583,1,8,0:0:0:0:
448,96,63639,1,8,0:0:0:0:
448,96,63696,1,8,0:0:0:0:
288,128,63752,1,0,0:0:0:0:
256,128,63837,1,0,0:0:0:0:
256,128,63922,1,8,0:0:0:0:
256,128,64007,1,0,0:0:0:0:
256,128,64091,1,8,0:0:0:0:
256,128,64176,1,8,0:0:0:0:
256,128,64261,1,0,0:0:0:0:
256,128,64346,1,0,0:0:0:0:
256,128,64430,1,8,0:0:0:0:
256,128,64515,1,8,0:0:0:0:
256,128,64600,1,0,0:0:0:0:
256,128,64685,1,0,0:0:0:0:
256,128,64769,1,8,0:0:0:0:
256,128,64854,1,8,0:0:0:0:
256,128,64939,5,0,0:0:0:0:
256,128,65024,5,8,0:0:0:0:
256,128,65108,5,0,0:0:0:0:
256,128,65193,5,0,0:0:0:0:
256,128,65278,5,8,0:0:0:0:
256,128,65363,5,8,0:0:0:0:
256,128,65447,5,0,0:0:0:0:
256,128,65532,5,0,0:0:0:0:
256,128,65617,5,8,0:0:0:0:
256,128,65702,5,0,0:0:0:0:
256,128,65786,5,8,0:0:0:0:
256,128,65871,5,8,0:0:0:0:
256,128,65956,5,0,0:0:0:0:
256,128,66041,5,0,0:0:0:0:
256,128,66125,5,8,0:0:0:0:
256,128,66210,5,8,0:0:0:0:
256,128,66295,5,0,0:0:0:0:
256,128,66380,5,8,0:0:0:0:
256,128,66464,5,0,0:0:0:0:
256,128,66549,5,0,0:0:0:0:
256,128,66634,5,8,0:0:0:0:
256,128,66718,5,8,0:0:0:0:
256,128,66803,5,0,0:0:0:0:
256,128,66888,5,0,0:0:0:0:
256,128,66973,5,8,0:0:0:0:
256,128,67057,5,8,0:0:0:0:
256,128,67142,5,0,0:0:0:0:
256,128,67227,5,0,0:0:0:0:
256,128,67312,5,8,0:0:0:0:
256,128,67396,5,0,0:0:0:0:
256,128,67481,5,8,0:0:0:0:
256,128,67566,5,8,0:0:0:0:
256,128,67651,5,0,0:0:0:0:
256,128,67735,5,0,0:0:0:0:
256,128,67820,5,8,0:0:0:0:
256,128,67905,5,8,0:0:0:0:
256,128,67990,5,0,0:0:0:0:
256,128,68074,5,0,0:0:0:0:
256,128,68159,5,8,0:0:0:0:
256,128,68244,5,8,0:0:0:0:
256,128,68329,5,8,0:0:0:0:
256,128,68413,5,8,0:0:0:0:
256,128,68498,5,0,0:0:0:0:
256,128,68583,5,0,0:0:0:0:
256,128,68668,5,0,0:0:0:0:
256,128,68752,5,0,0:0:0:0:
256,128,68837,5,8,0:0:0:0:
160,160,69176,1,4,0:0:0:0:
224,128,69346,1,8,0:0:0:0:
224,128,69430,1,0,0:0:0:0:
224,192,69515,1,8,0:0:0:0:
128,160,69685,1,0,0:0:0:0:
224,128,69769,1,8,0:0:0:0:
192,192,69854,1,0,0:0:0:0:
224,128,69939,1,0,0:0:0:0:
192,192,70024,1,8,0:0:0:0:
192,0,70108,1,0,0:0:0:0:
224,192,70193,1,8,0:0:0:0:
128,160,70278,1,8,0:0:0:0:
256,96,70363,1,0,0:0:0:0:
224,96,70532,1,8,0:0:0:0:
224,64,70702,1,0,0:0:0:0:
224,64,70786,1,8,0:0:0:0:
160,96,70871,1,0,0:0:0:0:
192,96,71041,1,8,0:0:0:0:
160,192,71125,1,8,0:0:0:0:
256,96,71210,1,0,0:0:0:0:
160,192,71295,1,8,0:0:0:0:
192,96,71380,1,0,0:0:0:0:
192,96,71549,1,8,0:0:0:0:
192,96,71718,1,0,0:0:0:0:
224,64,71803,1,8,0:0:0:0:
192,96,71888,1,0,0:0:0:0:
128,160,72057,1,8,0:0:0:0:
160,192,72142,1,8,0:0:0:0:
192,128,72227,1,0,0:0:0:0:
192,128,72396,1,8,0:0:0:0:
128,128,72481,1,8,0:0:0:0:
192,128,72566,1,0,0:0:0:0:
128,128,72651,1,0,0:0:0:0:
192,128,72735,1,8,0:0:0:0:
192,128,72820,1,0,0:0:0:0:
192,128,72905,1,8,0:0:0:0:
128,128,72990,1,8,0:0:0:0:
192,128,73074,1,0,0:0:0:0:
224,64,73244,1,8,0:0:0:0:
224,128,73413,1,0,0:0:0:0:
224,128,73498,1,8,0:0:0:0:
192,128,73583,1,0,0:0:0:0:
192,128,73752,1,8,0:0:0:0:
192,128,73837,1,8,0:0:0:0:
192,128,73922,1,0,0:0:0:0:
192,128,74007,1,8,0:0:0:0:
192,128,74091,1,0,0:0:0:0:
192,128,74261,1,8,0:0:0:0:
192,160,74430,1,0,0:0:0:0:
32,160,74515,1,8,0:0:0:0:
192,128,74600,1,0,0:0:0:0:
192,128,74769,1,8,0:0:0:0:
192,128,74939,1,0,0:0:0:0:
192,128,75108,1,8,0:0:0:0:
192,128,75193,1,8,0:0:0:0:
192,128,75278,1,0,0:0:0:0:
64,160,75363,1,0,0:0:0:0:
192,128,75447,1,8,0:0:0:0:
192,128,75617,1,0,0:0:0:0:
192,128,75786,1,8,0:0:0:0:
192,128,75871,1,8,0:0:0:0:
192,96,75956,1,0,0:0:0:0:
192,128,76041,1,0,0:0:0:0:
192,128,76125,1,8,0:0:0:0:
160,128,76210,1,8,0:0:0:0:
192,128,76295,1,0,0:0:0:0:
192,128,76464,1,8,0:0:0:0:
192,128,76549,1,8,0:0:0:0:
192,128,76634,1,0,0:0:0:0:
192,128,76718,1,0,0:0:0:0:
192,128,76803,1,8,0:0:0:0:
96,160,76888,1,8,0:0:0:0:
192,128,76973,1,0,0:0:0:0:
160,32,77057,1,0,0:0:0:0:
192,128,77142,1,8,0:0:0:0:
192,128,77227,1,8,0:0:0:0:
192,128,77312,1,0,0:0:0:0:
192,128,77396,1,0,0:0:0:0:
192,128,77481,1,8,0:0:0:0:
192,128,77566,1,0,0:0:0:0:
192,128,77651,1,8,0:0:0:0:
192,128,77735,1,8,0:0:0:0:
192,128,77820,1,0,0:0:0:0:
192,128,77905,1,8,0:0:0:0:
192,128,77990,1,0,0:0:0:0:
192,128,78074,1,0,0:0:0:0:
192,128,78159,1,8,0:0:0:0:
192,128,78244,1,0,0:0:0:0:
192,128,78329,1,8,0:0:0:0:
192,128,78413,1,8,0:0:0:0:
192,128,78498,1,0,0:0:0:0:
192,128,78668,1,12,0:0:0:0:
192,32,78837,1,12,0:0:0:0:
192,64,79007,1,12,0:0:0:0:
160,160,79346,1,0,0:0:0:0:
160,160,79430,1,0,0:0:0:0:
160,160,79515,1,0,0:0:0:0:
160,160,79600,1,0,0:0:0:0:
160,160,79685,1,8,0:0:0:0:
160,160,80024,1,4,0:0:0:0:
160,128,81041,1,4,0:0:0:0:
192,128,81210,1,12,0:0:0:0:
256,128,81380,1,0,0:0:0:0:
224,128,81549,1,0,0:0:0:0:
224,128,81718,1,8,0:0:0:0:
224,128,81888,1,0,0:0:0:0:
128,128,81973,1,0,0:0:0:0:
224,128,82057,1,0,0:0:0:0:
160,96,82227,1,8,0:0:0:0:
224,128,82396,1,0,0:0:0:0:
160,128,82566,1,0,0:0:0:0:
192,128,82735,1,12,0:0:0:0:
192,128,83244,1,12,0:0:0:0:
192,128,83752,1,4,0:0:0:0:
192,128,83922,1,4,0:0:0:0:
192,64,84091,1,8,0:0:0:0:
192,64,84176,1,8,0:0:0:0:
224,192,84261,1,0,0:0:0:0:
192,64,84346,1,0,0:0:0:0:
192,64,84430,1,8,0:0:0:0:
192,32,84600,1,0,0:0:0:0:
192,64,84685,1,0,0:0:0:0:
192,64,84854,1,8,0:0:0:0:
192,64,84939,1,0,0:0:0:0:
192,64,85108,1,8,0:0:0:0:
192,128,85447,1,4,0:0:0:0:
192,128,86464,1,4,0:0:0:0:
160,128,86634,1,12,0:0:0:0:
320,128,86803,1,0,0:0:0:0:
128,160,86973,1,0,0:0:0:0:
128,160,87057,1,0,0:0:0:0:
128,160,87142,1,8,0:0:0:0:
128,160,87312,1,8,0:0:0:0:
128,160,87396,1,8,0:0:0:0:
128,160,87481,1,0,0:0:0:0:
128,160,87566,1,8,0:0:0:0:
128,160,87651,1,0,0:0:0:0:
128,160,87735,1,0,0:0:0:0:
128,160,87820,1,8,0:0:0:0:
128,160,87905,1,8,0:0:0:0:
128,160,87990,1,0,0:0:0:0:
160,128,88159,1,12,0:0:0:0:
160,128,88668,1,12,0:0:0:0:
192,128,89176,1,12,0:0:0:0:
192,128,89346,1,12,0:0:0:0:
128,128,89515,1,0,0:0:0:0:
128,128,89685,1,0,0:0:0:0:
128,128,89854,1,8,0:0:0:0:
128,128,90024,1,8,0:0:0:0:
128,128,90193,1,0,0:0:0:0:
128,128,90278,1,0,0:0:0:0:
128,128,90363,1,0,0:0:0:0:
128,128,90447,1,0,0:0:0:0:
128,128,90532,1,8,0:0:0:0:
128,128,90871,1,4,0:0:0:0:
224,160,91041,1,8,0:0:0:0:
224,160,91210,1,0,0:0:0:0:
224,160,91380,1,8,0:0:0:0:
224,160,91464,1,8,0:0:0:0:
224,160,91549,1,8,0:0:0:0:
224,160,91718,1,0,0:0:0:0:
224,160,91888,1,8,0:0:0:0:
224,160,92057,1,0,0:0:0:0:
224,160,92142,1,8,0:0:0:0:
224,160,92227,1,0,0:0:0:0:
224,160,92396,1,8,0:0:0:0:
224,160,92481,1,8,0:0:0:0:
224,160,92566,1,0,0:0:0:0:
192,64,92651,1,0,0:0:0:0:
224,160,92735,1,8,0:0:0:0:
224,160,92905,1,0,0:0:0:0:
224,160,93074,1,8,0:0:0:0:
224,160,93244,1,0,0:0:0:0:
224,160,93413,1,8,0:0:0:0:
192,64,93498,1,8,0:0:0:0:
224,160,93583,1,0,0:0:0:0:
192,96,93752,1,8,0:0:0:0:
192,96,93922,1,0,0:0:0:0:
192,96,94091,1,8,0:0:0:0:
192,96,94176,1,0,0:0:0:0:
192,96,94261,1,8,0:0:0:0:
192,128,94430,1,0,0:0:0:0:
192,128,94515,1,0,0:0:0:0:
192,128,94600,1,8,0:0:0:0:
192,128,94685,1,0,0:0:0:0:
192,128,94769,1,8,0:0:0:0:
224,64,94854,1,8,0:0:0:0:
192,128,94939,1,0,0:0:0:0:
192,128,95108,1,8,0:0:0:0:
192,128,95193,1,0,0:0:0:0:
192,128,95278,1,8,0:0:0:0:
192,128,95447,1,0,0:0:0:0:
192,128,95532,1,8,0:0:0:0:
192,128,95617,1,8,0:0:0:0:
192,128,95702,1,8,0:0:0:0:
192,128,95786,1,0,0:0:0:0:
192,128,95956,1,8,0:0:0:0:
192,128,96125,1,8,0:0:0:0:
224,64,96210,1,8,0:0:0:0:
192,128,96295,1,0,0:0:0:0:
160,160,96464,1,0,0:0:0:0:
172,70,96549,1,8,0:0:0:0:
160,160,96634,1,0,0:0:0:0:
160,160,96803,1,8,0:0:0:0:
160,160,96973,1,0,0:0:0:0:
160,160,97142,1,8,0:0:0:0:
241,126,97227,1,8,0:0:0:0:
160,160,97312,1,0,0:0:0:0:
160,160,97481,1,8,0:0:0:0:
160,160,97566,1,8,0:0:0:0:
160,160,97651,1,0,0:0:0:0:
160,160,97735,1,0,0:0:0:0:
160,160,97820,1,8,0:0:0:0:
160,160,97990,1,0,0:0:0:0:
160,160,98159,1,8,0:0:0:0:
160,160,98244,1,8,0:0:0:0:
160,160,98329,1,0,0:0:0:0:
192,64,98413,1,0,0:0:0:0:
160,160,98498,1,8,0:0:0:0:
192,32,98583,1,0,0:0:0:0:
160,160,98668,1,8,0:0:0:0:
160,160,98837,1,0,0:0:0:0:
160,160,98922,1,8,0:0:0:0:
224,128,99007,1,0,0:0:0:0:
192,64,99091,1,0,0:0:0:0:
224,128,99176,1,8,0:0:0:0:
64,128,99261,1,8,0:0:0:0:
224,128,99346,1,0,0:0:0:0:
128,128,99430,1,0,0:0:0:0:
224,128,99515,1,8,0:0:0:0:
128,128,99600,1,0,0:0:0:0:
224,128,99685,1,8,0:0:0:0:
128,96,99769,1,8,0:0:0:0:
224,128,99854,1,0,0:0:0:0:
224,128,99939,1,8,0:0:0:0:
224,128,100024,1,0,0:0:0:0:
64,160,100108,1,0,0:0:0:0:
224,128,100193,1,8,0:0:0:0:
96,128,100278,1,8,0:0:0:0:
224,128,100363,1,0,0:0:0:0:
160,192,101380,1,8,0:0:0:0:
224,96,101718,1,4,0:0:0:0:
416,160,101973,1,8,0:0:0:0:
416,192,102057,1,0,0:0:0:0:
416,192,102227,1,8,0:0:0:0:
416,160,102396,1,0,0:0:0:0:
224,96,102481,1,0,0:0:0:0:
416,160,102566,1,8,0:0:0:0:
416,160,102735,1,0,0:0:0:0:
416,160,102905,1,8,0:0:0:0:
320,160,102990,1,0,0:0:0:0:
416,160,103074,1,8,0:0:0:0:
416,160,103329,1,0,0:0:0:0:
416,160,103413,1,0,0:0:0:0:
416,160,103583,1,8,0:0:0:0:
416,160,103752,1,0,0:0:0:0:
416,160,103837,1,0,0:0:0:0:
416,160,103922,1,8,0:0:0:0:
416,160,104091,1,0,0:0:0:0:
320,128,104261,1,8,0:0:0:0:
320,160,104346,1,8,0:0:0:0:
416,160,104430,1,8,0:0:0:0:
416,160,104685,1,8,0:0:0:0:
416,160,104769,1,0,0:0:0:0:
416,160,104939,1,8,0:0:0:0:
192,64,105024,1,8,0:0:0:0:
416,160,105108,1,0,0:0:0:0:
416,160,105193,1,8,0:0:0:0:
416,160,105278,1,0,0:0:0:0:
416,160,105447,1,8,0:0:0:0:
416,160,105617,1,8,0:0:0:0:
416,160,105786,1,4,0:0:0:0:
416,160,105956,1,4,0:0:0:0:
256,160,106295,1,12,0:0:0:0:
256,160,106634,1,12,0:0:0:0:
256,160,106803,1,8,0:0:0:0:
448,96,106860,1,8,0:0:0:0:
416,96,106916,1,8,0:0:0:0:
416,96,106973,1,0,0:0:0:0:
288,128,107142,1,12,0:0:0:0:
256,128,107396,1,0,0:0:0:0:
256,128,107481,1,0,0:0:0:0:
256,128,107651,1,8,0:0:0:0:
256,128,107735,1,8,0:0:0:0:
256,128,107820,1,0,0:0:0:0:
192,32,107905,1,0,0:0:0:0:
256,128,107990,1,8,0:0:0:0:
256,128,108159,1,0,0:0:0:0:
256,128,108329,1,8,0:0:0:0:
256,160,108413,1,0,0:0:0:0:
256,160,108498,1,8,0:0:0:0:
256,160,108583,1,8,0:0:0:0:
96,160,108668,1,0,0:0:0:0:
256,160,108837,1,8,0:0:0:0:
256,160,109007,1,0,0:0:0:0:
256,160,109091,1,8,0:0:0:0:
256,160,109261,1,8,0:0:0:0:
256,160,109346,1,0,0:0:0:0:
256,160,109430,1,0,0:0:0:0:
256,160,109515,1,8,0:0:0:0:
119,135,109600,1,0,0:0:0:0:
160,32,109685,1,8,0:0:0:0:
256,160,109854,1,0,0:0:0:0:
224,128,109939,1,0,0:0:0:0:
224,128,110024,1,8,0:0:0:0:
224,128,110108,1,0,0:0:0:0:
224,128,110193,1,8,0:0:0:0:
224,128,110278,1,8,0:0:0:0:
224,128,110363,1,0,0:0:0:0:
224,128,110447,1,0,0:0:0:0:
224,128,110532,1,8,0:0:0:0:
224,128,110617,1,8,0:0:0:0:
224,128,110702,1,0,0:0:0:0:
224,128,110786,1,8,0:0:0:0:
224,128,110871,1,8,0:0:0:0:
224,128,110956,1,0,0:0:0:0:
224,128,111041,1,0,0:0:0:0:
224,128,111125,1,8,0:0:0:0:
224,128,111380,1,12,0:0:0:0:
224,128,111718,1,12,0:0:0:0:
224,128,112057,1,4,0:0:0:0:
224,128,112227,1,8,0:0:0:0:
160,160,112312,1,8,0:0:0:0:
160,160,112396,1,0,0:0:0:0:
160,160,112566,1,4,0:0:0:0:
