osu file format v14

[General]
AudioFilename: audio.mp3
AudioLeadIn: 0
PreviewTime: 23726
Countdown: 1
SampleSet: Normal
StackLeniency: 0.7
Mode: 1
LetterboxInBreaks: 0
WidescreenStoryboard: 1

[Editor]
DistanceSpacing: 1
BeatDivisor: 4
GridSize: 32
TimelineZoom: 2.4

[Metadata]
Title:Hello Happiness
TitleUnicode:Hello Happiness
Artist:P*Light feat. mow*2
ArtistUnicode:P*Light feat. mow*2
Creator:Nanatsu
Version:Futsuu
Source:1
Tags:1
BeatmapID:1215169
BeatmapSetID:573211

[Difficulty]
HPDrainRate:5
CircleSize:5
OverallDifficulty:6
ApproachRate:5
SliderMultiplier:1.4
SliderTickRate:1

[Events]
//Background and Video events
0,0,"2c349c44829761.582000a354900.jpg",0,0
//Break Periods
//Storyboard Layer 0 (Background)
//Storyboard Layer 1 (Fail)
//Storyboard Layer 2 (Pass)
//Storyboard Layer 3 (Foreground)
//Storyboard Sound Samples

[TimingPoints]
485,329.67032967033,4,1,0,60,1,0
18946,-100,4,1,0,60,0,0
24221,-100,4,1,0,60,0,1
44001,-100,4,1,0,60,0,0
55869,-133.333333333333,4,1,0,60,0,0
66419,-200,4,1,0,60,0,0
71693,-100,4,1,0,60,0,0
79605,-90.9090909090909,4,1,0,60,0,1
89825,-90.9090909090909,4,1,0,60,0,0
90155,-90.9090909090909,4,1,0,60,0,1
100704,-90.9090909090909,4,1,0,60,0,0

[HitObjects]
256,192,485,12,0,1474,0:0:0:0:
96,224,1803,5,4,0:0:0:0:
96,224,2463,5,0,0:0:0:0:
192,160,3122,1,4,0:0:0:0:
160,192,3452,1,8,0:0:0:0:
160,192,3781,1,0,0:0:0:0:
160,192,4111,1,0,0:0:0:0:
160,128,4276,1,8,0:0:0:0:
160,224,4605,1,8,0:0:0:0:
288,224,4935,1,0,0:0:0:0:
224,224,5100,1,8,0:0:0:0:
224,224,5265,1,0,0:0:0:0:
192,192,5430,1,8,0:0:0:0:
224,192,6089,1,8,0:0:0:0:
224,192,6419,1,0,0:0:0:0:
288,192,6748,1,0,0:0:0:0:
320,192,6913,1,8,0:0:0:0:
320,192,7243,1,8,0:0:0:0:
192,224,7572,1,0,0:0:0:0:
224,224,7737,1,8,0:0:0:0:
224,224,7902,1,8,0:0:0:0:
224,224,8067,1,0,0:0:0:0:
192,192,8726,1,12,0:0:0:0:
192,224,9056,1,8,0:0:0:0:
192,192,9386,1,0,0:0:0:0:
224,160,9550,1,8,0:0:0:0:
224,160,9880,1,8,0:0:0:0:
128,192,10210,1,0,0:0:0:0:
352,192,10375,1,8,0:0:0:0:
224,224,10539,1,8,0:0:0:0:
192,160,10704,1,0,0:0:0:0:
256,192,11034,1,0,0:0:0:0:
256,192,11199,1,8,0:0:0:0:
256,192,11364,1,0,0:0:0:0:
288,192,11693,1,8,0:0:0:0:
288,192,12023,1,8,0:0:0:0:
256,192,12353,12,0,13342,0:0:0:0:
224,192,13671,5,4,0:0:0:0:
160,192,14990,1,8,0:0:0:0:
192,192,15979,1,4,0:0:0:0:
224,192,16309,1,4,0:0:0:0:
224,192,17627,1,4,0:0:0:0:
224,192,18287,1,12,0:0:0:0:
224,192,18616,1,12,0:0:0:0:
160,192,18946,1,4,0:0:0:0:
224,224,19605,1,0,0:0:0:0:
224,192,20265,1,8,0:0:0:0:
160,160,20924,1,8,0:0:0:0:
160,160,21254,1,8,0:0:0:0:
256,192,21583,12,0,22902,0:0:0:0:
128,192,23891,5,0,0:0:0:0:
160,192,24221,1,12,0:0:0:0:
256,192,24550,1,8,0:0:0:0:
256,192,24715,1,0,0:0:0:0:
224,192,25045,1,0,0:0:0:0:
160,128,25210,1,8,0:0:0:0:
256,192,25539,1,8,0:0:0:0:
192,160,25869,1,8,0:0:0:0:
192,160,26034,1,0,0:0:0:0:
192,160,26364,1,8,0:0:0:0:
128,192,26858,1,8,0:0:0:0:
160,160,27188,1,0,0:0:0:0:
160,160,27517,1,8,0:0:0:0:
160,160,27682,1,0,0:0:0:0:
160,160,27847,1,0,0:0:0:0:
224,192,28177,1,8,0:0:0:0:
320,192,28506,1,8,0:0:0:0:
288,160,28671,1,0,0:0:0:0:
256,160,29166,1,8,0:0:0:0:
192,192,29495,1,4,0:0:0:0:
160,160,29825,1,8,0:0:0:0:
160,160,29990,1,0,0:0:0:0:
192,160,30320,1,0,0:0:0:0:
160,160,30485,1,8,0:0:0:0:
160,160,30814,1,8,0:0:0:0:
192,192,31144,1,8,0:0:0:0:
192,160,31309,1,0,0:0:0:0:
192,160,31638,1,8,0:0:0:0:
192,160,32133,1,12,0:0:0:0:
224,160,32463,1,0,0:0:0:0:
192,160,32792,1,8,0:0:0:0:
192,160,32957,1,8,0:0:0:0:
192,160,33122,1,0,0:0:0:0:
192,192,33287,1,0,0:0:0:0:
192,192,33452,1,8,0:0:0:0:
256,192,34441,1,0,0:0:0:0:
192,192,34770,1,4,0:0:0:0:
160,160,35100,1,8,0:0:0:0:
160,160,35265,1,0,0:0:0:0:
160,160,35430,1,8,0:0:0:0:
96,192,35759,1,0,0:0:0:0:
128,160,36089,1,8,0:0:0:0:
128,160,36748,1,8,0:0:0:0:
160,160,37078,1,0,0:0:0:0:
256,192,37243,1,0,0:0:0:0:
160,128,37408,1,8,0:0:0:0:
192,128,37737,1,0,0:0:0:0:
192,128,37902,1,8,0:0:0:0:
160,160,38232,1,8,0:0:0:0:
160,160,38397,1,0,0:0:0:0:
192,192,38561,1,8,0:0:0:0:
192,192,38891,1,0,0:0:0:0:
192,192,39221,1,8,0:0:0:0:
128,192,40045,1,4,0:0:0:0:
128,160,40375,1,8,0:0:0:0:
160,160,40539,1,0,0:0:0:0:
160,192,40704,1,8,0:0:0:0:
64,160,41034,1,0,0:0:0:0:
128,160,41364,1,8,0:0:0:0:
128,160,41693,1,0,0:0:0:0:
224,160,41858,1,8,0:0:0:0:
256,192,42353,1,0,0:0:0:0:
192,224,42682,2,0,L|352:224,4,140
224,224,45320,1,4,0:0:0:0:
128,192,45649,1,8,0:0:0:0:
160,192,45979,1,0,0:0:0:0:
64,160,46309,1,0,0:0:0:0:
192,160,46474,1,8,0:0:0:0:
192,160,46803,1,8,0:0:0:0:
192,192,47133,1,0,0:0:0:0:
224,192,47298,1,8,0:0:0:0:
224,192,47463,1,0,0:0:0:0:
224,192,47627,1,8,0:0:0:0:
160,160,48287,1,8,0:0:0:0:
160,160,48616,1,0,0:0:0:0:
128,160,48946,1,0,0:0:0:0:
192,128,49111,1,8,0:0:0:0:
192,128,49441,1,8,0:0:0:0:
256,128,49770,1,0,0:0:0:0:
256,128,49935,1,8,0:0:0:0:
256,128,50100,1,0,0:0:0:0:
224,128,50265,1,8,0:0:0:0:
224,192,50594,1,4,0:0:0:0:
192,224,50924,1,8,0:0:0:0:
160,192,51254,1,0,0:0:0:0:
192,160,51583,1,0,0:0:0:0:
192,160,51748,1,8,0:0:0:0:
192,160,52078,1,8,0:0:0:0:
96,160,52408,1,0,0:0:0:0:
96,128,52572,1,8,0:0:0:0:
96,128,52737,1,8,0:0:0:0:
96,128,52902,1,0,0:0:0:0:
256,192,53232,12,0,54550,0:0:0:0:
224,224,55869,5,12,0:0:0:0:
192,192,57188,1,8,0:0:0:0:
224,192,58506,1,8,0:0:0:0:
160,160,59495,1,0,0:0:0:0:
192,160,59825,1,8,0:0:0:0:
192,160,61144,1,8,0:0:0:0:
192,160,62463,1,8,0:0:0:0:
128,192,63452,1,0,0:0:0:0:
128,160,63781,1,8,0:0:0:0:
256,192,65100,12,0,66089,0:0:0:0:
96,192,66419,5,4,0:0:0:0:
224,160,69056,1,0,0:0:0:0:
224,160,71693,1,4,0:0:0:0:
256,160,72023,1,8,0:0:0:0:
256,160,72188,1,0,0:0:0:0:
224,160,72353,1,8,0:0:0:0:
160,192,72682,1,0,0:0:0:0:
160,160,73012,1,8,0:0:0:0:
128,160,73342,1,0,0:0:0:0:
128,160,73506,1,8,0:0:0:0:
128,160,73671,1,8,0:0:0:0:
96,192,74001,1,8,0:0:0:0:
256,192,74331,12,0,76968,0:0:0:0:
192,224,78287,5,4,0:0:0:0:
192,224,78946,1,4,0:0:0:0:
224,224,79605,1,12,0:0:0:0:
256,128,79935,1,0,0:0:0:0:
256,128,80100,1,0,0:0:0:0:
256,128,80265,1,8,0:0:0:0:
288,224,80594,1,0,0:0:0:0:
192,160,80924,1,8,0:0:0:0:
224,160,81254,1,8,0:0:0:0:
224,160,81419,1,0,0:0:0:0:
224,160,81583,1,8,0:0:0:0:
256,224,82243,1,0,0:0:0:0:
256,192,82572,1,0,0:0:0:0:
256,192,82737,1,0,0:0:0:0:
256,224,82902,1,8,0:0:0:0:
288,192,83232,1,0,0:0:0:0:
256,192,83561,1,8,0:0:0:0:
256,192,83891,1,8,0:0:0:0:
256,192,84056,1,8,0:0:0:0:
256,192,84221,1,0,0:0:0:0:
160,192,84550,1,8,0:0:0:0:
224,160,85045,1,0,0:0:0:0:
224,160,85210,1,8,0:0:0:0:
288,160,85539,1,0,0:0:0:0:
320,192,85704,1,0,0:0:0:0:
320,192,85869,1,0,0:0:0:0:
352,192,86199,1,8,0:0:0:0:
192,160,86528,1,8,0:0:0:0:
256,160,86693,1,0,0:0:0:0:
256,192,86858,1,8,0:0:0:0:
224,256,87188,1,0,0:0:0:0:
96,160,87517,1,8,0:0:0:0:
96,160,87682,1,8,0:0:0:0:
96,160,87847,1,0,0:0:0:0:
160,160,88177,1,8,0:0:0:0:
160,160,88342,1,8,0:0:0:0:
160,160,88506,1,0,0:0:0:0:
160,160,88671,1,0,0:0:0:0:
160,160,88836,1,8,0:0:0:0:
192,96,90155,5,4,0:0:0:0:
160,192,90485,1,0,0:0:0:0:
160,224,90649,1,8,0:0:0:0:
256,192,91144,1,8,0:0:0:0:
128,192,91474,1,8,0:0:0:0:
192,128,91803,1,0,0:0:0:0:
256,192,91968,1,8,0:0:0:0:
256,96,92463,1,8,0:0:0:0:
160,192,92792,1,8,0:0:0:0:
160,192,92957,1,0,0:0:0:0:
192,160,93122,1,0,0:0:0:0:
224,192,93287,1,8,0:0:0:0:
160,192,93781,1,0,0:0:0:0:
192,192,94111,1,8,0:0:0:0:
192,192,94441,1,8,0:0:0:0:
192,192,94605,1,0,0:0:0:0:
224,160,94935,1,0,0:0:0:0:
192,192,95100,1,8,0:0:0:0:
224,96,95430,1,8,0:0:0:0:
192,192,95759,1,0,0:0:0:0:
192,192,95924,1,8,0:0:0:0:
192,160,96089,1,0,0:0:0:0:
128,192,96419,1,0,0:0:0:0:
192,192,96748,1,8,0:0:0:0:
192,192,97078,1,0,0:0:0:0:
192,192,97243,1,0,0:0:0:0:
192,192,97408,1,8,0:0:0:0:
192,192,97737,1,8,0:0:0:0:
160,224,98067,2,0,L|320:224,3,154.000004699707
192,192,99386,5,8,0:0:0:0:
192,192,100704,1,4,0:0:0:0:
