osu file format v14

[General]
AudioFilename: audio.mp3
AudioLeadIn: 0
PreviewTime: 34496
Countdown: 0
SampleSet: Soft
StackLeniency: 0.7
Mode: 3
LetterboxInBreaks: 0
SpecialStyle: 0
WidescreenStoryboard: 0

[Editor]
DistanceSpacing: 1.1
BeatDivisor: 4
GridSize: 4
TimelineZoom: 1.100002

[Metadata]
Title:Hello Happiness
TitleUnicode:Hello Happiness
Artist:P*Light feat. mow*2
ArtistUnicode:P*Light feat. mow*2
Creator:Maxus
Version:Advanced
Source:beatmania IIDX 22 PENDUAL
Tags:Critical_Star REFLEC BEAT groovin'!! Upper starmine Ryu* KONAMI BEMANI SOUND VOLTEX HAPPY HARDCORE beatnation RHYZE
BeatmapID:1167078
BeatmapSetID:483147

[Difficulty]
HPDrainRate:7.5
CircleSize:4
OverallDifficulty:7.5
ApproachRate:5
SliderMultiplier:1.4
SliderTickRate:1

[Events]
//Background and Video events
0,0,"BG6.jpg",0,0
//Break Periods
//Storyboard Layer 0 (Background)
//Storyboard Layer 1 (Fail)
//Storyboard Layer 2 (Pass)
//Storyboard Layer 3 (Foreground)
//Storyboard Sound Samples

[TimingPoints]
1859,329.67032967033,4,2,1,30,1,0
24276,-100,4,2,1,30,0,1
34826,-100,4,2,1,30,0,0
79661,-100,4,2,1,30,0,1
99441,-100,4,2,1,30,0,0

[HitObjects]
448,192,540,128,0,1199:0:0:0:0:
64,192,1199,1,0,0:0:0:0:
192,192,1282,1,0,0:0:0:0:
320,192,1364,1,0,0:0:0:0:
64,192,1446,1,0,0:0:0:0:
448,192,1529,1,0,0:0:0:0:
320,192,1611,1,0,0:0:0:0:
64,192,1694,1,0,0:0:0:0:
192,192,1776,1,0,0:0:0:0:
448,192,1859,1,4,0:0:0:0:
320,192,1859,1,2,0:0:0:0:
192,192,2023,1,0,0:0:0:0:
320,192,2106,1,0,0:0:0:0:
64,192,2188,1,0,0:0:0:0:
192,192,2271,1,0,0:0:0:0:
448,192,2353,1,0,0:0:0:0:
320,192,2435,1,0,0:0:0:0:
64,192,2518,1,4,0:0:0:0:
192,192,2518,1,2,0:0:0:0:
448,192,2683,1,0,0:0:0:0:
192,192,2765,1,0,0:0:0:0:
320,192,2848,1,0,0:0:0:0:
64,192,2930,1,0,0:0:0:0:
192,192,3012,1,0,0:0:0:0:
320,192,3095,1,0,0:0:0:0:
64,192,3177,1,4,0:0:0:0:
448,192,3177,1,2,0:0:0:0:
192,192,3342,1,0,0:0:0:0:
320,192,3507,1,8,0:0:0:0:
448,192,3507,1,0,0:0:0:0:
64,192,3672,1,0,0:0:0:0:
320,192,3837,1,2,0:0:0:0:
192,192,3919,1,0,0:0:0:0:
448,192,4001,1,0,0:0:0:0:
64,192,4166,1,8,0:0:0:0:
320,192,4166,1,0,0:0:0:0:
192,192,4331,1,0,0:0:0:0:
320,192,4413,1,0,0:0:0:0:
448,192,4496,1,2,0:0:0:0:
320,192,4661,1,0,0:0:0:0:
64,192,4826,1,8,0:0:0:0:
192,192,4826,1,0,0:0:0:0:
448,192,4990,1,0,0:0:0:0:
320,192,5073,1,0,0:0:0:0:
192,192,5155,1,2,0:0:0:0:
320,192,5320,1,0,0:0:0:0:
192,192,5402,1,0,0:0:0:0:
448,192,5485,128,2,5650:0:0:0:0:
64,192,5485,1,0,0:0:0:0:
192,192,5650,128,2,5815:0:0:0:0:
320,192,5650,1,0,0:0:0:0:
64,192,5815,1,2,0:0:0:0:
448,192,5815,1,0,0:0:0:0:
320,192,5979,1,0,0:0:0:0:
64,192,6062,1,0,0:0:0:0:
192,192,6144,1,8,0:0:0:0:
448,192,6144,1,0,0:0:0:0:
320,192,6309,1,0,0:0:0:0:
64,192,6474,1,2,0:0:0:0:
448,192,6639,1,0,0:0:0:0:
192,192,6804,1,8,0:0:0:0:
320,192,6804,1,0,0:0:0:0:
64,192,6968,1,0,0:0:0:0:
448,192,7133,1,2,0:0:0:0:
192,192,7298,1,0,0:0:0:0:
448,192,7463,1,8,0:0:0:0:
320,192,7463,1,0,0:0:0:0:
64,192,7545,1,0,0:0:0:0:
192,192,7628,1,0,0:0:0:0:
448,192,7710,1,0,0:0:0:0:
320,192,7793,1,2,0:0:0:0:
64,192,7957,1,0,0:0:0:0:
192,192,8040,1,0,0:0:0:0:
448,192,8122,128,2,8287:0:0:0:0:
320,192,8122,1,0,0:0:0:0:
64,192,8287,128,2,8452:0:0:0:0:
192,192,8287,1,0,0:0:0:0:
320,192,8452,128,0,8782:0:0:0:0:
64,192,8782,1,8,0:0:0:0:
448,192,8782,1,4,0:0:0:0:
192,192,9111,1,8,0:0:0:0:
320,192,9111,1,4,0:0:0:0:
192,192,9441,1,0,0:0:0:0:
320,192,9523,1,0,0:0:0:0:
64,192,9606,1,4,0:0:0:0:
448,192,9606,1,8,0:0:0:0:
448,192,9935,1,8,0:0:0:0:
64,192,9935,1,4,0:0:0:0:
192,192,10265,1,4,0:0:0:0:
64,192,10265,1,8,0:0:0:0:
448,192,10430,1,4,0:0:0:0:
320,192,10430,1,8,0:0:0:0:
192,192,10595,1,0,0:0:0:0:
320,192,10677,1,0,0:0:0:0:
64,192,10760,1,4,0:0:0:0:
448,192,10760,1,8,0:0:0:0:
320,192,10924,1,0,0:0:0:0:
192,192,11007,1,0,0:0:0:0:
64,192,11089,1,8,0:0:0:0:
448,192,11089,1,4,0:0:0:0:
320,192,11254,1,2,0:0:0:0:
192,192,11337,1,2,0:0:0:0:
320,192,11419,1,2,0:0:0:0:
448,192,11419,1,0,0:0:0:0:
64,192,11584,1,2,0:0:0:0:
192,192,11666,1,2,0:0:0:0:
320,192,11749,1,2,0:0:0:0:
448,192,11831,1,2,0:0:0:0:
64,192,11913,1,2,0:0:0:0:
320,192,11996,1,2,0:0:0:0:
192,192,12078,1,2,0:0:0:0:
448,192,12161,1,2,0:0:0:0:
64,192,12243,1,2,0:0:0:0:
192,192,12326,1,2,0:0:0:0:
320,192,12408,1,4,0:0:0:0:
448,192,12408,128,8,13727:0:0:0:0:
64,192,13067,128,0,13562:0:0:0:0:
192,192,13232,1,8,0:0:0:0:
320,192,13397,1,8,0:0:0:0:
192,192,13562,1,8,0:0:0:0:
64,192,13727,1,2,0:0:0:0:
320,192,13727,1,4,0:0:0:0:
192,192,14056,1,8,1:0:0:0:
320,192,14056,1,0,0:0:0:0:
320,192,14386,1,8,1:0:0:0:
448,192,14386,1,0,0:0:0:0:
64,192,14716,1,8,0:0:0:0:
448,192,14716,1,0,0:0:0:0:
64,192,15045,1,8,1:0:0:0:
192,192,15045,1,0,0:0:0:0:
192,192,15375,1,8,1:0:0:0:
320,192,15375,1,0,0:0:0:0:
320,192,15705,1,8,1:0:0:0:
448,192,15705,1,0,0:0:0:0:
192,192,16034,1,4,0:0:0:0:
64,192,16034,1,2,0:0:0:0:
448,192,16364,1,2,0:0:0:0:
64,192,16364,1,4,0:0:0:0:
320,192,16694,1,8,1:0:0:0:
448,192,16694,1,0,0:0:0:0:
64,192,17023,1,8,1:0:0:0:
192,192,17023,1,0,0:0:0:0:
192,192,17353,1,8,1:0:0:0:
320,192,17353,1,0,0:0:0:0:
64,192,17683,1,2,0:0:0:0:
448,192,17683,1,4,0:0:0:0:
192,192,18012,1,8,0:0:0:0:
320,192,18012,1,0,0:0:0:0:
64,192,18342,1,4,0:0:0:0:
448,192,18342,1,2,0:0:0:0:
64,192,18672,1,4,0:0:0:0:
448,192,18672,1,2,0:0:0:0:
192,192,19001,1,2,0:0:0:0:
320,192,19001,1,4,0:0:0:0:
64,192,19166,1,8,0:0:0:0:
448,192,19331,1,8,0:0:0:0:
192,192,19496,1,8,0:0:0:0:
320,192,19578,1,8,0:0:0:0:
448,192,19661,1,2,0:0:0:0:
64,192,19661,1,4,0:0:0:0:
192,192,19826,1,8,0:0:0:0:
320,192,19990,1,8,0:0:0:0:
448,192,20155,1,8,0:0:0:0:
320,192,20238,1,8,0:0:0:0:
64,192,20320,1,4,0:0:0:0:
192,192,20320,1,2,0:0:0:0:
448,192,20485,1,8,0:0:0:0:
192,192,20567,1,8,0:0:0:0:
320,192,20650,1,8,0:0:0:0:
64,192,20815,1,8,0:0:0:0:
192,192,20897,1,8,0:0:0:0:
320,192,20979,1,8,0:0:0:0:
448,192,20979,1,4,0:0:0:0:
192,192,21144,1,8,0:0:0:0:
320,192,21227,1,8,0:0:0:0:
64,192,21309,1,4,0:0:0:0:
448,192,21309,1,2,0:0:0:0:
320,192,21474,1,8,0:0:0:0:
192,192,21556,1,8,0:0:0:0:
320,192,21639,1,4,0:0:0:0:
448,192,21639,128,8,22298:0:0:0:0:
64,192,21804,1,12,0:0:0:0:
320,192,21968,1,4,0:0:0:0:
192,192,21968,1,8,0:0:0:0:
64,192,22133,1,12,0:0:0:0:
320,192,22298,1,4,0:0:0:0:
192,192,22298,1,8,0:0:0:0:
64,192,22380,1,8,0:0:0:0:
448,192,22463,1,8,0:0:0:0:
192,192,22545,1,8,0:0:0:0:
320,192,22628,1,8,0:0:0:0:
64,192,22710,1,8,0:0:0:0:
448,192,22793,1,8,0:0:0:0:
320,192,22875,1,8,0:0:0:0:
64,192,22957,1,4,0:0:0:0:
192,192,22957,1,2,0:0:0:0:
320,192,23122,1,0,0:0:0:0:
64,192,23287,1,4,0:0:0:0:
448,192,23287,1,2,0:0:0:0:
192,192,23452,1,0,0:0:0:0:
320,192,23534,1,0,0:0:0:0:
64,192,23617,1,4,0:0:0:0:
448,192,23617,1,2,0:0:0:0:
192,192,23782,1,8,0:0:0:0:
320,192,23946,1,8,0:0:0:0:
192,192,24029,1,0,0:0:0:0:
320,192,24111,1,0,0:0:0:0:
192,192,24194,1,0,0:0:0:0:
448,192,24276,1,4,0:0:0:0:
64,192,24276,128,2,24441:0:0:0:0:
192,192,24606,1,8,0:0:0:0:
448,192,24606,1,0,0:0:0:0:
320,192,24771,128,0,24935:0:0:0:0:
64,192,24935,1,2,0:0:0:0:
192,192,25100,1,0,0:0:0:0:
320,192,25265,1,8,0:0:0:0:
448,192,25265,1,0,0:0:0:0:
64,192,25430,1,0,0:0:0:0:
192,192,25595,128,2,25760:0:0:0:0:
448,192,25595,1,0,0:0:0:0:
64,192,25924,1,8,0:0:0:0:
320,192,25924,1,0,0:0:0:0:
448,192,26089,128,0,26254:0:0:0:0:
192,192,26254,1,2,0:0:0:0:
320,192,26419,1,0,0:0:0:0:
192,192,26584,1,8,0:0:0:0:
64,192,26584,128,0,26749:0:0:0:0:
448,192,26913,128,2,27078:0:0:0:0:
320,192,26913,1,0,0:0:0:0:
64,192,27243,1,8,0:0:0:0:
192,192,27243,128,0,27408:0:0:0:0:
320,192,27573,1,2,0:0:0:0:
64,192,27738,1,0,0:0:0:0:
320,192,27902,1,8,0:0:0:0:
448,192,27902,1,0,0:0:0:0:
192,192,28067,1,0,0:0:0:0:
64,192,28232,128,2,28397:0:0:0:0:
448,192,28232,1,0,0:0:0:0:
192,192,28562,1,8,0:0:0:0:
320,192,28562,1,0,0:0:0:0:
448,192,28727,128,0,28891:0:0:0:0:
64,192,28891,1,2,0:0:0:0:
320,192,29056,1,0,0:0:0:0:
192,192,29221,128,0,29551:0:0:0:0:
448,192,29551,128,2,29716:0:0:0:0:
64,192,29551,1,4,0:0:0:0:
320,192,29880,1,8,0:0:0:0:
64,192,29880,1,0,0:0:0:0:
192,192,30045,128,0,30210:0:0:0:0:
448,192,30210,1,2,0:0:0:0:
64,192,30375,1,0,0:0:0:0:
448,192,30540,1,8,0:0:0:0:
320,192,30540,1,0,0:0:0:0:
192,192,30705,1,0,0:0:0:0:
448,192,30869,1,2,0:0:0:0:
320,192,30869,128,4,31034:0:0:0:0:
192,192,31199,1,8,0:0:0:0:
64,192,31199,1,0,0:0:0:0:
448,192,31364,1,0,0:0:0:0:
64,192,31529,1,4,0:0:0:0:
320,192,31529,1,2,0:0:0:0:
448,192,31694,1,0,0:0:0:0:
192,192,31859,1,4,0:0:0:0:
320,192,31859,1,8,0:0:0:0:
320,192,32023,1,2,0:0:0:0:
64,192,32188,1,4,0:0:0:0:
448,192,32188,128,8,32848:0:0:0:0:
192,192,32518,1,8,0:0:0:0:
320,192,32518,1,4,0:0:0:0:
320,192,32848,1,4,0:0:0:0:
64,192,32848,128,8,33507:0:0:0:0:
320,192,33012,1,8,0:0:0:0:
192,192,33012,1,4,0:0:0:0:
448,192,33177,1,4,0:0:0:0:
192,192,33177,1,8,0:0:0:0:
320,192,33342,1,8,0:0:0:0:
448,192,33342,1,4,0:0:0:0:
192,192,33507,128,8,33672:0:0:0:0:
448,192,33507,1,6,0:0:0:0:
320,192,33672,128,0,33837:0:0:0:0:
448,192,33837,128,8,34001:0:0:0:0:
64,192,34001,128,0,34166:0:0:0:0:
192,192,34166,128,4,34331:0:0:0:0:
320,192,34166,1,2,0:0:0:0:
448,192,34331,1,8,0:0:0:0:
64,192,34496,1,8,0:0:0:0:
320,192,34578,1,0,0:0:0:0:
192,192,34661,1,0,0:0:0:0:
448,192,34743,1,0,0:0:0:0:
320,192,34826,1,2,0:0:0:0:
64,192,34826,128,4,34990:0:0:0:0:
192,192,35155,1,8,0:0:0:0:
448,192,35155,1,0,0:0:0:0:
320,192,35320,128,0,35485:0:0:0:0:
64,192,35485,1,2,0:0:0:0:
448,192,35650,1,0,0:0:0:0:
192,192,35815,1,8,0:0:0:0:
320,192,35815,1,0,0:0:0:0:
64,192,35979,1,0,0:0:0:0:
448,192,36144,128,2,36309:0:0:0:0:
320,192,36144,1,0,0:0:0:0:
64,192,36474,1,8,0:0:0:0:
192,192,36474,1,0,0:0:0:0:
320,192,36639,128,0,36804:0:0:0:0:
448,192,36804,1,2,0:0:0:0:
64,192,36968,1,0,0:0:0:0:
320,192,37133,1,8,0:0:0:0:
192,192,37133,128,0,37298:0:0:0:0:
448,192,37463,128,2,37628:0:0:0:0:
320,192,37463,1,0,0:0:0:0:
192,192,37793,1,8,0:0:0:0:
64,192,37793,128,0,37957:0:0:0:0:
320,192,38122,1,2,0:0:0:0:
192,192,38287,1,0,0:0:0:0:
64,192,38452,1,8,0:0:0:0:
448,192,38452,1,0,0:0:0:0:
320,192,38617,1,0,0:0:0:0:
64,192,38782,128,2,38946:0:0:0:0:
192,192,38782,1,0,0:0:0:0:
192,192,39111,1,8,0:0:0:0:
448,192,39111,1,0,0:0:0:0:
320,192,39276,128,0,39441:0:0:0:0:
64,192,39441,1,2,0:0:0:0:
448,192,39606,1,0,0:0:0:0:
192,192,39771,128,0,40100:0:0:0:0:
64,192,40100,1,4,0:0:0:0:
448,192,40100,1,2,0:0:0:0:
192,192,40265,1,8,0:0:0:0:
448,192,40430,1,8,0:0:0:0:
320,192,40430,1,0,0:0:0:0:
64,192,40595,1,8,0:0:0:0:
320,192,40677,1,2,0:0:0:0:
192,192,40760,1,8,0:0:0:0:
64,192,40760,1,0,0:0:0:0:
448,192,40924,1,8,0:0:0:0:
192,192,41089,1,8,0:0:0:0:
320,192,41089,1,0,0:0:0:0:
64,192,41254,1,8,0:0:0:0:
192,192,41337,1,8,0:0:0:0:
320,192,41419,1,4,0:0:0:0:
448,192,41419,1,2,0:0:0:0:
64,192,41584,1,8,0:0:0:0:
448,192,41666,1,8,0:0:0:0:
320,192,41749,1,8,0:0:0:0:
192,192,41749,1,0,0:0:0:0:
448,192,41913,1,8,0:0:0:0:
320,192,41996,1,8,0:0:0:0:
64,192,42078,1,4,0:0:0:0:
192,192,42078,1,2,0:0:0:0:
448,192,42243,1,8,0:0:0:0:
64,192,42326,1,8,0:0:0:0:
320,192,42408,1,8,0:0:0:0:
192,192,42408,1,0,0:0:0:0:
448,192,42573,1,8,0:0:0:0:
192,192,42655,1,8,0:0:0:0:
448,192,42738,128,4,43397:0:0:0:0:
320,192,42738,1,8,0:0:0:0:
64,192,42902,1,0,0:0:0:0:
192,192,43067,1,0,0:0:0:0:
320,192,43232,1,0,0:0:0:0:
64,192,43397,1,4,0:0:0:0:
192,192,43397,1,2,0:0:0:0:
320,192,43479,1,8,0:0:0:0:
448,192,43562,1,8,0:0:0:0:
64,192,43644,1,8,0:0:0:0:
192,192,43727,1,2,0:0:0:0:
320,192,43727,1,4,0:0:0:0:
448,192,43809,1,8,0:0:0:0:
64,192,43891,1,8,0:0:0:0:
192,192,43974,1,8,0:0:0:0:
320,192,44056,1,2,0:0:0:0:
448,192,44056,1,4,0:0:0:0:
192,192,44221,1,0,0:0:0:0:
320,192,44386,1,0,0:0:0:0:
64,192,44551,1,0,0:0:0:0:
192,192,44716,128,0,44880:0:0:0:0:
448,192,44880,128,0,45045:0:0:0:0:
64,192,45045,128,0,45375:0:0:0:0:
320,192,45210,128,0,45375:0:0:0:0:
192,192,45375,1,4,0:0:0:0:
448,192,45375,1,2,0:0:0:0:
320,192,45540,1,0,0:0:0:0:
64,192,45705,1,8,0:0:0:0:
192,192,45705,1,0,0:0:0:0:
448,192,45869,1,0,0:0:0:0:
320,192,46034,1,2,0:0:0:0:
192,192,46117,1,0,0:0:0:0:
64,192,46199,1,0,0:0:0:0:
320,192,46364,1,8,0:0:0:0:
448,192,46364,1,0,0:0:0:0:
192,192,46529,1,0,0:0:0:0:
320,192,46611,1,0,0:0:0:0:
64,192,46694,1,2,0:0:0:0:
320,192,46859,1,0,0:0:0:0:
64,192,47023,1,8,0:0:0:0:
448,192,47023,1,0,0:0:0:0:
192,192,47188,1,0,0:0:0:0:
320,192,47271,1,0,0:0:0:0:
448,192,47353,1,2,0:0:0:0:
64,192,47518,1,0,0:0:0:0:
192,192,47600,1,0,0:0:0:0:
320,192,47683,128,8,47848:0:0:0:0:
448,192,47683,1,0,0:0:0:0:
192,192,47848,128,0,48012:0:0:0:0:
448,192,48012,1,2,0:0:0:0:
64,192,48012,1,0,0:0:0:0:
320,192,48177,1,0,0:0:0:0:
192,192,48260,1,0,0:0:0:0:
64,192,48342,1,8,0:0:0:0:
320,192,48342,1,0,0:0:0:0:
448,192,48507,1,0,0:0:0:0:
320,192,48672,1,2,0:0:0:0:
64,192,48837,1,0,0:0:0:0:
192,192,49001,1,8,0:0:0:0:
448,192,49001,1,0,0:0:0:0:
320,192,49166,1,0,0:0:0:0:
64,192,49331,1,2,0:0:0:0:
448,192,49496,1,0,0:0:0:0:
320,192,49661,1,8,0:0:0:0:
192,192,49661,1,0,0:0:0:0:
448,192,49743,1,0,0:0:0:0:
64,192,49826,1,0,0:0:0:0:
320,192,49908,1,0,0:0:0:0:
192,192,49990,1,2,0:0:0:0:
64,192,50155,1,0,0:0:0:0:
192,192,50238,1,0,0:0:0:0:
448,192,50320,128,0,50650:0:0:0:0:
320,192,50320,1,0,0:0:0:0:
192,192,50485,1,0,0:0:0:0:
320,192,50650,1,8,0:0:0:0:
64,192,50650,1,4,0:0:0:0:
192,192,50815,1,8,0:0:0:0:
448,192,50979,1,2,0:0:0:0:
320,192,51144,1,8,0:0:0:0:
64,192,51227,1,8,0:0:0:0:
192,192,51309,1,2,0:0:0:0:
448,192,51309,1,0,0:0:0:0:
320,192,51474,1,2,0:0:0:0:
64,192,51639,1,8,0:0:0:0:
192,192,51804,1,8,0:0:0:0:
448,192,51886,1,8,0:0:0:0:
64,192,51968,1,2,0:0:0:0:
320,192,51968,1,4,0:0:0:0:
448,192,52133,1,8,0:0:0:0:
64,192,52216,1,8,0:0:0:0:
448,192,52298,1,8,0:0:0:0:
320,192,52298,1,0,0:0:0:0:
64,192,52463,1,8,0:0:0:0:
448,192,52545,1,8,0:0:0:0:
64,192,52628,1,4,0:0:0:0:
192,192,52628,1,2,0:0:0:0:
320,192,52793,1,8,0:0:0:0:
448,192,52875,1,8,0:0:0:0:
192,192,52957,128,4,53122:0:0:0:0:
64,192,52957,1,2,0:0:0:0:
320,192,53122,128,8,53287:0:0:0:0:
64,192,53287,128,4,53946:0:0:0:0:
448,192,53287,1,8,0:0:0:0:
192,192,53452,1,0,0:0:0:0:
448,192,53617,1,4,0:0:0:0:
320,192,53617,1,8,0:0:0:0:
192,192,53782,1,0,0:0:0:0:
320,192,53946,1,8,0:0:0:0:
448,192,53946,1,4,0:0:0:0:
448,192,54111,1,4,0:0:0:0:
64,192,54111,1,8,0:0:0:0:
192,192,54276,1,4,0:0:0:0:
320,192,54276,1,8,0:0:0:0:
64,192,54441,1,8,0:0:0:0:
192,192,54441,1,4,0:0:0:0:
448,192,54606,128,0,55924:0:0:0:0:
320,192,55265,128,0,55924:0:0:0:0:
192,192,55924,1,4,0:0:0:0:
64,192,55924,1,2,0:0:0:0:
320,192,56089,1,0,0:0:0:0:
448,192,56254,1,0,0:0:0:0:
192,192,56419,1,0,0:0:0:0:
448,192,56584,1,0,0:0:0:0:
64,192,56749,1,0,0:0:0:0:
320,192,56913,1,0,0:0:0:0:
64,192,57078,1,0,0:0:0:0:
448,192,57408,1,0,0:0:0:0:
320,192,57573,1,0,0:0:0:0:
64,192,57738,1,0,0:0:0:0:
192,192,57902,1,0,0:0:0:0:
320,192,58067,1,0,0:0:0:0:
64,192,58232,1,0,0:0:0:0:
448,192,58397,1,0,0:0:0:0:
192,192,58727,1,0,0:0:0:0:
64,192,58891,1,0,0:0:0:0:
448,192,59056,1,0,0:0:0:0:
192,192,59221,1,0,0:0:0:0:
320,192,59386,1,0,0:0:0:0:
192,192,59551,1,0,0:0:0:0:
448,192,59716,1,0,0:0:0:0:
64,192,60045,1,0,0:0:0:0:
320,192,60210,1,0,0:0:0:0:
448,192,60375,1,0,0:0:0:0:
192,192,60540,1,0,0:0:0:0:
320,192,60705,1,0,0:0:0:0:
64,192,60869,1,0,0:0:0:0:
192,192,61034,1,0,0:0:0:0:
320,192,61199,128,0,61364:0:0:0:0:
64,192,61364,128,0,61529:0:0:0:0:
448,192,61529,1,0,0:0:0:0:
320,192,61694,1,0,0:0:0:0:
448,192,61859,1,0,0:0:0:0:
64,192,62023,1,0,0:0:0:0:
192,192,62188,1,0,0:0:0:0:
64,192,62353,1,0,0:0:0:0:
320,192,62683,1,0,0:0:0:0:
448,192,62848,1,0,0:0:0:0:
320,192,63012,1,0,0:0:0:0:
192,192,63177,1,0,0:0:0:0:
64,192,63342,1,0,0:0:0:0:
192,192,63507,1,0,0:0:0:0:
448,192,63672,1,0,0:0:0:0:
320,192,63837,1,0,0:0:0:0:
192,192,64001,1,8,0:0:0:0:
448,192,64166,1,8,0:0:0:0:
64,192,64331,1,8,0:0:0:0:
192,192,64496,1,8,0:0:0:0:
320,192,64578,1,8,0:0:0:0:
448,192,64661,1,8,0:0:0:0:
64,192,64743,1,8,0:0:0:0:
192,192,64826,1,8,0:0:0:0:
320,192,64908,1,8,0:0:0:0:
448,192,64990,1,8,0:0:0:0:
64,192,65073,1,8,0:0:0:0:
320,192,65155,128,0,65815:0:0:0:0:
192,192,65155,1,0,0:0:0:0:
448,192,65320,1,0,0:0:0:0:
64,192,65485,1,0,0:0:0:0:
448,192,65650,1,0,0:0:0:0:
192,192,65815,1,8,0:0:0:0:
64,192,65897,1,8,0:0:0:0:
448,192,65979,1,8,0:0:0:0:
192,192,66062,1,8,0:0:0:0:
320,192,66144,1,8,0:0:0:0:
192,192,66227,1,8,0:0:0:0:
448,192,66309,1,8,0:0:0:0:
64,192,66391,1,8,0:0:0:0:
192,192,66474,1,2,0:0:0:0:
320,192,66474,1,4,0:0:0:0:
448,192,66804,1,0,0:0:0:0:
64,192,66968,1,0,0:0:0:0:
320,192,67133,1,0,0:0:0:0:
192,192,67298,128,0,67628:0:0:0:0:
320,192,67793,1,0,0:0:0:0:
448,192,67793,1,0,0:0:0:0:
64,192,68040,1,0,0:0:0:0:
320,192,68287,128,0,69111:0:0:0:0:
64,192,69111,1,0,0:0:0:0:
448,192,69111,1,0,0:0:0:0:
192,192,69441,1,0,0:0:0:0:
320,192,69606,1,0,0:0:0:0:
448,192,69935,1,0,0:0:0:0:
192,192,70265,1,0,0:0:0:0:
64,192,70595,1,0,0:0:0:0:
448,192,70924,128,0,71254:0:0:0:0:
64,192,71254,128,0,71419:0:0:0:0:
320,192,71254,1,0,0:0:0:0:
192,192,71419,128,0,71749:0:0:0:0:
320,192,71749,1,8,0:0:0:0:
448,192,71749,1,4,0:0:0:0:
64,192,71831,1,2,0:0:0:0:
192,192,71913,1,2,0:0:0:0:
320,192,71996,1,2,0:0:0:0:
448,192,72078,1,2,0:0:0:0:
64,192,72161,1,2,0:0:0:0:
192,192,72243,1,2,0:0:0:0:
448,192,72326,1,2,0:0:0:0:
320,192,72408,1,2,0:0:0:0:
192,192,72490,1,2,0:0:0:0:
64,192,72573,1,2,0:0:0:0:
448,192,72655,1,2,0:0:0:0:
320,192,72738,1,8,0:0:0:0:
192,192,73067,1,4,0:0:0:0:
64,192,73067,1,8,0:0:0:0:
320,192,73150,1,2,0:0:0:0:
448,192,73232,1,2,0:0:0:0:
192,192,73315,1,2,0:0:0:0:
320,192,73397,1,2,0:0:0:0:
64,192,73479,1,2,0:0:0:0:
192,192,73562,1,2,0:0:0:0:
448,192,73644,1,2,0:0:0:0:
64,192,73727,1,2,0:0:0:0:
320,192,73809,1,2,0:0:0:0:
192,192,73891,1,8,0:0:0:0:
448,192,73974,1,2,0:0:0:0:
320,192,74056,1,8,0:0:0:0:
64,192,74386,1,8,0:0:0:0:
448,192,74386,1,4,0:0:0:0:
192,192,74468,1,2,0:0:0:0:
64,192,74551,1,2,0:0:0:0:
448,192,74633,1,2,0:0:0:0:
320,192,74716,1,2,0:0:0:0:
448,192,74798,1,2,0:0:0:0:
192,192,74880,1,2,0:0:0:0:
320,192,74963,1,2,0:0:0:0:
64,192,75045,1,2,0:0:0:0:
192,192,75128,1,2,0:0:0:0:
64,192,75210,1,2,0:0:0:0:
320,192,75293,1,2,0:0:0:0:
448,192,75375,128,2,75540:0:0:0:0:
320,192,75540,1,2,0:0:0:0:
192,192,75622,1,2,0:0:0:0:
64,192,75705,1,6,0:0:0:0:
320,192,75869,1,0,0:0:0:0:
448,192,75869,128,0,76034:0:0:0:0:
64,192,75952,1,0,0:0:0:0:
192,192,76034,1,6,0:0:0:0:
320,192,76199,1,0,0:0:0:0:
64,192,76199,128,0,76364:0:0:0:0:
448,192,76282,1,0,0:0:0:0:
192,192,76364,1,6,0:0:0:0:
448,192,76529,1,0,0:0:0:0:
320,192,76529,128,0,76694:0:0:0:0:
192,192,76611,1,0,0:0:0:0:
64,192,76694,1,6,0:0:0:0:
448,192,76859,1,0,0:0:0:0:
192,192,76859,128,0,77023:0:0:0:0:
64,192,76941,1,0,0:0:0:0:
448,192,77023,1,8,0:0:0:0:
320,192,77023,1,4,0:0:0:0:
64,192,77271,128,0,77518:0:0:0:0:
448,192,77518,128,0,78012:0:0:0:0:
320,192,78012,128,0,78342:0:0:0:0:
64,192,78342,1,4,0:0:0:0:
192,192,78342,1,8,0:0:0:0:
320,192,79001,1,4,0:0:0:0:
192,192,79001,1,8,0:0:0:0:
448,192,79166,1,8,0:0:0:0:
320,192,79166,1,0,0:0:0:0:
192,192,79331,1,8,0:0:0:0:
64,192,79331,1,0,0:0:0:0:
448,192,79496,1,8,0:0:0:0:
64,192,79496,1,0,0:0:0:0:
192,192,79661,1,4,0:0:0:0:
320,192,79661,1,8,0:0:0:0:
448,192,79826,1,0,0:0:0:0:
64,192,79990,1,8,0:0:0:0:
192,192,79990,1,0,0:0:0:0:
320,192,80155,1,0,0:0:0:0:
192,192,80320,1,2,0:0:0:0:
448,192,80485,1,0,0:0:0:0:
192,192,80650,1,8,0:0:0:0:
320,192,80650,1,0,0:0:0:0:
64,192,80815,1,0,0:0:0:0:
448,192,80979,128,2,81144:0:0:0:0:
320,192,80979,1,0,0:0:0:0:
64,192,81144,1,0,0:0:0:0:
192,192,81309,1,8,0:0:0:0:
320,192,81309,1,0,0:0:0:0:
448,192,81474,1,0,0:0:0:0:
320,192,81639,1,0,0:0:0:0:
64,192,81639,128,2,81804:0:0:0:0:
192,192,81804,128,0,81968:0:0:0:0:
64,192,81968,1,8,0:0:0:0:
448,192,81968,128,0,82133:0:0:0:0:
320,192,82133,128,0,82298:0:0:0:0:
192,192,82298,1,2,0:0:0:0:
448,192,82463,1,0,0:0:0:0:
320,192,82628,1,8,0:0:0:0:
64,192,82628,1,0,0:0:0:0:
192,192,82793,1,0,0:0:0:0:
448,192,82957,1,2,0:0:0:0:
64,192,83122,1,0,0:0:0:0:
320,192,83287,1,8,0:0:0:0:
448,192,83287,1,0,0:0:0:0:
192,192,83452,1,0,0:0:0:0:
64,192,83617,128,2,83782:0:0:0:0:
448,192,83617,1,0,0:0:0:0:
192,192,83782,1,0,0:0:0:0:
448,192,83946,1,8,0:0:0:0:
320,192,83946,1,0,0:0:0:0:
192,192,84111,1,0,0:0:0:0:
320,192,84276,128,2,84441:0:0:0:0:
64,192,84276,1,0,0:0:0:0:
192,192,84441,128,0,84606:0:0:0:0:
448,192,84606,1,8,0:0:0:0:
64,192,84606,128,0,84771:0:0:0:0:
320,192,84771,128,2,84935:0:0:0:0:
448,192,84935,128,0,85100:0:0:0:0:
192,192,85100,1,0,0:0:0:0:
320,192,85183,1,0,0:0:0:0:
64,192,85265,1,4,0:0:0:0:
448,192,85265,1,8,0:0:0:0:
192,192,85430,1,0,0:0:0:0:
320,192,85595,1,2,0:0:0:0:
64,192,85760,1,0,0:0:0:0:
448,192,85924,1,8,0:0:0:0:
320,192,85924,1,0,0:0:0:0:
192,192,86089,1,0,0:0:0:0:
64,192,86254,1,4,0:0:0:0:
320,192,86254,128,2,86419:0:0:0:0:
448,192,86419,1,0,0:0:0:0:
192,192,86584,1,8,0:0:0:0:
64,192,86584,1,0,0:0:0:0:
448,192,86749,1,0,0:0:0:0:
64,192,86913,1,4,0:0:0:0:
320,192,86913,128,2,87078:0:0:0:0:
192,192,87078,1,0,0:0:0:0:
320,192,87243,1,8,0:0:0:0:
448,192,87243,1,4,0:0:0:0:
64,192,87408,1,0,0:0:0:0:
448,192,87573,1,2,0:0:0:0:
192,192,87573,128,4,87738:0:0:0:0:
320,192,87738,1,0,0:0:0:0:
64,192,87902,1,8,0:0:0:0:
448,192,87902,1,0,0:0:0:0:
320,192,88067,1,0,0:0:0:0:
192,192,88232,1,4,0:0:0:0:
64,192,88232,128,8,88891:0:0:0:0:
320,192,88397,1,8,0:0:0:0:
448,192,88397,1,4,0:0:0:0:
192,192,88562,1,4,0:0:0:0:
448,192,88562,1,8,0:0:0:0:
320,192,88727,1,4,0:0:0:0:
448,192,88727,1,8,0:0:0:0:
192,192,88891,1,2,0:0:0:0:
320,192,88891,1,8,0:0:0:0:
448,192,89056,128,0,89221:0:0:0:0:
320,192,89221,1,2,0:0:0:0:
192,192,89386,128,0,89551:0:0:0:0:
320,192,89551,128,2,89880:0:0:0:0:
448,192,89551,1,0,0:0:0:0:
64,192,89716,1,8,0:0:0:0:
448,192,89880,128,8,90210:0:0:0:0:
64,192,90210,1,4,0:0:0:0:
320,192,90210,1,8,0:0:0:0:
192,192,90375,1,0,0:0:0:0:
320,192,90540,1,8,0:0:0:0:
448,192,90540,1,0,0:0:0:0:
64,192,90705,1,0,0:0:0:0:
448,192,90869,1,2,0:0:0:0:
192,192,91034,1,0,0:0:0:0:
64,192,91199,1,8,0:0:0:0:
320,192,91199,1,0,0:0:0:0:
448,192,91364,1,0,0:0:0:0:
192,192,91529,128,2,91694:0:0:0:0:
320,192,91529,1,0,0:0:0:0:
64,192,91694,1,0,0:0:0:0:
320,192,91859,1,8,0:0:0:0:
448,192,91859,1,0,0:0:0:0:
192,192,92023,1,0,0:0:0:0:
448,192,92188,128,2,92353:0:0:0:0:
64,192,92188,1,0,0:0:0:0:
320,192,92353,128,0,92518:0:0:0:0:
64,192,92518,128,8,92683:0:0:0:0:
448,192,92518,1,0,0:0:0:0:
192,192,92683,128,0,92848:0:0:0:0:
320,192,92848,1,2,0:0:0:0:
448,192,93012,1,0,0:0:0:0:
64,192,93177,1,8,0:0:0:0:
320,192,93177,1,0,0:0:0:0:
192,192,93342,1,0,0:0:0:0:
448,192,93507,1,2,0:0:0:0:
64,192,93672,1,0,0:0:0:0:
448,192,93837,1,8,0:0:0:0:
320,192,93837,1,0,0:0:0:0:
192,192,94001,1,0,0:0:0:0:
64,192,94166,128,2,94331:0:0:0:0:
320,192,94166,1,0,0:0:0:0:
448,192,94331,1,0,0:0:0:0:
192,192,94496,1,8,0:0:0:0:
320,192,94496,1,0,0:0:0:0:
64,192,94661,1,0,0:0:0:0:
448,192,94826,128,2,94990:0:0:0:0:
320,192,94826,1,0,0:0:0:0:
192,192,94990,128,0,95155:0:0:0:0:
320,192,95155,128,8,95485:0:0:0:0:
64,192,95320,128,0,95485:0:0:0:0:
448,192,95485,1,4,0:0:0:0:
192,192,95485,1,2,0:0:0:0:
320,192,95650,1,0,0:0:0:0:
64,192,95815,1,8,0:0:0:0:
192,192,95815,1,0,0:0:0:0:
448,192,95979,1,0,0:0:0:0:
320,192,96144,1,2,0:0:0:0:
64,192,96309,1,0,0:0:0:0:
192,192,96474,1,8,0:0:0:0:
448,192,96474,1,0,0:0:0:0:
320,192,96639,1,0,0:0:0:0:
64,192,96804,1,2,0:0:0:0:
192,192,96804,128,4,96968:0:0:0:0:
448,192,96968,1,0,0:0:0:0:
64,192,97133,1,2,0:0:0:0:
192,192,97216,1,2,0:0:0:0:
448,192,97298,1,2,0:0:0:0:
320,192,97380,1,2,0:0:0:0:
64,192,97545,1,2,0:0:0:0:
448,192,97545,1,0,0:0:0:0:
192,192,97710,1,2,0:0:0:0:
320,192,97793,1,2,0:0:0:0:
448,192,97793,128,0,98122:0:0:0:0:
320,192,98122,1,2,0:0:0:0:
64,192,98122,128,4,98782:0:0:0:0:
192,192,98287,1,0,0:0:0:0:
448,192,98452,1,2,0:0:0:0:
320,192,98452,1,4,0:0:0:0:
192,192,98617,1,0,0:0:0:0:
448,192,98782,1,2,0:0:0:0:
320,192,98782,1,4,0:0:0:0:
192,192,98864,1,8,0:0:0:0:
320,192,98946,1,8,0:0:0:0:
448,192,99029,1,8,0:0:0:0:
64,192,99111,1,2,0:0:0:0:
192,192,99111,1,4,0:0:0:0:
320,192,99194,1,8,0:0:0:0:
192,192,99276,1,8,0:0:0:0:
64,192,99359,1,8,0:0:0:0:
448,192,99441,128,4,100100:0:0:0:0:
320,192,99441,1,2,0:0:0:0:
192,192,100100,128,0,100760:0:0:0:0:
320,192,100265,1,8,0:0:0:0:
64,192,100430,1,8,0:0:0:0:
448,192,100430,1,0,0:0:0:0:
320,192,100595,1,8,0:0:0:0:
64,192,100760,128,6,103562:0:0:0:0:
448,192,100760,1,8,0:0:0:0:
