osu file format v14

[General]
AudioFilename: audio.mp3
AudioLeadIn: 0
PreviewTime: 109363
Countdown: 0
SampleSet: Normal
StackLeniency: 0.5
Mode: 0
LetterboxInBreaks: 0
WidescreenStoryboard: 1

[Editor]
DistanceSpacing: 1.3
BeatDivisor: 4
GridSize: 4
TimelineZoom: 1.8

[Metadata]
Title:Fly Away!
TitleUnicode:Fly Away!
Artist:P*Light feat. Nanahira
ArtistUnicode:P*Light feat. ななひら
Creator:Sylphi
Version:Insane
Source:
Tags:Confetto Colory Starry P_Light Female Vocal Electronic Japanese J-Pop JPop Underflow Elfin Endroll Starberr No Dap No_Dap Shioi Moeka Momoka Ozato Fumika Ozato_Fumika scanter Anais
BeatmapID:1583269
BeatmapSetID:442178

[Difficulty]
HPDrainRate:6
CircleSize:4
OverallDifficulty:8
ApproachRate:9
SliderMultiplier:1.65
SliderTickRate:1

[Events]
//Background and Video events
0,0,"1440259501005.png",0,0
//Break Periods
2,88229,97360
//Storyboard Layer 0 (Background)
//Storyboard Layer 1 (Fail)
//Storyboard Layer 2 (Pass)
//Storyboard Layer 3 (Foreground)
//Storyboard Layer 4 (Overlay)
//Storyboard Sound Samples

[TimingPoints]
30,333.333333333333,4,2,7,70,1,0
2696,-125,4,2,7,55,0,0
13363,-100,4,2,7,65,0,1
23696,-83.3333333333333,4,2,7,70,0,1
24029,-100,4,2,7,65,0,0
34696,-100,4,1,7,60,0,0
37363,-100,4,1,7,62,0,0
40029,-100,4,1,7,64,0,0
41363,-100,4,1,7,66,0,0
42696,-100,4,1,7,68,0,0
43363,-100,4,1,7,70,0,0
44029,-133.333333333333,4,2,7,40,0,0
44363,-90.9090909090909,4,2,7,40,0,0
44696,-142.857142857143,4,2,7,40,0,0
45029,-66.6666666666667,4,2,7,70,0,0
45363,-100,4,2,11,70,0,0
49696,-86.9565217391304,4,2,11,70,0,0
50029,-100,4,2,11,70,0,0
50363,-71.4285714285714,4,2,11,70,0,0
50696,-100,4,2,7,70,0,0
55696,-66.6666666666667,4,2,7,70,0,0
56029,-100,4,2,7,65,0,0
61029,-76.9230769230769,4,2,7,65,0,0
61363,-142.857142857143,4,2,7,60,0,0
62029,-86.9565217391304,4,2,7,65,0,0
62696,-142.857142857143,4,2,7,60,0,0
63363,-83.3333333333333,4,2,7,67,0,0
64029,-142.857142857143,4,2,7,60,0,0
64696,-100,4,2,7,70,0,0
65363,-90.9090909090909,4,2,7,70,0,0
65696,-105.263157894737,4,2,7,70,0,0
66029,-125,4,2,7,70,0,0
66363,-71.4285714285714,4,2,7,70,0,0
66696,-100,4,2,11,65,0,0
77029,-76.9230769230769,4,2,11,70,0,0
77363,-100,4,1,7,60,0,0
80029,-100,4,1,7,61,0,0
82696,-100,4,1,7,63,0,0
84029,-100,4,1,7,65,0,0
85363,-100,4,1,7,66,0,0
86029,-100,4,1,7,68,0,0
86696,-100,4,1,7,70,0,0
87696,-83.3333333333333,4,2,7,70,0,0
88029,-100,4,2,11,55,0,0
98696,-125,4,2,7,55,0,0
99029,-125,4,2,7,55,0,0
108029,-200,4,2,7,60,0,0
109029,-86.9565217391304,4,2,7,70,0,0
109363,-100,4,2,7,70,0,1
130363,-76.9230769230769,4,2,7,70,0,1
130696,-100,4,2,7,65,0,0
141363,-100,4,1,7,70,0,0
150696,-90.9090909090909,4,2,7,70,0,0
151029,-105.263157894737,4,2,7,65,0,0
151363,-125,4,2,7,60,0,0
151696,-71.4285714285714,4,2,7,70,0,0
152029,-100,4,2,11,65,0,0
159029,-86.9565217391304,4,2,11,65,0,0
159363,-100,4,2,11,65,0,0
161696,-86.9565217391304,4,2,11,65,0,0
162029,-100,4,2,11,65,0,0
162363,-71.4285714285714,4,2,11,65,0,0
162696,-100,4,2,11,65,0,0
170029,-86.9565217391304,4,2,11,65,0,0
170363,-100,4,2,11,65,0,0
173363,-100,4,2,11,70,0,1
183696,-76.9230769230769,4,2,11,70,0,1
184029,-100,4,2,11,70,0,1
194363,-83.3333333333333,4,2,11,70,0,1
194696,-100,4,2,11,70,0,0
205029,-76.9230769230769,4,2,11,70,0,0
205363,-100,4,1,7,70,0,0
215696,-83.3333333333333,4,2,7,70,0,0
216029,-100,4,2,7,70,0,0
217363,-100,4,2,7,60,0,0
218696,-100,4,2,7,50,0,0
220029,-100,4,2,7,40,0,0
221363,-100,4,2,7,30,0,0
221696,-100,4,2,7,27,0,0
222029,-100,4,2,7,25,0,0
222363,-100,4,2,7,22,0,0
222696,-100,4,2,7,20,0,0

[Colours]
Combo1 : 163,215,200
Combo2 : 242,202,155
Combo3 : 242,170,181
Combo4 : 242,222,130

[HitObjects]
256,192,1363,12,12,2363,0:0:0:0:
72,232,2696,6,0,L|80:304,1,66,4|0,3:2|0:0,0:0:0:0:
172,172,3029,2,0,L|156:260,1,66,2|0,0:0|0:0,0:0:0:0:
156,336,3363,2,0,P|244:344|284:300,1,132,0|0,0:0|0:0,0:0:0:0:
328,220,3863,6,0,L|464:240,1,132,2|0,0:0|0:0,0:0:0:0:
408,156,4363,1,2,0:0:0:0:
392,272,4529,2,0,L|400:344,1,66,0|0,0:0|0:0,0:0:0:0:
320,232,4863,2,0,P|384:192|444:212,1,132,2|2,0:0|0:0,0:0:0:0:
332,112,5363,6,0,P|284:88|264:72,1,66,2|0,0:0|0:0,0:0:0:0:
196,36,5696,1,2,0:0:0:0:
208,136,5863,2,0,L|216:276,1,132,0|2,0:0|0:0,0:0:0:0:
256,352,6363,1,0,0:0:0:0:
308,256,6529,6,0,L|320:112,2,132,2|2|2,0:0|0:0|0:0,0:0:0:0:
88,348,7696,1,2,0:0:0:0:
20,204,8029,6,0,P|80:216|144:168,1,132,2|2,0:0|0:0,0:0:0:0:
200,104,8529,1,0,0:0:0:0:
252,172,8696,2,0,L|260:252,2,66,0|2|0,0:0|0:0|0:0,0:0:0:0:
300,76,9196,1,2,0:0:0:0:
348,172,9363,6,0,L|340:240,1,66,2|0,0:0|0:0,0:0:0:0:
432,300,9696,2,0,L|424:228,2,66,2|0|0,0:0|0:0|0:0,0:0:0:0:
360,360,10196,2,0,P|296:364|232:320,1,132,2|2,0:0|0:0,0:0:0:0:
156,276,10696,6,0,P|164:208|164:144,1,132,2|2,0:0|0:0,0:0:0:0:
80,76,11196,1,0,0:0:0:0:
80,76,11363,2,0,P|160:92|220:72,1,132,0|0,0:0|0:0,0:0:0:0:
312,60,11863,1,2,0:0:0:0:
312,60,12029,6,0,L|388:68,2,66,2|0|2,0:0|0:0|0:0,0:0:0:0:
296,156,12529,2,0,L|308:292,2,132,0|2|2,0:0|0:0|0:0,0:0:0:0:
220,56,13363,6,0,L|128:40,1,82.5,2|0,3:2|0:0,0:0:0:0:
136,144,13696,2,0,L|148:236,1,82.5,10|0,0:2|0:0,0:0:0:0:
40,288,14029,2,0,B|52:248|52:248|60:192,1,82.5,0|2,0:0|3:2,0:0:0:0:
68,120,14363,1,8,0:0:0:0:
146,225,14529,6,0,P|218:253|282:205,1,165,2|0,0:2|0:0,0:0:0:0:
340,116,15029,1,10,0:2:0:0:
368,220,15196,2,0,L|376:312,1,82.5,0|0,3:0|0:0,0:0:0:0:
300,368,15529,1,2,3:2:0:0:
472,296,15696,1,8,0:0:0:0:
280,244,15863,1,2,0:2:0:0:
424,364,16029,6,0,L|516:348,1,82.5,2|0,3:2|0:0,0:0:0:0:
444,192,16363,2,0,L|456:280,1,82.5,10|0,0:2|0:0,0:0:0:0:
496,112,16696,1,0,0:0:0:0:
348,100,16863,1,2,3:2:0:0:
420,216,17029,1,8,0:0:0:0:
408,40,17196,6,0,P|356:16|268:80,1,165,2|2,3:2|3:2,0:0:0:0:
240,164,17696,1,8,0:0:0:0:
188,72,17863,2,0,P|108:64|96:144,1,165,2|0,3:2|3:0,0:0:0:0:
64,236,18363,1,10,0:2:0:0:
188,360,18696,6,0,B|176:328|184:296|184:296|168:268|168:268|180:224|164:184,1,165,2|10,3:2|0:2,0:0:0:0:
152,96,19196,1,0,0:0:0:0:
248,144,19363,2,0,L|340:164,2,82.5,0|2|8,0:0|3:2|0:0,0:0:0:0:
136,116,19863,1,2,0:2:0:0:
76,204,20029,6,0,L|68:292,1,82.5,2|0,3:2|0:0,0:0:0:0:
140,368,20363,1,10,0:2:0:0:
168,260,20529,2,0,L|160:164,1,82.5,0|0,3:0|0:0,0:0:0:0:
100,80,20863,6,0,L|4:92,2,82.5,2|8|2,3:2|0:0|0:2,0:0:0:0:
212,48,21363,1,2,3:2:0:0:
184,164,21529,6,0,L|180:256,2,82.5,0|10|0,0:0|0:2|0:0,0:0:0:0:
212,48,22029,1,0,0:0:0:0:
288,152,22196,5,2,3:2:0:0:
144,96,22363,1,8,0:0:0:0:
288,32,22529,1,2,3:2:0:0:
184,192,22696,5,4,3:2:0:0:
384,104,22863,1,4,3:2:0:0:
168,12,23029,1,4,3:2:0:0:
364,228,23696,2,0,L|356:336,1,98.9999969787599,8|0,0:0|0:0,0:0:0:0:
298,174,24029,6,0,P|351:148|408:152,1,82.5,4|0,1:2|0:0,0:0:0:0:
220,220,24363,2,0,P|173:212|128:184,1,82.5,2|0,1:2|0:0,0:0:0:0:
208,124,24696,1,2,1:2:0:0:
296,252,24863,1,2,0:2:0:0:
312,92,25029,1,2,1:2:0:0:
364,228,25196,1,2,0:2:0:0:
428,88,25363,5,2,1:2:0:0:
472,184,25529,2,0,L|480:280,2,82.5,2|0|2,0:2|1:0|0:2,0:0:0:0:
428,88,26029,1,0,1:0:0:0:
376,184,26196,2,0,L|396:280,2,82.5,0|0|0,0:0|1:0|0:0,0:0:0:0:
312,92,26696,6,0,L|216:72,1,82.5,0|0,1:0|0:0,0:0:0:0:
132,8,27029,2,0,P|148:48|152:104,1,82.5,2|0,1:2|0:0,0:0:0:0:
120,188,27363,1,2,1:2:0:0:
272,168,27529,1,2,0:2:0:0:
216,308,27696,1,2,1:2:0:0:
192,160,27863,1,2,0:2:0:0:
136,300,28029,5,2,1:2:0:0:
88,196,28196,2,0,L|96:100,2,82.5,2|0|2,0:2|1:0|0:2,0:0:0:0:
24,316,28696,2,0,P|76:296|112:292,1,82.5,0|0,1:0|0:0,0:0:0:0:
252,296,29029,2,0,P|196:320|160:316,1,82.5,0|0,1:0|0:0,0:0:0:0:
184,208,29363,6,0,L|168:112,1,82.5,0|0,1:0|0:0,0:0:0:0:
264,32,29696,2,0,P|252:96|252:128,1,82.5,2|0,1:2|0:0,0:0:0:0:
276,216,30029,1,2,1:2:0:0:
160,116,30196,1,2,0:2:0:0:
88,248,30363,1,2,1:2:0:0:
56,104,30529,1,2,0:2:0:0:
88,248,30696,5,2,1:2:0:0:
188,220,30863,2,0,L|288:188,2,82.5,2|0|2,0:2|1:0|0:2,0:0:0:0:
16,188,31363,2,0,P|72:200|144:120,1,165,0|0,1:0|1:0,0:0:0:0:
176,32,31863,1,0,0:0:0:0:
176,32,32029,5,0,1:0:0:0:
240,124,32196,2,0,L|236:216,2,82.5,2|2|2,0:2|1:2|0:2,0:0:0:0:
292,36,32696,1,2,1:2:0:0:
172,72,32863,1,2,0:2:0:0:
316,120,33029,1,2,1:2:0:0:
180,64,33196,6,0,P|120:48|48:128,1,165,2|2,0:2|0:2,0:0:0:0:
24,208,33696,1,0,1:0:0:0:
132,128,33863,1,2,0:2:0:0:
104,224,34029,2,0,B|120:284|120:284|116:332|116:332|132:384,1,165,0|0,1:0|1:0,0:0:0:0:
216,196,34696,6,0,P|260:192|300:180,1,82.5,4|2,3:2|0:2,0:0:0:0:
240,104,35029,1,0,0:0:0:0:
292,264,35196,2,0,L|284:352,1,82.5,2|0,0:2|0:0,0:0:0:0:
388,284,35529,2,0,L|372:180,2,82.5,2|2|2,0:2|0:2|0:2,0:0:0:0:
440,368,36029,5,0,0:0:0:0:
476,248,36196,2,0,L|492:156,2,82.5,2|2|2,0:2|0:2|0:2,0:0:0:0:
440,368,36696,1,2,0:2:0:0:
376,248,36863,1,2,0:2:0:0:
312,368,37029,1,2,0:2:0:0:
300,224,37196,1,2,0:2:0:0:
344,136,37363,6,0,P|404:136|448:120,1,82.5,2|2,0:2|0:2,0:0:0:0:
380,44,37696,1,0,0:0:0:0:
380,212,37863,2,0,L|376:304,1,82.5,2|0,0:2|0:0,0:0:0:0:
284,372,38196,2,0,L|272:284,2,82.5,2|2|2,0:2|0:2|0:2,0:0:0:0:
364,308,38696,5,0,0:0:0:0:
200,328,38863,2,0,L|108:340,2,82.5,2|2|2,0:2|0:2|0:2,0:0:0:0:
300,232,39363,1,2,0:2:0:0:
284,372,39529,1,2,0:2:0:0:
208,248,39696,1,2,0:2:0:0:
352,308,39863,1,2,0:2:0:0:
196,340,40029,5,2,3:2:0:0:
184,336,40113,1,0,0:0:0:0:
172,332,40196,1,2,0:2:0:0:
160,328,40279,1,0,0:0:0:0:
148,324,40363,2,0,L|132:276,11,41.25,0|0|2|0|0|0|2|0|2|0|2|0,0:0|0:0|0:2|0:0|0:0|0:0|0:2|0:0|0:2|0:0|0:2|0:0,0:0:0:0:
96,220,41363,5,2,3:2:0:0:
104,200,41446,1,0,0:0:0:0:
110,183,41529,1,2,0:2:0:0:
118,163,41613,1,0,0:0:0:0:
127,143,41696,2,0,L|180:106,11,41.25,0|0|2|0|0|0|2|0|2|0|2|0,0:0|0:0|0:2|0:0|0:0|0:0|0:2|0:0|0:2|0:0|0:2|0:0,0:0:0:0:
224,72,42696,5,2,3:2:0:0:
252,84,42779,1,0,0:0:0:0:
280,84,42863,1,2,0:2:0:0:
308,72,42946,1,0,0:0:0:0:
332,56,43029,2,0,L|328:156,1,82.5,0|2,0:0|0:2,0:0:0:0:
264,240,43363,5,2,3:2:0:0:
296,216,43446,1,0,0:0:0:0:
336,212,43529,1,2,0:2:0:0:
376,224,43613,1,0,0:0:0:0:
408,248,43696,2,0,L|424:344,1,82.5,2|2,0:2|0:2,0:0:0:0:
484,216,44029,6,0,L|488:148,1,61.875002360344,2|2,0:0|0:0,0:0:0:0:
392,144,44363,2,0,L|380:24,1,90.7500027694703,2|2,0:0|0:0,0:0:0:0:
348,240,44696,2,0,L|356:304,1,57.7499982376099,2|2,0:0|0:0,0:0:0:0:
288,360,45029,6,0,L|268:212,1,123.750004720688,8|0,0:1|0:0,0:0:0:0:
252,108,45363,5,4,3:2:0:0:
328,160,45529,2,0,L|432:168,1,82.5,2|0,0:2|3:0,0:0:0:0:
288,36,45863,2,0,P|212:36|168:116,1,165,2|2,0:2|0:2,0:0:0:0:
160,244,46363,1,2,3:2:0:0:
160,128,46529,2,0,L|132:36,1,82.5,2|0,0:2|3:0,0:0:0:0:
148,224,46863,6,0,L|140:308,2,82.5,2|2|2,0:2|3:2|0:2,0:0:0:0:
160,128,47363,1,2,3:2:0:0:
68,200,47529,1,2,0:2:0:0:
228,200,47696,2,0,L|316:184,1,82.5,2|2,3:2|0:2,0:0:0:0:
248,108,48029,5,2,3:2:0:0:
272,268,48196,2,0,L|288:360,1,82.5,2|0,0:2|3:0,0:0:0:0:
360,280,48529,2,0,P|360:204|372:100,1,165,2|2,0:2|0:2,0:0:0:0:
384,16,49029,1,2,3:2:0:0:
456,100,49196,1,2,0:2:0:0:
300,76,49363,6,0,L|212:88,1,82.5,0|2,3:0|0:2,0:0:0:0:
192,256,49696,2,0,P|188:204|200:144,1,94.8750018095971,2|2,3:2|0:2,0:0:0:0:
116,44,50029,2,0,L|124:148,1,82.5,2|2,3:2|0:2,0:0:0:0:
72,268,50363,6,0,P|64:204|44:136,1,115.49999647522,8|0,0:0|0:0,0:0:0:0:
28,60,50696,37,4,3:2:0:0:
160,192,51029,21,2,3:2:0:0:
160,192,51113,1,2,0:2:0:0:
160,192,51196,1,2,0:2:0:0:
240,168,51363,5,2,3:2:0:0:
240,168,51446,1,2,0:2:0:0:
240,168,51529,1,2,0:2:0:0:
316,140,51696,5,2,3:2:0:0:
316,140,51779,1,2,0:2:0:0:
316,140,51863,1,2,0:2:0:0:
296,244,52029,5,2,3:2:0:0:
256,92,52196,1,2,0:2:0:0:
220,244,52363,2,0,L|220:304,2,41.25,2|2|2,3:2|0:2|0:2,0:0:0:0:
160,112,52696,1,2,3:2:0:0:
140,264,52863,1,2,0:2:0:0:
248,152,53029,1,2,3:2:0:0:
304,368,53363,37,0,3:2:0:0:
332,188,53696,21,2,3:2:0:0:
332,188,53779,1,2,0:2:0:0:
332,188,53863,1,2,0:2:0:0:
312,108,54029,5,2,3:2:0:0:
312,108,54113,1,2,0:2:0:0:
312,108,54196,1,2,0:2:0:0:
292,28,54363,5,2,3:2:0:0:
292,28,54446,1,2,0:2:0:0:
292,28,54529,1,2,0:2:0:0:
216,96,54696,5,2,3:2:0:0:
368,52,54863,1,2,0:2:0:0:
308,196,55029,2,0,L|304:252,2,41.25,2|2|2,3:2|0:2|0:2,0:0:0:0:
208,108,55363,2,0,L|192:4,1,82.5,2|2,3:2|0:2,0:0:0:0:
144,160,55696,6,0,P|200:188|288:100,1,185.625007081032,8|0,0:0|0:0,0:0:0:0:
292,96,56029,6,0,L|312:236,1,123.75,4|0,3:2|3:0,0:0:0:0:
312,252,56363,1,2,3:2:0:0:
396,160,56529,1,2,3:2:0:0:
464,244,56696,2,0,L|456:336,1,82.5,2|2,0:2|3:2,0:0:0:0:
452,360,56946,1,2,0:2:0:0:
316,248,57196,2,0,L|308:188,1,41.25,2|2,0:2|0:2,0:0:0:0:
276,140,57363,5,2,3:2:0:0:
252,120,57446,2,0,P|192:100|152:76,1,82.5,2|0,3:2|3:0,0:0:0:0:
144,76,57696,1,2,3:2:0:0:
208,192,57863,1,2,3:2:0:0:
312,72,58029,2,0,P|368:56|412:56,1,82.5,2|2,0:2|3:2,0:0:0:0:
424,60,58279,1,2,0:2:0:0:
424,60,58363,1,0,3:0:0:0:
388,180,58529,2,0,L|384:232,1,41.25,2|2,0:2|0:2,0:0:0:0:
336,284,58696,6,0,P|276:300|240:316,1,82.5,2|0,3:2|0:0,0:0:0:0:
228,320,58946,1,0,3:0:0:0:
196,332,59029,2,0,P|144:308|108:276,1,82.5,2|2,3:2|3:2,0:0:0:0:
60,204,59363,2,0,L|44:104,1,82.5,2|2,0:2|3:2,0:0:0:0:
40,88,59613,1,2,0:2:0:0:
208,24,59863,2,0,L|200:80,1,41.25,2|2,0:2|0:2,0:0:0:0:
160,132,60029,6,0,L|176:232,1,82.5,2|0,3:2|0:0,0:0:0:0:
164,244,60279,1,0,3:0:0:0:
152,276,60363,2,0,P|228:248|248:252,1,82.5,2|2,3:2|3:2,0:0:0:0:
316,136,60696,2,0,P|332:200|328:240,1,82.5,2|2,0:2|3:2,0:0:0:0:
316,248,60946,1,2,0:2:0:0:
316,248,61029,6,0,P|348:300|424:240,1,160.874992635727,8|2,0:0|0:2,0:0:0:0:
472,352,61363,6,0,B|460:316|468:276|468:276|456:228|456:228|468:184|452:144,1,202.124993831635,4|0,0:0|0:0,0:0:0:0:
412,44,62029,6,0,L|404:116,1,47.4375009047985,10|0,0:2|0:0,0:0:0:0:
316,88,62196,2,0,L|328:148,1,47.4375009047985,2|0,0:2|0:0,0:0:0:0:
348,240,62363,6,0,L|288:224,1,47.4375009047985,2|0,0:2|0:0,0:0:0:0:
240,152,62529,2,0,L|194:164,1,47.4375009047985,2|0,0:2|0:0,0:0:0:0:
200,268,62696,6,0,L|184:376,1,86.6249973564149,0|0,3:0|0:0,0:0:0:0:
112,324,63029,2,0,L|100:212,1,86.6249973564149,0|0,3:0|0:0,0:0:0:0:
44,160,63363,5,10,0:2:0:0:
64,136,63446,1,2,0:2:0:0:
80,112,63529,1,2,0:2:0:0:
100,88,63613,1,2,0:2:0:0:
132,44,63696,5,2,0:2:0:0:
140,84,63779,1,2,0:2:0:0:
148,124,63863,1,2,0:2:0:0:
156,164,63946,1,2,0:2:0:0:
164,196,64029,6,0,L|144:300,1,86.6249973564149,0|0,3:0|0:0,0:0:0:0:
212,344,64363,2,0,L|228:258,1,86.6249973564149,0|0,3:0|0:0,0:0:0:0:
256,160,64696,5,10,0:2:0:0:
336,264,64863,1,2,0:2:0:0:
372,112,65029,1,2,0:2:0:0:
448,228,65196,1,10,0:2:0:0:
456,244,65279,1,8,0:0:0:0:
464,260,65363,6,0,L|452:368,1,90.7500027694703,8|0,0:0|3:0,0:0:0:0:
364,284,65696,2,0,L|357:205,1,78.3749979071618,8|0,0:0|3:0,0:0:0:0:
260,340,66029,2,0,L|276:252,1,66,8|0,0:0|3:0,0:0:0:0:
180,104,66363,6,0,L|184:248,1,115.49999647522,8|0,0:0|0:0,0:0:0:0:
104,324,66696,6,0,P|140:284|172:256,1,82.5,2|2,3:2|0:2,0:0:0:0:
184,220,66946,1,2,0:2:0:0:
212,216,67029,2,0,L|312:204,1,82.5,2|2,3:2|0:2,0:0:0:0:
412,260,67363,1,0,3:0:0:0:
388,124,67529,1,2,0:2:0:0:
396,240,67696,2,0,L|380:336,1,82.5,2|2,3:2|0:2,0:0:0:0:
476,284,68029,5,2,3:2:0:0:
312,296,68196,2,0,L|224:308,1,82.5,2|0,0:2|3:0,0:0:0:0:
108,356,68529,2,0,P|144:328|148:240,1,123.75,2|0,0:2|0:0,0:0:0:0:
140,228,68863,2,0,L|48:200,1,82.5,2|0,0:2|3:0,0:0:0:0:
180,132,69196,1,2,0:2:0:0:
252,228,69363,6,0,P|260:292|268:332,1,82.5,2|2,3:2|0:2,0:0:0:0:
244,356,69613,1,2,0:2:0:0:
236,376,69696,2,0,P|288:352|328:348,1,82.5,2|2,3:2|0:2,0:0:0:0:
432,356,70029,1,0,3:0:0:0:
372,236,70196,1,2,0:2:0:0:
384,148,70363,2,0,L|396:56,1,82.5,2|2,3:2|0:2,0:0:0:0:
472,128,70696,5,2,3:2:0:0:
320,72,70863,2,0,P|268:80|232:108,1,82.5,2|0,0:2|3:0,0:0:0:0:
132,32,71196,2,0,P|164:96|168:168,1,123.75,2|0,0:2|0:0,0:0:0:0:
156,172,71529,2,0,P|108:200|80:224,1,82.5,2|0,0:2|3:0,0:0:0:0:
36,340,71863,1,2,0:2:0:0:
80,232,72029,6,0,L|68:144,1,82.5,2|2,3:2|0:2,0:0:0:0:
80,104,72279,1,2,0:2:0:0:
88,84,72363,2,0,P|136:68|184:44,1,82.5,2|2,3:2|0:2,0:0:0:0:
260,20,72696,1,0,3:0:0:0:
312,160,72863,1,2,0:2:0:0:
392,88,73029,2,0,L|408:0,1,82.5,2|2,3:2|0:2,0:0:0:0:
436,168,73363,5,2,3:2:0:0:
308,80,73529,2,0,L|216:92,1,82.5,2|0,0:2|3:0,0:0:0:0:
92,112,73863,2,0,P|168:144|212:188,1,123.75,2|0,0:2|0:0,0:0:0:0:
216,196,74196,2,0,L|232:292,1,82.5,2|0,0:2|3:0,0:0:0:0:
176,372,74529,1,2,0:2:0:0:
300,328,74696,6,0,L|388:312,1,82.5,2|2,3:2|0:2,0:0:0:0:
428,332,74946,1,2,0:2:0:0:
448,348,75029,2,0,P|432:292|432:252,1,82.5,2|2,3:2|0:2,0:0:0:0:
392,180,75363,1,0,3:0:0:0:
508,292,75529,1,2,0:2:0:0:
484,152,75696,2,0,L|472:52,1,82.5,2|2,3:2|0:2,0:0:0:0:
432,220,76029,5,2,3:2:0:0:
372,120,76196,2,0,L|384:28,1,82.5,2|0,0:2|3:0,0:0:0:0:
328,200,76529,2,0,P|344:268|352:336,1,123.75,2|0,0:2|0:0,0:0:0:0:
352,364,76863,1,2,0:2:0:0:
440,272,77029,6,0,L|448:160,1,107.249995090485,8|0,0:0|0:0,0:0:0:0:
356,100,77363,6,0,P|312:104|264:88,2,82.5,4|0|0,3:2|0:0|0:0,0:0:0:0:
436,60,77863,1,0,0:0:0:0:
424,160,78029,2,0,L|416:252,2,82.5,2|0|0,0:2|0:0|0:0,0:0:0:0:
368,28,78529,1,0,0:0:0:0:
328,128,78696,6,0,L|348:224,2,82.5,2|0|0,0:2|0:0|0:0,0:0:0:0:
256,48,79196,1,0,0:0:0:0:
248,156,79363,2,0,L|240:248,2,82.5,2|0|0,0:2|0:0|0:0,0:0:0:0:
256,48,79863,1,0,0:0:0:0:
164,108,80029,6,0,P|120:116|76:112,1,82.5,2|0,3:2|0:0,0:0:0:0:
244,64,80363,2,0,P|284:68|328:84,1,82.5,2|0,0:2|0:0,0:0:0:0:
140,36,80696,2,0,P|76:24|48:12,1,82.5,2|0,0:2|0:0,0:0:0:0:
60,144,81029,1,0,0:0:0:0:
40,8,81196,1,0,0:0:0:0:
56,128,81363,6,0,P|52:188|44:232,1,82.5,2|0,0:2|0:0,0:0:0:0:
148,292,81696,2,0,L|136:192,1,82.5,2|0,0:2|0:0,0:0:0:0:
180,88,82029,2,0,P|208:148|232:180,1,82.5,2|0,0:2|0:0,0:0:0:0:
228,264,82363,1,0,0:0:0:0:
288,120,82529,1,0,0:0:0:0:
356,248,82696,6,0,L|348:296,15,41.25,2|0|0|0|0|0|0|0|2|0|0|0|0|0|2|0,3:2|0:0|0:0|0:0|0:0|0:0|0:0|0:0|0:2|0:0|0:0|0:0|0:0|0:0|0:2|0:0,0:0:0:0:
272,296,84029,6,0,L|277:336,15,41.25,2|0|0|0|0|0|2|0|0|0|0|0|2|0|0|0,3:2|0:0|0:0|0:0|0:0|0:0|0:2|0:0|0:0|0:0|0:0|0:0|0:2|0:0|0:0|0:0,0:0:0:0:
204,372,85363,6,0,L|198:331,7,41.25,2|0|0|0|2|0|0|0,3:2|0:0|0:0|0:0|0:2|0:0|0:0|0:0,0:0:0:0:
144,276,86029,2,0,L|152:228,7,41.25,2|0|0|0|2|0|0|0,3:2|0:0|0:0|0:0|0:2|0:0|0:0|0:0,0:0:0:0:
112,172,86696,6,0,L|100:140,7,20.625,2|0|0|0|0|0|0|0,3:2|0:0|0:0|0:0|0:0|0:0|0:0|0:0,0:0:0:0:
136,156,87029,2,0,L|136:116,7,20.625,0|0|0|0|2|0|0|0,0:0|0:0|0:0|0:0|0:2|0:0|0:0|0:0,0:0:0:0:
164,152,87363,2,0,L|180:120,7,20.625,0|0|0|0|0|0|0|0,0:0|0:0|0:0|0:0|0:0|0:0|0:0|0:0,0:0:0:0:
196,164,87696,2,0,L|180:60,1,98.9999969787599,12|0,0:0|0:0,0:0:0:0:
112,8,88029,5,4,3:2:0:0:
340,296,98696,5,4,3:2:0:0:
340,296,98863,1,0,0:0:0:0:
264,244,99029,2,0,L|184:252,1,66,2|0,0:2|0:0,0:0:0:0:
344,196,99363,2,0,L|412:204,1,66,2|0,0:2|0:0,0:0:0:0:
264,152,99696,2,0,P|220:136|188:116,1,66,2|0,0:2|0:0,0:0:0:0:
128,72,100029,6,0,L|60:88,2,66,2|0|0,0:2|0:0|0:0,0:0:0:0:
212,36,100529,2,0,P|276:28|308:104,1,132,2|0,0:2|0:0,0:0:0:0:
352,160,101029,2,0,L|340:240,1,66,2|0,0:2|0:0,0:0:0:0:
440,284,101363,6,0,L|432:208,2,66,2|0|0,0:2|0:0|0:0,0:0:0:0:
388,360,101863,1,0,0:0:0:0:
340,284,102029,2,0,L|348:192,1,66,0|0,0:0|0:0,0:0:0:0:
248,168,102363,2,0,P|260:216|264:248,1,66,0|2,0:0|0:2,0:0:0:0:
240,320,102696,6,0,L|164:336,2,66,0|0|0,0:0|0:0|0:0,0:0:0:0:
332,300,103196,1,0,0:0:0:0:
262,232,103363,2,0,P|224:224|200:212,1,66,0|0,0:0|0:0,0:0:0:0:
56,200,103696,2,0,P|108:180|140:180,1,66,0|0,0:0|0:0,0:0:0:0:
128,284,104029,5,2,0:2:0:0:
128,284,104196,1,0,0:0:0:0:
136,192,104363,2,0,P|128:156|104:108,1,66,2|0,0:2|0:0,0:0:0:0:
216,60,104696,2,0,L|208:144,1,66,2|0,0:2|0:0,0:0:0:0:
260,216,105029,2,0,P|288:168|316:144,1,66,2|0,0:2|0:0,0:0:0:0:
348,84,105363,6,0,L|428:76,2,66,2|0|0,0:2|0:0|0:0,0:0:0:0:
192,32,105863,2,0,P|260:44|308:0,1,132,2|0,0:2|0:0,0:0:0:0:
272,120,106363,2,0,L|280:192,1,66,2|0,0:2|0:0,0:0:0:0:
316,272,106696,6,0,L|384:280,2,66,2|0|0,0:2|0:0|0:0,0:0:0:0:
224,264,107196,1,0,0:0:0:0:
168,188,107363,2,0,L|180:108,1,66,0|0,0:0|0:0,0:0:0:0:
76,68,107696,2,0,L|88:140,1,66,0|0,0:0|0:0,0:0:0:0:
60,256,108029,6,0,P|52:196|180:200,1,226.875,4|0,3:2|0:0,0:0:0:0:
196,216,109029,6,0,P|188:268|188:324,1,94.8750018095971,8|0,0:0|0:0,0:0:0:0:
336,304,109363,6,0,L|436:288,1,82.5,4|0,3:2|0:0,0:0:0:0:
288,216,109696,2,0,P|232:196|196:168,1,82.5,10|0,0:2|0:0,0:0:0:0:
372,104,110029,2,0,P|312:120|276:124,1,82.5,2|0,0:2|3:0,0:0:0:0:
152,120,110363,1,10,0:2:0:0:
264,40,110529,6,0,L|280:228,1,165,2|2,0:2|0:2,0:0:0:0:
284,312,111029,1,10,0:2:0:0:
372,248,111196,2,0,L|468:232,1,82.5,2|0,3:2|0:0,0:0:0:0:
388,156,111529,1,2,3:2:0:0:
428,328,111696,1,8,0:0:0:0:
500,172,111863,1,2,0:2:0:0:
372,144,112029,6,0,P|328:156|284:156,2,82.5,2|2|10,3:2|0:2|0:2,0:0:0:0:
328,56,112529,2,0,L|324:232,1,165,2|2,0:2|3:2,0:0:0:0:
316,328,113029,1,10,0:2:0:0:
236,244,113196,6,0,P|224:192|212:160,1,82.5,2|0,3:2|0:0,0:0:0:0:
96,104,113529,2,0,P|144:96|184:76,1,82.5,2|8,3:2|0:0,0:0:0:0:
372,84,113863,2,0,P|352:28|252:64,1,165,2|0,3:2|3:0,0:0:0:0:
213,164,114363,1,10,0:2:0:0:
328,324,114696,6,0,L|320:212,1,82.5,2|0,3:2|0:0,0:0:0:0:
344,136,115029,1,10,0:2:0:0:
236,200,115196,1,2,0:2:0:0:
408,228,115363,2,0,L|500:240,2,82.5,2|2|10,0:2|3:2|0:2,0:0:0:0:
332,88,115863,1,2,0:2:0:0:
288,208,116029,6,0,L|293:290,1,82.5,2|0,3:2|0:0,0:0:0:0:
380,208,116363,1,10,0:2:0:0:
196,260,116529,1,2,3:2:0:0:
196,260,116863,1,0,3:0:0:0:
112,324,117029,2,0,L|20:312,1,82.5,10|0,0:2|0:0,0:0:0:0:
228,340,117363,6,0,P|292:368|376:304,1,165,2|8,3:2|0:0,0:0:0:0:
416,192,117863,1,2,0:2:0:0:
468,284,118029,2,0,L|476:380,2,82.5,2|0|8,0:2|3:0|0:0,0:0:0:0:
456,120,118529,1,2,3:2:0:0:
376,228,118696,6,0,L|384:324,1,82.5,2|2,0:2|3:2,0:0:0:0:
292,168,119029,1,8,0:0:0:0:
264,308,119196,2,0,P|220:364|140:316,1,165,2|2,3:2|3:2,0:0:0:0:
60,260,119696,1,8,0:0:0:0:
60,260,120029,6,0,P|80:208|88:168,1,82.5,2|0,3:2|0:0,0:0:0:0:
180,212,120363,2,0,P|164:144|148:112,1,82.5,10|0,0:2|0:0,0:0:0:0:
32,100,120696,2,0,P|80:88|128:56,1,82.5,2|0,0:2|3:0,0:0:0:0:
44,12,121029,1,10,0:2:0:0:
96,164,121196,6,0,L|80:332,1,165,2|2,0:2|0:2,0:0:0:0:
0,248,121696,1,10,0:2:0:0:
168,296,121863,2,0,L|252:276,1,82.5,2|0,3:2|0:0,0:0:0:0:
180,200,122196,1,2,3:2:0:0:
240,364,122363,1,8,0:0:0:0:
296,200,122529,1,2,0:2:0:0:
344,288,122696,6,0,L|340:384,1,82.5,2|0,3:2|0:0,0:0:0:0:
436,232,123029,1,10,0:2:0:0:
312,296,123196,2,0,P|232:308|164:252,1,165,2|2,0:2|3:2,0:0:0:0:
100,176,123696,1,10,0:2:0:0:
52,268,123863,6,0,P|64:312|68:368,1,82.5,2|0,3:2|0:0,0:0:0:0:
100,176,124196,2,0,L|112:80,1,82.5,2|8,3:2|0:0,0:0:0:0:
12,28,124529,2,0,L|20:204,1,165,2|0,3:2|3:0,0:0:0:0:
112,76,125029,1,10,0:2:0:0:
104,56,125363,6,0,P|164:56|204:40,1,82.5,2|0,3:2|0:0,0:0:0:0:
288,24,125696,1,10,0:2:0:0:
232,156,125863,1,2,0:2:0:0:
284,240,126029,2,0,L|380:260,2,82.5,2|2|10,0:2|3:2|0:2,0:0:0:0:
144,212,126529,1,2,0:2:0:0:
224,140,126696,6,0,P|264:128|320:100,1,82.5,2|0,3:2|0:0,0:0:0:0:
372,28,127029,1,10,0:2:0:0:
364,208,127196,1,2,3:2:0:0:
256,352,127529,6,0,L|164:368,2,82.5,2|8|2,3:2|0:0|0:2,0:0:0:0:
356,340,128029,1,0,3:0:0:0:
228,272,128196,2,0,L|132:248,2,82.5,0|8|0,0:0|0:0|0:0,0:0:0:0:
356,340,128696,1,0,0:0:0:0:
320,192,128863,5,0,3:0:0:0:
264,352,129029,1,8,0:0:0:0:
400,260,129196,1,0,3:0:0:0:
212,228,129363,5,4,3:2:0:0:
384,360,129529,1,4,3:2:0:0:
348,140,129696,1,4,3:2:0:0:
112,344,130363,2,0,L|224:332,1,107.249995090485,8|0,0:0|0:0,0:0:0:0:
284,188,130696,6,0,P|292:244|304:276,1,82.5,4|0,1:2|0:0,0:0:0:0:
268,100,131029,2,0,P|216:124|184:160,1,82.5,2|0,1:2|0:0,0:0:0:0:
152,228,131363,1,2,1:2:0:0:
124,76,131529,1,2,0:2:0:0:
32,208,131696,1,2,1:2:0:0:
108,88,131863,1,2,0:2:0:0:
152,228,132029,5,2,1:2:0:0:
220,124,132196,2,0,L|308:100,2,82.5,2|0|2,0:2|1:0|0:2,0:0:0:0:
100,156,132696,1,2,1:2:0:0:
216,212,132863,2,0,L|304:236,2,82.5,2|2|2,0:2|1:2|0:2,0:0:0:0:
88,144,133363,6,0,L|96:240,1,82.5,0|0,1:0|0:0,0:0:0:0:
144,348,133696,2,0,P|160:288|176:256,1,82.5,2|0,1:2|0:0,0:0:0:0:
200,176,134029,1,2,1:2:0:0:
236,312,134196,1,2,0:2:0:0:
76,296,134363,1,2,1:2:0:0:
120,180,134529,1,2,0:2:0:0:
184,84,134696,5,2,1:2:0:0:
280,100,134863,2,0,L|380:120,2,82.5,2|0|2,0:2|1:0|0:2,0:0:0:0:
168,60,135363,2,0,P|180:104|180:156,1,82.5,2|2,1:2|0:2,0:0:0:0:
168,292,135696,2,0,P|152:244|152:200,1,82.5,2|2,1:2|0:2,0:0:0:0:
256,232,136029,6,0,L|356:244,1,82.5,0|0,1:0|0:0,0:0:0:0:
328,84,136363,2,0,L|344:168,1,82.5,2|0,1:2|0:0,0:0:0:0:
408,276,136696,1,2,1:2:0:0:
452,140,136863,1,2,0:2:0:0:
328,208,137029,1,2,1:2:0:0:
480,224,137196,1,2,0:2:0:0:
360,120,137363,5,2,1:2:0:0:
316,228,137529,2,0,L|324:316,2,82.5,2|0|2,0:2|1:0|0:2,0:0:0:0:
280,104,138029,2,0,P|312:56|428:80,1,165,2|0,1:2|1:0,0:0:0:0:
480,140,138529,1,2,0:2:0:0:
480,140,138696,5,2,1:2:0:0:
432,236,138863,2,0,L|440:324,2,82.5,2|2|2,0:2|1:2|0:2,0:0:0:0:
372,148,139363,1,2,1:2:0:0:
508,212,139529,1,2,0:2:0:0:
476,64,139696,1,2,1:2:0:0:
400,152,139863,6,0,P|352:176|252:128,1,165,2|2,0:2|0:2,0:0:0:0:
212,44,140363,1,0,1:0:0:0:
336,88,140529,1,2,0:2:0:0:
176,136,140696,2,0,B|124:156|124:156|68:152|68:152|4:172,1,165,0|0,1:0|1:0,0:0:0:0:
128,332,141363,5,4,3:2:0:0:
128,332,141529,1,0,0:0:0:0:
116,232,141696,2,0,L|100:136,1,82.5,2|0,0:2|0:0,0:0:0:0:
212,108,142029,2,0,L|200:204,2,82.5,2|2|2,0:2|0:2|0:2,0:0:0:0:
228,12,142529,1,2,0:2:0:0:
312,92,142696,6,0,L|400:112,2,82.5,2|2|0,0:2|0:2|0:0,0:0:0:0:
160,52,143196,1,2,0:2:0:0:
140,148,143363,2,0,L|152:240,1,82.5,0|0,0:0|0:0,0:0:0:0:
60,72,143696,2,0,L|36:168,1,82.5,0|0,0:0|0:0,0:0:0:0:
52,260,144029,5,0,3:0:0:0:
52,260,144196,1,0,0:0:0:0:
148,284,144363,2,0,L|244:268,1,82.5,2|0,0:2|0:0,0:0:0:0:
356,228,144696,2,0,P|304:212|268:192,2,82.5,2|2|2,0:2|0:2|0:2,0:0:0:0:
452,252,145196,1,2,0:2:0:0:
396,148,145363,6,0,L|388:60,2,82.5,2|2|0,0:2|0:2|0:0,0:0:0:0:
388,300,145863,1,2,0:2:0:0:
300,240,146029,2,0,L|217:246,1,82.5,0|0,0:0|0:0,0:0:0:0:
400,216,146363,2,0,L|504:232,1,82.5,0|0,0:0|0:0,0:0:0:0:
472,128,146696,5,0,3:0:0:0:
464,104,146779,1,0,0:0:0:0:
456,80,146863,1,0,0:0:0:0:
448,56,146946,1,0,0:0:0:0:
440,32,147029,2,0,L|368:16,11,41.25,0|0|2|0|0|0|2|0|2|0|2|0,0:0|0:0|0:2|0:0|0:0|0:0|0:2|0:0|0:2|0:0|0:2|0:0,0:0:0:0:
320,48,148029,5,2,3:2:0:0:
288,56,148113,1,0,0:0:0:0:
256,64,148196,1,2,0:2:0:0:
224,72,148279,1,0,0:0:0:0:
192,80,148363,2,0,L|180:120,11,41.25,0|0|2|0|0|0|0|0|0|0|0|0,0:0|0:0|0:2|0:0|0:0|0:0|0:0|0:0|0:0|0:0|0:0|0:0,0:0:0:0:
116,192,149363,5,0,3:0:0:0:
144,220,149446,1,0,0:0:0:0:
160,256,149529,1,2,0:2:0:0:
160,296,149613,1,0,0:0:0:0:
144,336,149696,2,0,L|244:312,1,82.5,2|2,0:2|0:2,0:0:0:0:
424,240,150029,5,2,3:2:0:0:
384,220,150113,1,0,0:0:0:0:
340,208,150196,1,2,0:2:0:0:
296,220,150279,1,0,0:0:0:0:
264,252,150363,2,0,L|268:152,1,82.5,2|2,0:2|0:2,0:0:0:0:
160,44,150696,6,0,L|168:156,1,90.7500027694703,8|2,0:0|3:2,0:0:0:0:
108,264,151029,2,0,L|100:168,1,78.3749979071618,8|2,0:0|3:2,0:0:0:0:
224,224,151363,2,0,L|308:200,1,66,8|0,0:0|3:0,0:0:0:0:
160,324,151696,6,0,P|92:340|40:312,1,115.49999647522,8|0,0:1|0:0,0:0:0:0:
272,296,152029,6,0,L|372:316,1,82.5,4|0,3:2|0:0,0:0:0:0:
480,276,152363,2,0,P|400:240|360:200,1,123.75,2|2,3:2|0:2,0:0:0:0:
340,196,152696,2,0,L|320:104,1,82.5,0|2,3:0|0:2,0:0:0:0:
212,204,153029,1,0,3:0:0:0:
248,100,153196,6,0,P|340:44|392:88,1,165,2|2,0:2|0:2,0:0:0:0:
448,144,153696,2,0,L|436:236,1,82.5,2|2,3:2|0:2,0:0:0:0:
376,348,154029,2,0,P|364:304|336:248,1,82.5,2|2,3:2|0:2,0:0:0:0:
280,336,154363,1,2,3:2:0:0:
444,260,154529,1,2,0:2:0:0:
432,244,154863,6,0,L|424:184,1,41.25,2|0,0:2|0:0,0:0:0:0:
352,148,155029,2,0,L|344:236,1,82.5,2|0,3:2|0:0,0:0:0:0:
280,352,155363,2,0,P|268:288|236:220,1,123.75,2|2,3:2|0:2,0:0:0:0:
224,200,155696,1,0,3:0:0:0:
288,104,155863,6,0,L|452:72,1,165,2|2,0:2|0:2,0:0:0:0:
208,60,156363,2,0,P|160:44|124:24,1,82.5,2|2,3:2|0:2,0:0:0:0:
112,156,156696,2,0,L|124:252,1,82.5,2|2,3:2|0:2,0:0:0:0:
196,176,157029,1,2,3:2:0:0:
36,216,157196,1,2,0:2:0:0:
164,304,157363,6,0,L|260:324,1,82.5,2|0,3:2|0:0,0:0:0:0:
448,248,157696,2,0,P|368:232|312:268,1,123.75,2|2,3:2|0:2,0:0:0:0:
308,272,158029,2,0,L|300:180,1,82.5,0|2,3:0|0:2,0:0:0:0:
288,96,158363,1,0,3:0:0:0:
192,216,158529,1,2,0:2:0:0:
128,108,158696,6,0,L|132:20,1,82.5,2|2,3:2|0:2,0:0:0:0:
76,196,159029,2,0,L|68:312,1,94.8750018095971,2|2,3:2|0:2,0:0:0:0:
180,212,159363,2,0,L|264:188,1,82.5,2|2,3:2|0:2,0:0:0:0:
188,124,159696,1,2,3:2:0:0:
240,276,159863,1,2,0:2:0:0:
252,296,160196,6,0,L|260:240,1,41.25,2|0,0:2|0:0,0:0:0:0:
332,184,160363,2,0,L|344:280,1,82.5,2|0,3:2|0:0,0:0:0:0:
420,348,160696,2,0,L|436:200,1,123.75,2|2,3:2|0:2,0:0:0:0:
460,192,161029,2,0,L|444:92,1,82.5,0|2,3:0|0:2,0:0:0:0:
356,16,161363,6,0,L|364:108,1,82.5,2|2,3:2|0:2,0:0:0:0:
332,248,161696,2,0,P|312:192|280:140,1,94.8750018095971,2|2,3:2|0:2,0:0:0:0:
232,64,162029,2,0,L|136:52,1,82.5,2|2,3:2|0:2,0:0:0:0:
40,164,162363,6,0,L|168:156,1,115.49999647522,10|2,0:2|0:2,0:0:0:0:
280,124,162696,6,0,P|292:180|308:216,1,82.5,2|0,3:2|0:0,0:0:0:0:
204,268,163029,2,0,P|288:296|332:280,1,123.75,2|2,3:2|0:2,0:0:0:0:
360,280,163363,2,0,P|384:212|396:192,1,82.5,0|2,3:0|0:2,0:0:0:0:
384,104,163696,1,0,3:0:0:0:
252,168,163863,6,0,P|160:176|92:112,1,165,2|2,0:2|0:2,0:0:0:0:
196,80,164363,1,2,3:2:0:0:
148,256,164529,1,2,0:2:0:0:
72,120,164696,2,0,L|64:24,1,82.5,2|2,3:2|0:2,0:0:0:0:
16,192,165029,1,2,3:2:0:0:
156,120,165196,1,2,0:2:0:0:
168,108,165529,6,0,L|160:164,1,41.25,2|0,0:2|0:0,0:0:0:0:
256,240,165696,2,0,L|244:152,1,82.5,2|0,3:2|0:0,0:0:0:0:
356,64,166029,2,0,L|344:160,1,82.5,2|0,3:2|0:0,0:0:0:0:
340,192,166279,1,2,0:2:0:0:
340,192,166363,1,0,3:0:0:0:
308,296,166529,6,0,P|256:316|180:224,1,165,2|2,0:2|0:2,0:0:0:0:
120,172,167029,2,0,L|108:76,1,82.5,2|2,3:2|0:2,0:0:0:0:
36,164,167363,1,2,3:2:0:0:
188,84,167529,1,2,0:2:0:0:
200,192,167696,2,0,L|210:273,1,82.5,2|2,3:2|0:2,0:0:0:0:
300,360,168029,6,0,L|308:260,1,82.5,2|0,3:2|0:0,0:0:0:0:
380,68,168363,2,0,P|340:156|308:180,1,123.75,2|2,3:2|0:2,0:0:0:0:
296,204,168696,2,0,P|248:216|216:232,1,82.5,0|2,3:0|0:2,0:0:0:0:
136,308,169029,1,0,3:0:0:0:
160,156,169196,1,2,0:2:0:0:
116,284,169363,6,0,L|124:376,1,82.5,2|2,3:2|0:2,0:0:0:0:
188,224,169696,1,2,3:2:0:0:
36,284,169863,1,2,0:2:0:0:
216,308,170029,2,0,L|328:332,1,94.8750018095971,2|2,3:2|0:2,0:0:0:0:
264,236,170363,1,2,3:2:0:0:
160,360,170529,1,2,0:2:0:0:
140,352,170863,6,0,L|132:300,1,41.25,2|0,0:2|0:0,0:0:0:0:
80,248,171029,2,0,L|96:144,1,82.5,2|0,3:2|0:0,0:0:0:0:
152,40,171363,2,0,P|156:84|184:140,1,82.5,2|0,3:2|0:0,0:0:0:0:
204,156,171613,1,2,0:2:0:0:
196,204,171696,1,0,3:0:0:0:
156,296,171863,1,2,0:2:0:0:
304,232,172029,5,4,3:2:0:0:
256,192,172113,12,10,173029,0:2:0:0:
400,328,173363,6,0,L|384:236,1,82.5,4|0,3:2|0:0,0:0:0:0:
313,86,173696,2,0,L|304:168,1,82.5,2|0,3:2|0:0,0:0:0:0:
280,204,173946,1,2,0:2:0:0:
284,232,174029,2,0,L|296:324,1,82.5,0|2,3:0|0:2,0:0:0:0:
384,232,174363,1,0,3:0:0:0:
204,292,174529,6,0,L|112:284,1,82.5,2|0,0:2|3:0,0:0:0:0:
16,332,174863,1,2,0:2:0:0:
108,192,175029,2,0,L|116:148,2,41.25,2|0|2,3:2|0:0|0:2,0:0:0:0:
156,360,175363,1,2,3:2:0:0:
20,248,175529,1,2,0:2:0:0:
204,212,175696,2,0,L|248:200,2,41.25,2|0|2,3:2|0:0|0:2,0:0:0:0:
20,248,176029,5,0,3:0:0:0:
180,300,176196,2,0,L|232:316,1,41.25,2|0,0:2|0:0,0:0:0:0:
312,348,176363,2,0,P|296:308|292:256,1,82.5,2|0,3:2|0:0,0:0:0:0:
284,156,176696,2,0,L|140:164,1,123.75,2|2,3:2|0:2,0:0:0:0:
124,180,177029,2,0,P|72:160|28:136,1,82.5,0|2,3:0|0:2,0:0:0:0:
8,48,177363,5,0,3:0:0:0:
28,236,177529,1,2,0:2:0:0:
128,72,177696,2,0,L|140:24,2,41.25,2|0|2,3:2|0:0|0:2,0:0:0:0:
176,232,178029,2,0,L|192:320,1,82.5,2|2,3:2|0:2,0:0:0:0:
268,240,178363,1,2,3:2:0:0:
100,316,178529,1,2,0:2:0:0:
268,360,178696,6,0,L|368:372,1,82.5,2|0,3:2|0:0,0:0:0:0:
480,324,179029,2,0,P|428:308|388:272,1,82.5,2|0,3:2|0:0,0:0:0:0:
364,268,179279,1,2,0:0:0:0:
356,240,179363,2,0,L|336:144,1,82.5,0|2,3:0|0:0,0:0:0:0:
372,56,179696,1,0,3:0:0:0:
248,160,179863,1,2,0:0:0:0:
432,172,180029,5,2,3:2:0:0:
280,72,180196,1,2,0:0:0:0:
208,212,180363,2,0,L|216:268,2,41.25,2|0|2,3:2|0:0|0:0,0:0:0:0:
136,72,180696,1,2,3:2:0:0:
292,160,180863,1,2,0:2:0:0:
120,200,181029,2,0,L|68:184,2,41.25,2|0|2,3:2|0:0|0:0,0:0:0:0:
288,248,181363,5,0,3:0:0:0:
272,140,181529,2,0,L|260:84,1,41.25,2|0,0:0|0:0,0:0:0:0:
356,28,181696,2,0,L|348:128,1,82.5,2|0,3:2|0:0,0:0:0:0:
372,216,182029,2,0,P|396:276|444:324,1,123.75,2|2,3:2|0:2,0:0:0:0:
460,332,182363,2,0,L|368:360,1,82.5,0|2,3:0|0:2,0:0:0:0:
472,224,182696,5,2,3:2:0:0:
304,292,182863,1,2,0:2:0:0:
348,132,183029,2,0,L|356:80,2,41.25,2|0|2,3:2|0:0|0:2,0:0:0:0:
292,272,183363,2,0,L|300:372,1,82.5,2|2,3:2|0:2,0:0:0:0:
208,208,183696,6,0,L|196:84,1,107.249995090485,10|2,0:2|0:2,0:0:0:0:
80,36,184029,6,0,L|88:144,1,82.5,2|0,3:2|0:0,0:0:0:0:
24,228,184363,2,0,P|80:248|112:272,1,82.5,2|0,3:2|0:0,0:0:0:0:
136,296,184613,1,2,0:2:0:0:
152,312,184696,2,0,P|204:296|240:272,1,82.5,0|2,3:0|0:2,0:0:0:0:
308,188,185029,1,0,3:0:0:0:
364,292,185196,6,0,L|368:380,1,82.5,2|0,0:2|3:0,0:0:0:0:
432,220,185529,1,2,0:2:0:0:
272,304,185696,2,0,L|224:300,2,41.25,2|0|2,3:2|0:0|0:2,0:0:0:0:
452,328,186029,1,2,3:2:0:0:
320,200,186196,1,2,0:2:0:0:
252,328,186363,2,0,L|260:384,2,41.25,2|0|2,3:2|0:0|0:2,0:0:0:0:
232,196,186696,5,0,3:0:0:0:
248,88,186863,2,0,L|256:32,1,41.25,2|0,0:2|0:0,0:0:0:0:
328,108,187029,2,0,L|340:200,1,82.5,2|0,3:2|0:0,0:0:0:0:
328,340,187363,2,0,P|292:292|216:272,1,123.75,2|2,3:2|0:2,0:0:0:0:
200,248,187696,2,0,P|144:272|108:276,1,82.5,0|2,3:0|0:2,0:0:0:0:
132,168,188029,5,0,3:0:0:0:
188,344,188196,1,2,0:2:0:0:
272,188,188363,2,0,L|284:136,2,41.25,2|0|2,3:2|0:0|0:2,0:0:0:0:
104,272,188696,1,2,3:2:0:0:
288,308,188863,1,2,0:2:0:0:
204,144,189029,2,0,L|192:40,1,82.5,2|2,3:2|0:2,0:0:0:0:
368,36,189363,6,0,L|360:128,1,82.5,2|0,3:2|0:0,0:0:0:0:
412,224,189696,2,0,L|424:308,1,82.5,2|0,3:2|0:0,0:0:0:0:
456,340,189946,1,2,0:2:0:0:
472,356,190029,2,0,L|496:260,1,82.5,0|2,3:0|0:2,0:0:0:0:
472,152,190363,1,0,3:0:0:0:
336,276,190529,1,2,0:2:0:0:
320,136,190696,6,0,L|312:40,1,82.5,2|2,3:2|0:2,0:0:0:0:
400,188,191029,1,2,3:2:0:0:
228,108,191196,1,2,0:2:0:0:
396,36,191363,1,2,3:2:0:0:
212,96,191529,2,0,L|156:112,2,41.25,2|0|2,0:2|0:0|3:2,0:0:0:0:
396,36,191863,1,2,0:2:0:0:
336,200,192029,5,0,3:0:0:0:
300,292,192196,2,0,L|312:356,1,41.25,2|0,0:2|0:0,0:0:0:0:
388,376,192363,2,0,L|396:280,1,82.5,2|0,3:2|0:0,0:0:0:0:
472,196,192696,2,0,P|408:176|376:160,1,82.5,2|0,3:2|0:0,0:0:0:0:
352,152,192946,1,2,0:2:0:0:
328,144,193029,2,0,P|284:148|240:168,1,82.5,0|2,3:0|0:2,0:0:0:0:
168,276,193363,5,4,3:2:0:0:
180,132,194363,2,0,P|148:192|76:164,1,148.49999546814,10|0,0:2|0:0,0:0:0:0:
52,144,194696,6,0,L|60:60,1,82.5,4|0,3:2|0:0,0:0:0:0:
12,224,195029,2,0,P|20:268|36:308,1,82.5,2|2,3:2|0:2,0:0:0:0:
64,332,195279,1,2,0:2:0:0:
88,340,195363,2,0,L|168:320,1,82.5,2|2,3:2|0:2,0:0:0:0:
280,332,195696,1,2,3:2:0:0:
216,220,195863,1,2,0:2:0:0:
240,124,196029,6,0,L|260:28,1,82.5,2|2,3:2|0:2,0:0:0:0:
164,88,196363,1,2,3:2:0:0:
320,120,196529,1,2,0:2:0:0:
172,76,196696,2,0,L|84:64,1,82.5,2|2,3:2|0:2,0:0:0:0:
44,44,196946,1,0,0:0:0:0:
24,60,197029,2,0,L|36:152,1,82.5,2|2,3:2|0:2,0:0:0:0:
40,292,197363,6,0,P|64:236|88:204,1,82.5,0|0,3:0|0:0,0:0:0:0:
164,132,197696,2,0,L|264:116,1,82.5,2|2,3:2|0:2,0:0:0:0:
280,92,197946,1,2,0:2:0:0:
300,72,198029,2,0,P|292:132|300:176,1,82.5,2|2,3:2|0:2,0:0:0:0:
316,268,198363,1,2,3:2:0:0:
388,176,198529,1,2,0:2:0:0:
232,212,198696,6,0,L|144:196,1,82.5,2|2,3:2|0:2,0:0:0:0:
84,124,199029,1,2,3:2:0:0:
100,276,199196,1,2,0:2:0:0:
64,116,199363,2,0,L|168:96,1,82.5,2|2,3:2|0:2,0:0:0:0:
172,64,199613,1,0,0:0:0:0:
188,44,199696,2,0,L|292:24,1,82.5,2|2,3:2|0:2,0:0:0:0:
404,52,200029,6,0,P|348:84|320:120,1,82.5,0|0,3:0|0:0,0:0:0:0:
252,180,200363,2,0,L|244:276,1,82.5,2|2,3:2|0:2,0:0:0:0:
216,296,200613,1,2,0:2:0:0:
196,312,200696,2,0,P|244:312|288:324,1,82.5,2|2,3:2|0:2,0:0:0:0:
388,252,201029,1,2,3:2:0:0:
252,180,201196,1,2,0:2:0:0:
376,112,201363,6,0,L|476:120,1,82.5,2|2,3:2|0:2,0:0:0:0:
324,40,201696,1,2,3:2:0:0:
344,192,201863,1,2,0:2:0:0:
280,268,202029,2,0,P|244:300|216:332,1,82.5,2|2,3:2|0:2,0:0:0:0:
192,360,202279,1,0,0:0:0:0:
176,380,202363,2,0,L|168:284,1,82.5,2|2,3:2|0:2,0:0:0:0:
128,180,202696,5,2,3:2:0:0:
256,208,202863,2,0,L|360:232,2,82.5,2|2|2,0:2|3:2|0:2,0:0:0:0:
172,96,203363,1,2,3:2:0:0:
180,248,203529,1,2,0:2:0:0:
260,128,203696,1,2,3:2:0:0:
116,196,203863,6,0,P|52:196|60:112,1,165,2|2,0:2|0:2,0:0:0:0:
168,76,204363,1,2,3:2:0:0:
8,52,204529,1,2,0:2:0:0:
160,60,204696,2,0,L|248:52,1,82.5,2|2,3:2|0:2,0:0:0:0:
280,28,204946,1,0,0:0:0:0:
296,8,205029,6,0,L|308:124,1,107.249995090485,10|0,0:2|0:0,0:0:0:0:
356,236,205363,6,0,P|368:188|392:148,1,82.5,4|0,3:2|0:0,0:0:0:0:
472,304,205696,2,0,P|448:256|440:212,1,82.5,2|0,0:2|0:0,0:0:0:0:
456,116,206029,1,2,0:2:0:0:
304,148,206196,1,2,0:2:0:0:
436,196,206363,1,2,0:2:0:0:
356,72,206529,1,2,0:2:0:0:
352,224,206696,6,0,L|348:308,2,82.5,2|2|0,0:2|0:2|0:0,0:0:0:0:
356,72,207196,1,2,0:2:0:0:
260,160,207363,2,0,L|272:252,2,82.5,2|2|2,0:2|0:2|0:2,0:0:0:0:
200,40,207863,1,2,0:2:0:0:
140,136,208029,6,0,L|152:236,1,82.5,0|0,3:0|0:0,0:0:0:0:
64,316,208363,2,0,P|132:300|168:304,1,82.5,2|0,0:2|0:0,0:0:0:0:
236,340,208696,1,2,0:2:0:0:
216,204,208863,1,2,0:2:0:0:
324,288,209029,1,2,0:2:0:0:
352,144,209196,1,2,0:2:0:0:
248,88,209363,6,0,L|144:104,2,82.5,2|2|0,0:2|0:2|0:0,0:0:0:0:
356,32,209863,1,2,0:2:0:0:
340,132,210029,2,0,L|352:216,2,82.5,2|2|2,0:2|0:2|0:2,0:0:0:0:
280,16,210529,1,2,0:2:0:0:
232,156,210696,6,0,L|244:200,15,41.25,0|0|0|0|2|0|0|0|2|0|2|0|2|0|2|0,3:0|0:0|0:0|0:0|0:2|0:0|0:0|0:0|0:2|0:0|0:2|0:0|0:2|0:0|0:2|0:0,0:0:0:0:
176,248,212029,6,0,L|165:208,15,41.25,2|0|2|0|0|0|2|0|2|0|0|0|2|0|2|0,3:2|0:0|0:2|0:0|0:0|0:0|0:2|0:0|0:2|0:0|0:0|0:0|0:2|0:0|0:2|0:0,0:0:0:0:
224,312,213363,6,0,L|284:328,7,41.25,2|0|2|0|2|0|2|0,3:2|0:0|0:2|0:0|0:2|0:0|0:2|0:0,0:0:0:0:
308,248,214029,2,0,L|368:224,7,41.25,2|0|2|0|2|0|2|0,3:2|0:0|0:2|0:0|0:2|0:0|0:2|0:0,0:0:0:0:
388,164,214696,6,0,L|408:133,7,20.625,0|0|0|0|2|0|0|0,3:0|0:0|0:0|0:0|0:2|0:0|0:0|0:0,0:0:0:0:
359,140,215029,2,0,L|362:107,7,20.625,0|0|0|0|2|0|0|0,0:0|0:0|0:0|0:0|0:2|0:0|0:0|0:0,0:0:0:0:
324,140,215363,2,0,L|308:105,7,20.625,0|0|0|0|0|0|0|0,0:0|0:0|0:0|0:0|0:0|0:0|0:0|0:0,0:0:0:0:
292,159,215696,2,0,L|192:144,1,98.9999969787599,12|0,0:0|0:0,0:0:0:0:
72,132,216029,5,4,3:2:0:0:
256,192,216113,12,0,222696,0:0:0:0:
