osu file format v14

[General]
AudioFilename: audio.mp3
AudioLeadIn: 0
PreviewTime: 109363
Countdown: 0
SampleSet: Soft
StackLeniency: 0.5
Mode: 0
LetterboxInBreaks: 0
WidescreenStoryboard: 1

[Editor]
Bookmarks: 88026,114693,122693,173360,184026,194693
DistanceSpacing: 0.8
BeatDivisor: 1
GridSize: 4
TimelineZoom: 1.8

[Metadata]
Title:Fly Away!
TitleUnicode:Fly Away!
Artist:P*Light feat. Nanahira
ArtistUnicode:P*Light feat. ななひら
Creator:Sylphi
Version:Expert
Source:
Tags:Confetto Colory Starry P_Light Female Vocal Electronic Japanese J-Pop JPop Underflow Elfin Endroll Starberr No Dap No_Dap Shioi Moeka Momoka Ozato Fumika Ozato_Fumika scanter Anais
BeatmapID:4009820
BeatmapSetID:442178

[Difficulty]
HPDrainRate:6
CircleSize:4
OverallDifficulty:8
ApproachRate:9.4
SliderMultiplier:1.85
SliderTickRate:1

[Events]
//Background and Video events
0,0,"1440259501005.png",0,0
//Break Periods
2,88229,97363
//Storyboard Layer 0 (Background)
//Storyboard Layer 1 (Fail)
//Storyboard Layer 2 (Pass)
//Storyboard Layer 3 (Foreground)
//Storyboard Layer 4 (Overlay)
//Storyboard Sound Samples

[TimingPoints]
30,333.333333333333,4,2,7,70,1,0
2696,-125,4,2,7,55,0,0
13363,-100,4,2,7,65,0,1
23696,-83.3333333333333,4,2,7,70,0,1
24029,-100,4,2,7,65,0,0
34696,-100,4,1,7,60,0,0
37363,-100,4,1,7,62,0,0
40029,-100,4,1,7,64,0,0
41363,-100,4,1,7,66,0,0
42696,-100,4,1,7,68,0,0
43363,-100,4,1,7,70,0,0
44029,-133.333333333333,4,2,7,40,0,0
44363,-111.111111111111,4,2,7,40,0,0
44696,-142.857142857143,4,2,7,40,0,0
45029,-66.6666666666667,4,2,7,70,0,0
45363,-100,4,2,11,70,0,0
49696,-86.9565217391304,4,2,11,70,0,0
50029,-100,4,2,11,70,0,0
50363,-71.4285714285714,4,2,11,70,0,0
50696,-100,4,2,7,70,0,0
55696,-66.6666666666667,4,2,7,70,0,0
56029,-100,4,2,7,65,0,0
61029,-76.9230769230769,4,2,7,65,0,0
61363,-142.857142857143,4,2,7,60,0,0
62029,-86.9565217391304,4,2,7,65,0,0
62696,-142.857142857143,4,2,7,60,0,0
63363,-83.3333333333333,4,2,7,67,0,0
64029,-142.857142857143,4,2,7,60,0,0
64696,-100,4,2,7,70,0,0
65363,-90.9090909090909,4,2,7,70,0,0
65696,-105.263157894737,4,2,7,70,0,0
66029,-125,4,2,7,70,0,0
66363,-71.4285714285714,4,2,7,70,0,0
66696,-100,4,2,11,65,0,0
77029,-76.9230769230769,4,2,11,70,0,0
77363,-100,4,1,7,60,0,0
80029,-100,4,1,7,61,0,0
82696,-100,4,1,7,63,0,0
84029,-100,4,1,7,65,0,0
85363,-100,4,1,7,66,0,0
86029,-100,4,1,7,68,0,0
86696,-100,4,1,7,70,0,0
87696,-83.3333333333333,4,2,7,70,0,0
88029,-100,4,2,11,55,0,0
98696,-125,4,2,7,55,0,0
99029,-125,4,2,7,55,0,0
108029,-200,4,2,7,60,0,0
109029,-86.9565217391304,4,2,7,70,0,0
109363,-100,4,2,7,70,0,1
130363,-76.9230769230769,4,2,7,70,0,1
130696,-100,4,2,7,65,0,0
141363,-100,4,1,7,70,0,0
150696,-90.9090909090909,4,2,7,70,0,0
151029,-105.263157894737,4,2,7,65,0,0
151363,-125,4,2,7,60,0,0
151696,-71.4285714285714,4,2,7,70,0,0
152029,-100,4,2,11,65,0,0
161696,-86.9565217391304,4,2,11,65,0,0
162029,-100,4,2,11,65,0,0
162363,-71.4285714285714,4,2,11,65,0,0
162696,-100,4,2,11,65,0,0
170363,-100,4,2,11,65,0,0
173363,-100,4,2,11,70,0,1
183696,-76.9230769230769,4,2,11,70,0,1
184029,-100,4,2,11,70,0,1
194363,-83.3333333333333,4,2,11,70,0,1
194696,-100,4,2,11,70,0,0
205029,-76.9230769230769,4,2,11,70,0,0
205363,-100,4,1,7,70,0,0
215696,-83.3333333333333,4,2,7,70,0,0
216029,-100,4,2,7,70,0,0
217363,-100,4,2,7,60,0,0
218696,-100,4,2,7,50,0,0
220029,-100,4,2,7,40,0,0
221363,-100,4,2,7,30,0,0
221696,-100,4,2,7,27,0,0
222029,-100,4,2,7,25,0,0
222363,-100,4,2,7,22,0,0
222696,-100,4,2,7,20,0,0

[Colours]
Combo1 : 163,215,200
Combo2 : 242,202,155
Combo3 : 242,170,181
Combo4 : 242,222,130

[HitObjects]
256,192,1363,12,12,2363,0:0:0:0:
124,100,2696,6,0,L|46:109,1,74,4|0,3:2|0:0,0:0:0:0:
208,148,3029,2,0,L|308:164,1,74,2|0,0:0|0:0,0:0:0:0:
176,40,3363,2,0,L|152:212,1,148,0|0,0:0|0:0,0:0:0:0:
184,280,3863,6,0,P|276:284|312:228,1,148,2|0,0:0|0:0,0:0:0:0:
348,168,4363,1,2,0:0:0:0:
384,276,4529,2,0,L|392:360,1,74,0|0,0:0|0:0,0:0:0:0:
432,200,4863,2,0,P|448:120|480:48,1,148,2|2,0:0|0:0,0:0:0:0:
348,104,5363,6,0,L|272:112,1,74,2|0,0:0|0:0,0:0:0:0:
304,24,5696,1,2,0:0:0:0:
324,184,5863,2,0,L|308:344,1,148,0|2,0:0|0:0,0:0:0:0:
404,288,6363,1,0,0:0:0:0:
232,256,6529,6,0,L|156:268,1,74,2|0,0:0|0:0,0:0:0:0:
12,208,6863,2,0,L|96:220,1,74,2|0,0:0|0:0,0:0:0:0:
124,328,7196,2,0,L|132:152,1,148,2|0,0:0|0:0,0:0:0:0:
136,92,7696,1,2,0:0:0:0:
256,240,8029,6,0,P|312:260|396:200,1,148,2|2,0:0|0:0,0:0:0:0:
312,172,8529,1,0,0:0:0:0:
328,304,8696,2,0,L|336:380,2,74,0|2|0,0:0|0:0|0:0,0:0:0:0:
312,172,9196,1,2,0:0:0:0:
208,76,9363,6,0,L|296:88,1,74,2|0,0:0|0:0,0:0:0:0:
424,32,9696,2,0,L|332:44,2,74,2|0|0,0:0|0:0|0:0,0:0:0:0:
392,124,10196,2,0,P|388:204|416:276,1,148,2|2,0:0|0:0,0:0:0:0:
480,180,10696,6,0,L|324:208,1,148,2|2,0:0|0:0,0:0:0:0:
300,304,11196,1,0,0:0:0:0:
300,304,11363,2,0,P|296:228|268:148,1,148,0|0,0:0|0:0,0:0:0:0:
208,80,11863,1,2,0:0:0:0:
208,80,12029,6,0,L|128:88,2,74,2|0|2,0:0|0:0|0:0,0:0:0:0:
292,36,12529,2,0,P|364:24|432:68,2,148,0|2|2,0:0|0:0|0:0,0:0:0:0:
240,148,13363,6,0,L|248:252,1,92.5,2|0,3:2|0:0,0:0:0:0:
352,244,13696,2,0,L|328:344,1,92.5,10|0,0:2|0:0,0:0:0:0:
112,332,14029,2,0,P|184:304|216:304,1,92.5,0|2,0:0|3:2,0:0:0:0:
260,372,14363,1,8,0:0:0:0:
136,224,14529,6,0,B|148:192|140:152|140:152|148:116|148:116|132:80|144:24,1,185,2|0,0:2|0:0,0:0:0:0:
60,184,15029,1,10,0:2:0:0:
228,132,15196,2,0,L|328:120,1,92.5,0|0,3:0|0:0,0:0:0:0:
236,40,15529,1,2,3:2:0:0:
300,212,15696,1,8,0:0:0:0:
384,56,15863,1,2,0:2:0:0:
404,224,16029,6,0,L|392:324,1,92.5,2|0,3:2|0:0,0:0:0:0:
288,152,16363,2,0,L|304:252,1,92.5,10|0,0:2|0:0,0:0:0:0:
252,328,16696,1,0,0:0:0:0:
396,200,16863,1,2,3:2:0:0:
200,168,17029,1,8,0:0:0:0:
376,96,17196,6,0,L|468:104,1,92.5,2|0,3:2|0:0,0:0:0:0:
288,60,17529,2,0,L|192:72,1,92.5,2|8,3:2|0:0,0:0:0:0:
344,8,17863,6,0,L|328:200,1,185,2|0,3:2|3:0,0:0:0:0:
316,284,18363,1,10,0:2:0:0:
316,284,18696,6,0,P|248:316|176:240,1,185,2|10,3:2|0:2,0:0:0:0:
132,156,19196,1,0,0:0:0:0:
248,108,19363,2,0,L|344:116,2,92.5,0|2|8,0:0|3:2|0:0,0:0:0:0:
84,92,19863,1,2,0:2:0:0:
80,208,20029,6,0,L|88:304,1,92.5,2|0,3:2|0:0,0:0:0:0:
36,380,20363,1,10,0:2:0:0:
180,272,20529,2,0,L|284:284,1,92.5,0|0,3:0|0:0,0:0:0:0:
403,250,20863,6,0,L|500:228,2,92.5,2|8|2,3:2|0:0|0:2,0:0:0:0:
271,282,21363,1,2,3:2:0:0:
351,166,21529,6,0,L|407:66,2,92.5,0|10|0,0:0|0:2|0:0,0:0:0:0:
271,282,22029,1,0,0:0:0:0:
211,114,22196,5,2,3:2:0:0:
271,282,22363,1,8,0:0:0:0:
351,166,22529,1,2,3:2:0:0:
144,240,22696,5,4,3:2:0:0:
392,288,22863,1,4,3:2:0:0:
308,52,23029,1,4,3:2:0:0:
280,60,23696,2,0,L|288:176,1,110.999996612549,8|0,0:0|0:0,0:0:0:0:
304,328,24029,6,0,P|312:272|340:228,1,92.5,4|0,1:2|0:0,0:0:0:0:
220,272,24363,2,0,L|128:284,1,92.5,2|0,1:2|0:0,0:0:0:0:
28,336,24696,1,2,1:2:0:0:
68,216,24863,1,2,0:2:0:0:
112,356,25029,1,2,1:2:0:0:
0,264,25196,1,2,0:2:0:0:
128,283,25363,5,2,1:2:0:0:
120,156,25529,2,0,L|112:64,2,92.5,2|0|2,0:2|1:0|0:2,0:0:0:0:
128,283,26029,1,0,1:0:0:0:
210,193,26196,2,0,L|234:101,2,92.5,0|0|0,0:0|1:0|0:0,0:0:0:0:
176,336,26696,6,0,L|68:348,1,92.5,0|0,1:0|0:0,0:0:0:0:
256,284,27029,2,0,L|352:296,1,92.5,2|0,1:2|0:0,0:0:0:0:
300,208,27363,1,2,1:2:0:0:
312,368,27529,1,2,0:2:0:0:
408,212,27696,1,2,1:2:0:0:
400,348,27863,1,2,0:2:0:0:
488,240,28029,5,2,1:2:0:0:
336,172,28196,2,0,L|244:180,2,92.5,2|0|2,0:2|1:0|0:2,0:0:0:0:
464,160,28696,1,0,1:0:0:0:
400,272,28863,2,0,L|384:368,2,92.5,0|0|0,0:0|1:0|0:0,0:0:0:0:
440,140,29363,6,0,L|424:40,1,92.5,0|0,1:0|0:0,0:0:0:0:
328,228,29696,2,0,L|335:135,1,92.5,2|0,1:2|0:0,0:0:0:0:
344,40,30029,1,2,1:2:0:0:
428,160,30196,1,2,0:2:0:0:
272,92,30363,1,2,1:2:0:0:
440,32,30529,1,2,0:2:0:0:
272,92,30696,5,2,1:2:0:0:
172,112,30863,2,0,L|56:140,2,92.5,2|0|2,0:2|1:0|0:2,0:0:0:0:
216,12,31363,2,0,L|208:200,1,185,0|0,1:0|1:0,0:0:0:0:
200,288,31863,1,0,0:0:0:0:
200,288,32029,5,0,1:0:0:0:
308,260,32196,2,0,L|408:236,2,92.5,2|2|2,0:2|1:2|0:2,0:0:0:0:
200,288,32696,1,2,1:2:0:0:
280,176,32863,1,2,0:2:0:0:
312,352,33029,1,2,1:2:0:0:
176,264,33196,6,0,P|88:256|8:328,1,185,2|2,0:2|0:2,0:0:0:0:
116,356,33696,1,0,1:0:0:0:
72,176,33863,1,2,0:2:0:0:
92,364,34029,2,0,L|96:160,1,185,0|0,1:0|1:0,0:0:0:0:
276,88,34696,6,0,P|328:96|388:76,1,92.5,4|2,3:2|0:2,0:0:0:0:
320,8,35029,1,0,0:0:0:0:
328,176,35196,2,0,L|332:276,1,92.5,2|0,0:2|0:0,0:0:0:0:
432,204,35529,2,0,P|436:160|456:104,2,92.5,2|2|2,0:2|0:2|0:2,0:0:0:0:
396,336,36029,5,0,0:0:0:0:
248,320,36196,2,0,L|140:304,2,92.5,2|2|2,0:2|0:2|0:2,0:0:0:0:
396,336,36696,1,2,0:2:0:0:
296,240,36863,1,2,0:2:0:0:
320,376,37029,1,2,0:2:0:0:
384,252,37196,1,2,0:2:0:0:
216,200,37363,6,0,L|112:224,1,92.5,2|2,0:2|0:2,0:0:0:0:
32,192,37696,1,0,0:0:0:0:
148,48,37863,2,0,L|136:152,1,92.5,2|0,0:2|0:0,0:0:0:0:
104,244,38196,2,0,L|120:352,2,92.5,2|2|2,0:2|0:2|0:2,0:0:0:0:
44,116,38696,5,0,0:0:0:0:
24,268,38863,2,0,L|12:368,2,92.5,2|2|2,0:2|0:2|0:2,0:0:0:0:
44,116,39363,1,2,0:2:0:0:
188,184,39529,1,2,0:2:0:0:
128,44,39696,1,2,0:2:0:0:
88,208,39863,1,2,0:2:0:0:
224,92,40029,5,2,3:2:0:0:
248,84,40113,1,0,0:0:0:0:
272,76,40196,1,2,0:2:0:0:
296,68,40279,1,0,0:0:0:0:
320,60,40363,1,0,0:0:0:0:
344,52,40446,1,0,0:0:0:0:
368,44,40529,6,0,L|420:64,9,46.25,2|0|0|0|2|0|2|0|2|0,0:2|0:0|0:0|0:0|0:2|0:0|0:2|0:0|0:2|0:0,0:0:0:0:
368,132,41363,5,2,3:2:0:0:
356,168,41446,1,0,0:0:0:0:
368,204,41529,1,2,0:2:0:0:
396,232,41613,1,0,0:0:0:0:
424,256,41696,1,0,0:0:0:0:
432,292,41779,1,0,0:0:0:0:
420,328,41863,1,2,0:2:0:0:
396,356,41946,1,0,0:0:0:0:
360,368,42029,6,0,L|292:348,1,46.25,0|0,0:0|0:0,0:0:0:0:
264,208,42196,2,0,L|270:271,1,46.25,2|0,0:2|0:0,0:0:0:0:
184,332,42363,2,0,L|132:324,1,46.25,2|0,0:2|0:0,0:0:0:0:
356,168,42529,2,0,L|401:175,1,46.25,2|0,0:2|0:0,0:0:0:0:
284,80,42696,5,2,3:2:0:0:
240,64,42779,1,0,0:0:0:0:
192,60,42863,1,2,0:2:0:0:
148,72,42946,1,0,0:0:0:0:
112,104,43029,1,0,0:0:0:0:
104,120,43113,1,2,0:2:0:0:
96,136,43196,1,2,0:2:0:0:
88,152,43279,1,0,0:0:0:0:
36,224,43363,5,2,3:2:0:0:
68,256,43446,1,0,0:0:0:0:
80,300,43529,1,2,0:2:0:0:
68,344,43613,1,0,0:0:0:0:
44,384,43696,1,2,0:2:0:0:
60,380,43779,1,0,0:0:0:0:
76,376,43863,1,2,0:2:0:0:
92,372,43946,1,0,0:0:0:0:
160,340,44029,6,0,L|235:352,1,69.3750026464463,2|2,0:0|0:0,0:0:0:0:
244,244,44363,2,0,L|225:134,1,83.2499974594117,2|2,0:0|0:0,0:0:0:0:
352,280,44696,2,0,L|337:349,1,64.7499980239869,2|2,0:0|0:0,0:0:0:0:
316,140,45029,2,0,P|336:64|356:148,1,208.125007939339,8|0,0:1|0:0,0:0:0:0:
348,204,45363,5,4,3:2:0:0:
188,308,45529,2,0,L|296:295,1,92.5,2|0,0:2|3:0,0:0:0:0:
240,180,45863,2,0,P|220:140|212:80,1,92.5,2|0,0:2|3:0,0:0:0:0:
244,8,46196,1,2,0:2:0:0:
116,116,46363,1,2,3:2:0:0:
296,112,46529,1,2,0:2:0:0:
148,24,46696,5,0,3:0:0:0:
160,176,46863,2,0,L|168:280,2,92.5,2|2|2,0:2|3:2|0:2,0:0:0:0:
148,24,47363,1,2,3:2:0:0:
72,160,47529,1,2,0:2:0:0:
24,36,47696,1,2,3:2:0:0:
40,236,47863,1,2,0:2:0:0:
192,100,48029,5,2,3:2:0:0:
84,260,48196,2,0,L|92:164,1,92.5,2|0,0:2|3:0,0:0:0:0:
180,72,48529,2,0,P|252:84|284:80,1,92.5,2|0,0:2|3:0,0:0:0:0:
384,36,48863,1,2,0:2:0:0:
304,192,49029,1,2,3:2:0:0:
384,36,49196,1,2,0:2:0:0:
424,168,49363,6,0,P|436:224|448:256,1,92.5,0|2,3:0|0:2,0:0:0:0:
340,344,49696,2,0,L|352:220,1,106.375002028942,2|2,3:2|0:2,0:0:0:0:
364,108,50029,2,0,P|416:88|460:92,1,92.5,2|2,3:2|0:2,0:0:0:0:
284,148,50363,6,0,P|208:136|156:92,1,129.499996047974,8|0,0:0|0:0,0:0:0:0:
80,36,50696,21,4,3:2:0:0:
44,256,51029,5,2,3:2:0:0:
44,256,51113,1,2,0:2:0:0:
44,256,51196,1,2,0:2:0:0:
136,296,51363,5,2,3:2:0:0:
136,296,51446,1,2,0:2:0:0:
136,296,51529,1,2,0:2:0:0:
228,248,51696,5,2,3:2:0:0:
228,248,51779,1,2,0:2:0:0:
228,248,51863,1,2,0:2:0:0:
140,168,52029,5,2,3:2:0:0:
220,340,52196,1,2,0:2:0:0:
312,188,52363,2,0,L|332:136,2,46.25,2|2|2,3:2|0:2|0:2,0:0:0:0:
136,296,52696,1,2,3:2:0:0:
328,324,52863,1,2,0:2:0:0:
240,144,53029,1,2,3:2:0:0:
256,364,53363,21,0,3:2:0:0:
440,240,53696,5,2,3:2:0:0:
440,240,53779,1,2,0:2:0:0:
440,240,53863,1,2,0:2:0:0:
456,140,54029,5,2,3:2:0:0:
456,140,54113,1,2,0:2:0:0:
456,140,54196,1,2,0:2:0:0:
472,40,54363,5,2,3:2:0:0:
472,40,54446,1,2,0:2:0:0:
472,40,54529,1,2,0:2:0:0:
324,184,54696,5,2,3:2:0:0:
324,184,54863,1,2,0:2:0:0:
256,84,55029,2,0,L|248:20,2,46.25,2|2|2,3:2|0:2|0:2,0:0:0:0:
240,224,55363,2,0,L|228:324,1,92.5,2|2,3:2|0:2,0:0:0:0:
152,376,55696,6,0,L|136:168,1,208.125007939339,8|0,0:0|0:0,0:0:0:0:
68,136,56029,6,0,P|132:136|204:88,1,138.75,4|0,3:2|3:0,0:0:0:0:
224,76,56363,1,2,3:2:0:0:
288,212,56529,1,2,3:2:0:0:
372,132,56696,2,0,L|352:12,1,92.5,2|2,0:2|3:2,0:0:0:0:
352,12,56946,1,2,0:2:0:0:
424,240,57196,2,0,L|440:192,1,46.25,2|2,0:2|0:2,0:0:0:0:
476,100,57363,5,2,3:2:0:0:
484,136,57446,2,0,L|500:228,1,92.5,2|0,3:2|3:0,0:0:0:0:
508,264,57696,1,2,3:2:0:0:
384,348,57863,1,2,3:2:0:0:
260,264,58029,2,0,L|246:161,1,92.5,2|2,0:2|3:2,0:0:0:0:
244,136,58279,1,2,0:2:0:0:
244,136,58363,1,0,3:0:0:0:
336,56,58529,2,0,L|392:68,1,46.25,2|2,0:2|0:2,0:0:0:0:
248,24,58696,6,0,L|96:48,1,138.75,2|0,3:2|3:0,0:0:0:0:
76,52,59029,1,2,3:2:0:0:
136,176,59196,1,2,3:2:0:0:
64,296,59363,2,0,L|48:196,1,92.5,2|2,0:2|3:2,0:0:0:0:
44,168,59613,1,2,0:2:0:0:
180,364,59863,2,0,L|192:308,1,46.25,2|2,0:2|0:2,0:0:0:0:
244,248,60029,6,0,L|224:136,1,92.5,2|0,3:2|0:0,0:0:0:0:
200,116,60279,1,0,3:0:0:0:
184,96,60363,2,0,P|252:100|288:84,1,92.5,2|2,3:2|3:2,0:0:0:0:
468,48,60696,2,0,P|404:48|368:72,1,92.5,2|2,0:2|3:2,0:0:0:0:
352,104,60946,1,2,0:2:0:0:
336,128,61029,6,0,P|348:208|348:312,1,180.374991743088,8|2,0:0|0:2,0:0:0:0:
276,324,61363,6,0,P|312:244|424:300,1,226.624993083954,4|0,0:0|0:0,0:0:0:0:
456,176,62029,6,0,L|464:112,1,53.1875010144711,10|0,0:2|0:0,0:0:0:0:
356,32,62196,2,0,L|368:108,1,53.1875010144711,2|0,0:2|0:0,0:0:0:0:
336,172,62363,2,0,L|272:164,1,53.1875010144711,2|0,0:2|0:0,0:0:0:0:
444,48,62529,2,0,L|516:32,1,53.1875010144711,2|0,0:2|0:0,0:0:0:0:
268,64,62696,6,0,L|156:48,1,97.1249970359803,0|0,3:0|0:0,0:0:0:0:
64,128,63029,2,0,L|160:141,1,97.1249970359803,0|0,3:0|0:0,0:0:0:0:
312,156,63363,5,10,0:2:0:0:
344,148,63446,1,2,0:2:0:0:
376,140,63529,1,2,0:2:0:0:
408,132,63613,1,2,0:2:0:0:
448,96,63696,1,2,0:2:0:0:
444,140,63779,1,2,0:2:0:0:
440,184,63863,1,2,0:2:0:0:
436,228,63946,1,2,0:2:0:0:
432,272,64029,6,0,L|424:376,1,97.1249970359803,0|0,3:0|0:0,0:0:0:0:
316,324,64363,2,0,L|308:212,1,97.1249970359803,0|0,3:0|0:0,0:0:0:0:
300,124,64696,5,10,0:2:0:0:
212,288,64863,1,2,0:2:0:0:
156,100,65029,1,2,0:2:0:0:
92,228,65196,1,10,0:2:0:0:
108,248,65279,1,8,0:0:0:0:
128,272,65363,6,0,L|132:384,1,101.750003105164,8|0,0:0|3:0,0:0:0:0:
192,212,65696,2,0,L|204:100,1,87.8749976534844,8|0,0:0|3:0,0:0:0:0:
244,288,66029,2,0,L|248:372,1,74,8|0,0:0|3:0,0:0:0:0:
312,188,66363,6,0,L|296:56,1,129.499996047974,8|0,0:0|0:0,0:0:0:0:
220,272,66696,6,0,L|332:263,1,92.5,2|2,3:2|0:2,0:0:0:0:
368,312,66946,1,2,0:2:0:0:
388,332,67029,2,0,P|392:280|404:224,1,92.5,2|2,3:2|0:2,0:0:0:0:
416,128,67363,1,0,3:0:0:0:
504,232,67529,1,2,0:2:0:0:
304,172,67696,2,0,L|204:181,1,92.5,2|2,3:2|0:2,0:0:0:0:
96,152,68029,5,2,3:2:0:0:
140,264,68196,2,0,L|128:356,1,92.5,2|0,0:2|3:0,0:0:0:0:
24,184,68529,2,0,P|28:112|120:80,1,138.75,2|0,0:2|0:0,0:0:0:0:
112,48,68863,2,0,P|168:72|212:80,1,92.5,2|0,0:2|3:0,0:0:0:0:
312,44,69196,1,2,0:2:0:0:
280,160,69363,6,0,L|276:268,1,92.5,2|2,3:2|0:2,0:0:0:0:
240,316,69613,1,2,0:2:0:0:
224,340,69696,2,0,P|276:332|324:340,1,92.5,2|2,3:2|0:2,0:0:0:0:
156,304,70029,1,0,3:0:0:0:
356,240,70196,1,2,0:2:0:0:
200,180,70363,2,0,L|92:188,1,92.5,2|2,3:2|0:2,0:0:0:0:
272,108,70696,5,2,3:2:0:0:
288,232,70863,2,0,L|276:336,1,92.5,2|0,0:2|3:0,0:0:0:0:
392,360,71196,2,0,L|380:212,1,138.75,2|0,0:2|0:0,0:0:0:0:
360,192,71529,2,0,P|412:192|464:164,1,92.5,2|0,0:2|3:0,0:0:0:0:
472,48,71863,1,2,0:2:0:0:
468,168,72029,6,0,L|464:272,1,92.5,2|2,3:2|0:2,0:0:0:0:
424,320,72279,1,2,0:2:0:0:
408,344,72363,2,0,P|384:284|364:252,1,92.5,2|2,3:2|0:2,0:0:0:0:
312,160,72696,1,0,3:0:0:0:
248,264,72863,1,2,0:2:0:0:
416,184,73029,2,0,L|524:192,1,92.5,2|2,3:2|0:2,0:0:0:0:
392,84,73363,5,2,3:2:0:0:
316,196,73529,2,0,L|324:300,1,92.5,2|0,0:2|3:0,0:0:0:0:
224,360,73863,2,0,L|232:204,1,138.75,2|0,0:2|0:0,0:0:0:0:
248,188,74196,2,0,P|232:132|224:88,1,92.5,2|0,0:2|3:0,0:0:0:0:
156,12,74529,1,2,0:2:0:0:
96,108,74696,6,0,L|96:208,1,92.5,2|2,3:2|0:2,0:0:0:0:
56,264,74946,1,2,0:2:0:0:
36,284,75029,2,0,P|112:280|140:288,1,92.5,2|2,3:2|0:2,0:0:0:0:
228,352,75363,1,0,3:0:0:0:
196,200,75529,1,2,0:2:0:0:
252,112,75696,2,0,L|364:100,1,92.5,2|2,3:2|0:2,0:0:0:0:
200,32,76029,5,2,3:2:0:0:
204,180,76196,2,0,L|208:284,1,92.5,2|0,0:2|3:0,0:0:0:0:
136,364,76529,2,0,P|212:320|268:340,1,138.75,2|0,0:2|0:0,0:0:0:0:
288,352,76863,1,2,0:2:0:0:
304,232,77029,6,0,L|300:104,1,120.249994495392,8|0,0:0|0:0,0:0:0:0:
396,56,77363,6,0,L|496:72,2,92.5,4|0|0,3:2|0:0|0:0,0:0:0:0:
256,36,77863,1,0,0:0:0:0:
352,136,78029,2,0,L|440:216,2,92.5,2|0|0,0:2|0:0|0:0,0:0:0:0:
256,36,78529,1,0,0:0:0:0:
232,184,78696,6,0,L|212:280,2,92.5,2|0|0,0:2|0:0|0:0,0:0:0:0:
256,36,79196,1,0,0:0:0:0:
312,200,79363,2,0,L|332:300,2,92.5,2|0|0,0:2|0:0|0:0,0:0:0:0:
256,36,79863,1,0,0:0:0:0:
216,164,80029,6,0,L|224:256,1,92.5,2|0,3:2|0:0,0:0:0:0:
84,336,80363,2,0,P|140:316|188:320,1,92.5,2|0,0:2|0:0,0:0:0:0:
336,328,80696,2,0,P|268:340|232:332,1,92.5,2|0,0:2|0:0,0:0:0:0:
120,200,81029,1,0,0:0:0:0:
64,368,81196,1,0,0:0:0:0:
116,220,81363,6,0,L|100:104,1,92.5,2|0,0:2|0:0,0:0:0:0:
256,60,81696,2,0,P|188:72|148:60,1,92.5,2|0,0:2|0:0,0:0:0:0:
4,76,82029,2,0,P|36:52|92:44,1,92.5,2|0,0:2|0:0,0:0:0:0:
216,176,82363,1,0,0:0:0:0:
276,32,82529,1,0,0:0:0:0:
360,144,82696,5,2,3:2:0:0:
380,176,82779,1,0,0:0:0:0:
388,212,82863,1,0,0:0:0:0:
384,248,82946,1,0,0:0:0:0:
364,280,83029,1,0,0:0:0:0:
352,316,83113,1,0,0:0:0:0:
360,352,83196,1,0,0:0:0:0:
388,376,83279,1,0,0:0:0:0:
424,380,83363,6,0,L|468:340,5,46.25,2|0|0|0|0|0,0:2|0:0|0:0|0:0|0:0|0:0,0:0:0:0:
280,344,83863,2,0,L|216:336,1,46.25,2|0,0:2|0:0,0:0:0:0:
176,252,84029,5,2,3:2:0:0:
144,216,84113,1,0,0:0:0:0:
136,172,84196,1,0,0:0:0:0:
148,128,84279,1,0,0:0:0:0:
180,96,84363,1,0,0:0:0:0:
224,92,84446,1,0,0:0:0:0:
268,108,84529,6,0,L|284:164,5,46.25,2|0|0|0|0|0,0:2|0:0|0:0|0:0|0:0|0:0,0:0:0:0:
328,284,85029,2,0,L|336:224,1,46.25,2|0,0:2|0:0,0:0:0:0:
380,88,85196,2,0,L|396:148,1,46.25,0|0,0:0|0:0,0:0:0:0:
456,224,85363,5,2,3:2:0:0:
480,264,85446,1,0,0:0:0:0:
480,312,85529,1,0,0:0:0:0:
456,352,85613,1,0,0:0:0:0:
424,368,85696,1,2,0:2:0:0:
400,368,85779,1,0,0:0:0:0:
376,364,85863,1,0,0:0:0:0:
356,356,85946,1,0,0:0:0:0:
296,308,86029,5,2,3:2:0:0:
292,260,86113,1,0,0:0:0:0:
288,216,86196,1,0,0:0:0:0:
284,172,86279,1,0,0:0:0:0:
280,124,86363,1,2,0:2:0:0:
296,108,86446,1,0,0:0:0:0:
312,92,86529,1,0,0:0:0:0:
328,76,86613,1,0,0:0:0:0:
384,24,86696,6,0,L|416:12,7,23.125,2|0|0|0|0|0|0|0,3:2|0:0|0:0|0:0|0:0|0:0|0:0|0:0,0:0:0:0:
404,64,87029,2,0,L|444:72,7,23.125,0|0|0|0|2|0|0|0,0:0|0:0|0:0|0:0|0:2|0:0|0:0|0:0,0:0:0:0:
400,104,87363,2,0,L|432:124,7,23.125,0|0|0|0|0|0|0|0,0:0|0:0|0:0|0:0|0:0|0:0|0:0|0:0,0:0:0:0:
376,136,87696,6,0,L|388:256,1,110.999996612549,12|0,0:0|0:0,0:0:0:0:
312,368,88029,5,4,3:2:0:0:
254,192,98696,5,4,3:2:0:0:
254,192,98863,1,0,0:0:0:0:
304,284,99029,2,0,L|404:266,1,74,2|0,0:2|0:0,0:0:0:0:
184,256,99363,2,0,L|100:240,1,74,2|0,0:2|0:0,0:0:0:0:
268,168,99696,2,0,L|273:89,1,74,2|0,0:2|0:0,0:0:0:0:
236,264,100029,6,0,L|244:348,2,74,2|0|0,0:2|0:0|0:0,0:0:0:0:
200,144,100529,2,0,P|256:100|332:132,1,148,2|0,0:2|0:0,0:0:0:0:
380,220,101029,2,0,L|368:316,1,74,2|0,0:2|0:0,0:0:0:0:
432,128,101363,6,0,L|420:40,2,74,2|0|0,0:2|0:0|0:0,0:0:0:0:
460,232,101863,1,0,0:0:0:0:
356,192,102029,2,0,P|304:192|268:208,1,74,0|0,0:0|0:0,0:0:0:0:
312,336,102363,2,0,L|328:256,1,74,0|2,0:0|0:2,0:0:0:0:
312,116,102696,6,0,L|300:24,2,74,0|0|0,0:0|0:0|0:0,0:0:0:0:
264,212,103196,1,0,0:0:0:0:
320,312,103363,2,0,P|356:300|400:296,1,74,0|0,0:0|0:0,0:0:0:0:
216,300,103696,2,0,P|164:288|132:276,1,74,0|0,0:0|0:0,0:0:0:0:
40,236,104029,5,2,0:2:0:0:
40,236,104196,1,0,0:0:0:0:
92,148,104363,2,0,P|88:108|88:64,1,74,2|0,0:2|0:0,0:0:0:0:
132,260,104696,2,0,P|116:308|112:348,1,74,2|0,0:2|0:0,0:0:0:0:
184,176,105029,2,0,P|232:160|260:148,1,74,2|0,0:2|0:0,0:0:0:0:
368,80,105363,6,0,L|456:92,2,74,2|0|0,0:2|0:0|0:0,0:0:0:0:
176,52,105863,2,0,P|256:72|308:28,1,148,2|0,0:2|0:0,0:0:0:0:
304,148,106363,2,0,L|316:236,1,74,2|0,0:2|0:0,0:0:0:0:
392,304,106696,6,0,L|408:216,2,74,2|0|0,0:2|0:0|0:0,0:0:0:0:
320,376,107196,1,0,0:0:0:0:
184,328,107363,2,0,P|220:312|268:312,1,74,0|0,0:0|0:0,0:0:0:0:
408,316,107696,2,0,P|364:304|328:288,1,74,0|0,0:0|0:0,0:0:0:0:
248,208,108029,6,0,P|208:128|332:124,1,254.375,4|0,3:2|0:0,0:0:0:0:
392,76,109029,6,0,P|380:140|384:208,1,106.375002028942,8|0,0:0|0:0,0:0:0:0:
272,344,109363,6,0,L|260:240,1,92.5,4|0,3:2|0:0,0:0:0:0:
168,200,109696,2,0,P|204:160|264:148,1,92.5,10|0,0:2|0:0,0:0:0:0:
400,128,110029,2,0,P|344:124|296:92,1,92.5,2|0,0:2|3:0,0:0:0:0:
380,28,110363,1,10,0:2:0:0:
344,200,110529,6,0,B|360:248|336:292|336:292|360:340|360:380,1,185,2|2,0:2|0:2,0:0:0:0:
448,280,111029,1,10,0:2:0:0:
268,236,111196,2,0,L|172:256,1,92.5,2|0,3:2|0:0,0:0:0:0:
212,148,111529,1,2,3:2:0:0:
192,340,111696,1,8,0:0:0:0:
96,176,111863,1,2,0:2:0:0:
264,92,112029,6,0,L|368:108,2,92.5,2|2|10,3:2|0:2|0:2,0:0:0:0:
40,72,112529,2,0,P|100:20|192:80,1,185,2|2,0:2|3:2,0:0:0:0:
212,248,113029,1,10,0:2:0:0:
128,180,113196,6,0,L|112:64,1,92.5,2|0,3:2|0:0,0:0:0:0:
80,268,113529,2,0,L|68:368,1,92.5,2|8,3:2|0:0,0:0:0:0:
196,260,113863,2,0,L|392:228,1,185,2|0,3:2|3:0,0:0:0:0:
484,192,114363,1,10,0:2:0:0:
244,96,114696,6,0,P|291:47|384:104,1,185,2|10,3:2|0:2,0:0:0:0:
424,200,115196,1,2,0:2:0:0:
464,64,115363,1,2,0:2:0:0:
312,116,115529,1,2,3:2:0:0:
496,164,115696,1,10,0:2:0:0:
372,40,115863,1,2,0:2:0:0:
340,228,116029,6,0,L|360:328,2,92.5,2|0|10,3:2|0:0|0:2,0:0:0:0:
381,94,116529,1,2,3:2:0:0:
381,94,116863,1,0,3:0:0:0:
320,220,117029,2,0,L|340:320,1,92.5,10|0,0:2|0:0,0:0:0:0:
236,152,117363,6,0,P|276:116|404:160,1,185,2|8,3:2|0:0,0:0:0:0:
448,248,117863,1,2,0:2:0:0:
464,108,118029,2,0,L|472:8,2,92.5,2|0|8,0:2|3:0|0:0,0:0:0:0:
372,288,118529,1,2,3:2:0:0:
488,180,118696,5,2,0:2:0:0:
320,144,118863,2,0,L|228:160,1,92.5,2|8,3:2|0:0,0:0:0:0:
364,28,119196,2,0,L|356:216,1,185,2|2,3:2|3:2,0:0:0:0:
316,340,119696,1,8,0:0:0:0:
60,308,120029,6,0,L|173:272,1,92.5,2|0,3:2|0:0,0:0:0:0:
12,184,120363,2,0,L|108:204,1,92.5,10|0,0:2|0:0,0:0:0:0:
156,60,120696,2,0,P|164:120|188:168,1,92.5,2|0,0:2|3:0,0:0:0:0:
224,260,121029,1,10,0:2:0:0:
76,112,121196,6,0,P|188:100|260:64,1,185,2|2,0:2|0:2,0:0:0:0:
352,24,121696,1,10,0:2:0:0:
312,160,121863,2,0,L|324:256,1,92.5,2|0,3:2|0:0,0:0:0:0:
412,168,122196,1,2,3:2:0:0:
212,228,122363,1,8,0:0:0:0:
420,292,122529,1,2,0:2:0:0:
432,148,122696,6,0,L|412:48,2,92.5,2|0|10,3:2|0:0|0:2,0:0:0:0:
340,288,123196,2,0,P|376:228|496:260,1,185,2|2,0:2|3:2,0:0:0:0:
336,148,123696,1,10,0:2:0:0:
264,265,123863,6,0,P|272:320|300:360,1,92.5,2|0,3:2|0:0,0:0:0:0:
240,156,124196,2,0,P|240:104|224:44,1,92.5,2|8,3:2|0:0,0:0:0:0:
184,240,124529,2,0,P|244:188|344:240,1,185,2|0,3:2|3:0,0:0:0:0:
392,316,125029,1,10,0:2:0:0:
468,68,125363,6,0,L|272:88,1,185,2|10,3:2|0:2,0:0:0:0:
144,72,125863,1,2,0:2:0:0:
244,220,126029,1,2,0:2:0:0:
240,24,126196,1,2,3:2:0:0:
136,180,126363,1,10,0:2:0:0:
344,164,126529,1,2,0:2:0:0:
144,164,126696,6,0,P|88:172|40:160,1,92.5,2|0,3:2|0:0,0:0:0:0:
100,64,127029,1,10,0:2:0:0:
88,260,127196,2,0,L|79:354,1,92.5,2|0,3:2|0:0,0:0:0:0:
212,204,127529,6,0,L|196:96,2,92.5,2|8|2,3:2|0:0|0:2,0:0:0:0:
228,316,128029,5,0,3:0:0:0:
312,168,128196,2,0,L|328:56,2,92.5,0|8|0,0:0|0:0|0:0,0:0:0:0:
240,332,128696,1,0,0:0:0:0:
380,284,128863,5,0,3:0:0:0:
212,204,129029,1,8,0:0:0:0:
280,376,129196,1,0,3:0:0:0:
340,164,129363,5,4,3:2:0:0:
132,304,129529,1,4,3:2:0:0:
372,368,129696,1,4,3:2:0:0:
388,372,130363,2,0,L|368:240,1,120.249994495392,8|0,0:0|0:0,0:0:0:0:
236,120,130696,6,0,P|300:128|336:120,1,92.5,4|0,1:2|0:0,0:0:0:0:
484,64,131029,2,0,P|436:72|392:96,1,92.5,2|0,1:2|0:0,0:0:0:0:
320,208,131363,1,2,1:2:0:0:
288,60,131529,1,2,0:2:0:0:
200,196,131696,1,2,1:2:0:0:
326,122,131863,1,2,0:2:0:0:
184,84,132029,5,2,1:2:0:0:
204,208,132196,2,0,L|196:304,2,92.5,2|0|2,0:2|1:0|0:2,0:0:0:0:
184,84,132696,1,2,1:2:0:0:
104,184,132863,2,0,L|114:278,2,92.5,2|2|2,0:2|1:2|0:2,0:0:0:0:
16,96,133363,6,0,P|72:80|108:52,1,92.5,0|0,1:0|0:0,0:0:0:0:
264,120,133696,2,0,L|136:112,1,92.5,2|0,1:2|0:0,0:0:0:0:
36,16,134029,1,2,1:2:0:0:
88,164,134196,1,2,0:2:0:0:
176,40,134363,1,2,1:2:0:0:
208,188,134529,1,2,0:2:0:0:
312,52,134696,5,2,1:2:0:0:
348,176,134863,2,0,L|344:288,2,92.5,2|0|2,0:2|1:0|0:2,0:0:0:0:
420,56,135363,1,2,1:2:0:0:
280,124,135529,2,0,L|168:140,2,92.5,2|2|2,0:2|1:2|0:2,0:0:0:0:
432,40,136029,6,0,P|440:112|452:152,1,92.5,0|0,1:0|0:0,0:0:0:0:
412,288,136363,2,0,L|400:188,1,92.5,2|0,1:2|0:0,0:0:0:0:
332,104,136696,1,2,1:2:0:0:
296,248,136863,1,2,0:2:0:0:
236,112,137029,1,2,1:2:0:0:
400,176,137196,1,2,0:2:0:0:
236,112,137363,5,2,1:2:0:0:
136,100,137529,2,0,L|20:84,2,92.5,2|0|2,0:2|1:0|0:2,0:0:0:0:
192,8,138029,2,0,P|177:98|198:188,1,185,2|0,1:2|1:0,0:0:0:0:
224,280,138529,1,2,0:2:0:0:
224,280,138696,5,2,1:2:0:0:
132,292,138863,2,0,L|8:308,2,92.5,2|2|2,0:2|1:2|0:2,0:0:0:0:
224,280,139363,1,2,1:2:0:0:
100,212,139529,1,2,0:2:0:0:
156,372,139696,1,2,1:2:0:0:
240,264,139863,6,0,P|300:236|396:312,1,185,2|2,0:2|0:2,0:0:0:0:
300,360,140363,1,0,1:0:0:0:
328,156,140529,1,2,0:2:0:0:
324,360,140696,2,0,L|308:156,1,185,0|0,1:0|1:0,0:0:0:0:
468,20,141363,5,4,3:2:0:0:
468,20,141529,1,0,0:0:0:0:
432,124,141696,2,0,L|444:228,1,92.5,2|0,0:2|0:0,0:0:0:0:
352,344,142029,2,0,L|360:236,2,92.5,2|2|2,0:2|0:2|0:2,0:0:0:0:
288,196,142529,1,2,0:2:0:0:
408,108,142696,6,0,L|512:128,2,92.5,2|2|0,0:2|0:2|0:0,0:0:0:0:
252,80,143196,1,2,0:2:0:0:
272,212,143363,2,0,L|288:316,1,92.5,0|0,0:0|0:0,0:0:0:0:
288,104,143696,2,0,L|273:12,1,92.5,0|0,0:0|0:0,0:0:0:0:
160,136,144029,5,0,3:0:0:0:
160,136,144196,1,0,0:0:0:0:
212,236,144363,2,0,L|204:332,1,92.5,2|0,0:2|0:0,0:0:0:0:
320,244,144696,2,0,L|432:220,2,92.5,2|2|2,0:2|0:2|0:2,0:0:0:0:
132,272,145196,1,2,0:2:0:0:
152,152,145363,6,0,L|128:48,2,92.5,2|2|0,0:2|0:2|0:0,0:0:0:0:
120,296,145863,1,2,0:2:0:0:
208,232,146029,2,0,L|327:207,1,92.5,0|0,0:0|0:0,0:0:0:0:
96,216,146363,2,0,L|5:235,1,92.5,0|0,0:0|0:0,0:0:0:0:
132,120,146696,5,0,3:0:0:0:
168,112,146779,1,0,0:0:0:0:
200,132,146863,1,0,0:0:0:0:
212,168,146946,1,0,0:0:0:0:
240,192,147029,1,0,0:0:0:0:
276,188,147113,1,0,0:0:0:0:
304,164,147196,6,0,L|312:104,9,46.25,2|0|0|0|2|0|2|0|2|0,0:2|0:0|0:0|0:0|0:2|0:0|0:2|0:0|0:2|0:0,0:0:0:0:
308,24,148029,5,2,3:2:0:0:
352,16,148113,1,0,0:0:0:0:
396,32,148196,1,2,0:2:0:0:
420,72,148279,1,0,0:0:0:0:
420,120,148363,1,0,0:0:0:0:
396,160,148446,1,0,0:0:0:0:
376,200,148529,1,2,0:2:0:0:
376,248,148613,1,0,0:0:0:0:
388,292,148696,6,0,L|404:336,1,46.25,0|0,0:0|0:0,0:0:0:0:
468,232,148863,2,0,L|476:164,1,46.25,0|0,0:0|0:0,0:0:0:0:
312,352,149029,2,0,L|258:351,1,46.25,0|0,0:0|0:0,0:0:0:0:
236,176,149196,2,0,L|230:221,1,46.25,0|0,0:0|0:0,0:0:0:0:
160,324,149363,5,0,3:0:0:0:
128,340,149446,1,0,0:0:0:0:
92,336,149529,1,2,0:2:0:0:
60,316,149613,1,0,0:0:0:0:
40,284,149696,1,2,0:2:0:0:
36,264,149779,1,0,0:0:0:0:
32,244,149863,1,2,0:2:0:0:
28,228,149946,1,0,0:0:0:0:
24,156,150029,5,2,3:2:0:0:
68,168,150113,1,0,0:0:0:0:
112,156,150196,1,2,0:2:0:0:
144,124,150279,1,0,0:0:0:0:
160,80,150363,1,2,0:2:0:0:
168,100,150446,1,0,0:0:0:0:
176,120,150529,1,2,0:2:0:0:
184,140,150613,1,0,0:0:0:0:
192,160,150696,6,0,L|188:276,1,101.750003105164,8|2,0:0|3:2,0:0:0:0:
264,360,151029,2,0,L|268:264,1,87.8749976534844,8|2,0:0|3:2,0:0:0:0:
344,184,151363,2,0,L|340:280,1,74,8|0,0:0|3:0,0:0:0:0:
432,368,151696,6,0,L|440:232,1,129.499996047974,8|0,0:1|0:0,0:0:0:0:
464,132,152029,6,0,L|452:24,1,92.5,4|0,3:2|0:0,0:0:0:0:
360,236,152363,2,0,L|372:92,1,138.75,2|2,3:2|0:2,0:0:0:0:
376,64,152696,2,0,P|308:76|264:72,1,92.5,0|2,3:0|0:2,0:0:0:0:
176,40,153029,1,0,3:0:0:0:
188,172,153196,6,0,P|180:228|276:212,1,185,2|2,0:2|0:2,0:0:0:0:
256,108,153696,1,2,3:2:0:0:
316,316,153863,1,2,0:2:0:0:
384,172,154029,2,0,L|400:72,1,92.5,2|2,3:2|0:2,0:0:0:0:
452,240,154363,1,2,3:2:0:0:
284,75,154529,1,2,0:2:0:0:
284,75,154863,6,0,L|294:120,1,46.25,2|0,0:2|0:0,0:0:0:0:
216,216,155029,2,0,L|217:112,1,92.5,2|0,3:2|0:0,0:0:0:0:
324,264,155363,2,0,L|444:288,1,92.5,2|0,3:2|0:0,0:0:0:0:
460,272,155613,1,2,0:2:0:0:
496,300,155696,1,0,3:0:0:0:
492,132,155863,6,0,P|460:88|412:176,1,185,2|2,0:2|0:2,0:0:0:0:
476,244,156363,1,2,3:2:0:0:
316,84,156529,1,2,0:2:0:0:
308,244,156696,2,0,L|316:352,1,92.5,2|2,3:2|0:2,0:0:0:0:
204,224,157029,1,2,3:2:0:0:
416,296,157196,1,2,0:2:0:0:
200,344,157363,6,0,L|92:372,1,92.5,2|0,3:2|0:0,0:0:0:0:
136,240,157696,2,0,P|144:172|132:84,1,138.75,2|2,3:2|0:2,0:0:0:0:
108,80,158029,2,0,L|208:88,1,92.5,0|2,3:0|0:2,0:0:0:0:
312,96,158363,1,0,3:0:0:0:
220,12,158529,1,2,0:2:0:0:
228,176,158696,6,0,L|240:272,1,92.5,2|2,3:2|0:2,0:0:0:0:
252,380,159029,1,2,3:2:0:0:
128,276,159196,1,2,0:2:0:0:
332,248,159363,2,0,L|432:264,1,92.5,2|2,3:2|0:2,0:0:0:0:
292,152,159696,1,2,3:2:0:0:
328,344,159863,1,2,0:2:0:0:
328,344,160196,6,0,L|336:280,1,46.25,2|0,0:2|0:0,0:0:0:0:
400,228,160363,2,0,L|388:116,1,92.5,2|0,3:2|0:0,0:0:0:0:
276,4,160696,2,0,L|288:156,1,138.75,2|2,3:2|0:2,0:0:0:0:
308,172,161029,2,0,P|296:240|296:280,1,92.5,0|2,3:0|0:2,0:0:0:0:
256,368,161363,5,2,3:2:0:0:
396,296,161529,1,2,0:2:0:0:
204,264,161696,2,0,L|73:275,1,106.375002028942,2|2,3:2|0:2,0:0:0:0:
112,100,162029,2,0,P|116:152|128:192,1,92.5,2|2,3:2|0:2,0:0:0:0:
44,340,162363,6,0,L|44:210,1,129.499996047974,10|2,0:2|0:2,0:0:0:0:
28,48,162696,6,0,P|108:60|148:56,1,92.5,2|0,3:2|0:0,0:0:0:0:
312,48,163029,2,0,P|236:72|184:116,1,138.75,2|2,3:2|0:2,0:0:0:0:
164,136,163363,2,0,L|160:232,1,92.5,0|2,3:0|0:2,0:0:0:0:
152,340,163696,1,0,3:0:0:0:
8,256,163863,6,0,P|24:176|88:216,1,185,2|2,0:2|0:2,0:0:0:0:
92,328,164363,1,2,3:2:0:0:
128,112,164529,1,2,0:2:0:0:
228,348,164696,2,0,L|212:232,1,92.5,2|2,3:2|0:2,0:0:0:0:
232,104,165029,1,2,3:2:0:0:
48,244,165196,1,2,0:2:0:0:
48,244,165529,6,0,L|100:228,1,46.25,2|0,0:2|0:0,0:0:0:0:
164,100,165696,2,0,L|156:200,1,92.5,2|0,3:2|0:0,0:0:0:0:
228,328,166029,2,0,P|280:336|342:306,1,92.5,2|0,3:2|0:0,0:0:0:0:
356,300,166279,1,2,0:2:0:0:
400,312,166363,1,0,3:0:0:0:
296,172,166529,6,0,P|316:120|392:188,1,185,2|2,0:2|0:2,0:0:0:0:
344,272,167029,1,2,3:2:0:0:
464,104,167196,1,2,0:2:0:0:
436,268,167363,2,0,L|444:372,1,92.5,2|2,3:2|0:2,0:0:0:0:
508,200,167696,1,2,3:2:0:0:
296,172,167863,1,2,0:2:0:0:
136,100,168029,6,0,P|216:72|248:52,1,92.5,2|0,3:2|0:0,0:0:0:0:
208,200,168363,2,0,L|224:348,1,138.75,2|2,3:2|0:2,0:0:0:0:
228,376,168696,2,0,P|272:352|320:348,1,92.5,0|2,3:0|0:2,0:0:0:0:
128,348,169029,1,0,3:0:0:0:
312,244,169196,1,2,0:2:0:0:
112,196,169363,6,0,L|12:208,1,92.5,2|2,3:2|0:2,0:0:0:0:
64,88,169696,1,2,3:2:0:0:
176,260,169863,1,2,0:2:0:0:
256,124,170029,2,0,L|248:16,1,92.5,2|2,3:2|0:2,0:0:0:0:
352,176,170363,1,2,3:2:0:0:
144,120,170529,1,2,0:2:0:0:
144,120,170863,6,0,L|208:96,1,46.25,2|0,0:2|0:0,0:0:0:0:
256,48,171029,2,0,L|364:72,1,92.5,2|0,3:2|0:0,0:0:0:0:
496,128,171363,2,0,P|436:144|396:168,1,92.5,2|0,3:2|0:0,0:0:0:0:
372,188,171613,1,2,0:2:0:0:
324,188,171696,1,0,3:0:0:0:
346,68,171863,1,2,0:2:0:0:
344,304,172029,5,4,3:2:0:0:
256,192,172113,12,10,173029,0:2:0:0:
44,92,173363,6,0,L|52:200,1,92.5,4|0,3:2|0:0,0:0:0:0:
60,348,173696,2,0,P|68:300|100:244,1,92.5,2|0,3:2|0:0,0:0:0:0:
132,200,173946,1,2,0:2:0:0:
152,168,174029,2,0,L|252:160,1,92.5,0|2,3:0|0:2,0:0:0:0:
200,48,174363,1,0,3:0:0:0:
232,260,174529,6,0,L|248:368,1,92.5,2|0,0:2|3:0,0:0:0:0:
336,240,174863,1,2,0:2:0:0:
128,224,175029,2,0,L|64:208,2,46.25,2|0|2,3:2|0:0|0:2,0:0:0:0:
300,328,175363,1,2,3:2:0:0:
252,128,175529,1,2,0:2:0:0:
184,312,175696,2,0,L|160:376,2,46.25,2|0|2,3:2|0:0|0:2,0:0:0:0:
256,136,176029,5,0,3:0:0:0:
320,248,176196,2,0,L|312:308,1,46.25,2|0,0:2|0:0,0:0:0:0:
404,372,176363,2,0,L|392:256,1,92.5,2|0,3:2|0:0,0:0:0:0:
496,168,176696,2,0,P|444:160|400:136,1,92.5,2|0,3:2|0:0,0:0:0:0:
344,108,176946,1,2,0:2:0:0:
312,92,177029,2,0,P|240:108|216:120,1,92.5,0|2,3:0|0:2,0:0:0:0:
292,216,177363,5,0,3:0:0:0:
360,32,177529,1,2,0:2:0:0:
420,232,177696,2,0,L|424:296,2,46.25,2|0|2,3:2|0:0|0:2,0:0:0:0:
476,92,178029,1,2,3:2:0:0:
248,76,178196,1,2,0:2:0:0:
420,232,178363,2,0,L|472:248,2,46.25,2|0|2,3:2|0:0|0:2,0:0:0:0:
360,32,178696,6,0,L|368:140,1,92.5,2|0,3:2|0:0,0:0:0:0:
396,368,179029,2,0,P|388:308|372:256,1,92.5,2|0,3:2|0:0,0:0:0:0:
340,216,179279,1,2,0:0:0:0:
316,188,179363,2,0,P|376:200|424:184,1,92.5,0|2,3:0|0:0,0:0:0:0:
508,240,179696,1,0,3:0:0:0:
366,124,179863,1,2,0:0:0:0:
292,308,180029,5,2,3:2:0:0:
228,124,180196,1,2,0:0:0:0:
168,320,180363,2,0,L|175:391,2,46.25,2|0|2,3:2|0:0|0:0,0:0:0:0:
80,212,180696,1,2,3:2:0:0:
288,272,180863,1,2,0:2:0:0:
228,124,181029,2,0,L|220:64,2,46.25,2|0|2,3:2|0:0|0:0,0:0:0:0:
222,359,181363,5,0,3:0:0:0:
164,240,181529,2,0,L|156:176,1,46.25,2|0,0:0|0:0,0:0:0:0:
108,116,181696,2,0,L|115:-1,1,92.5,2|0,3:2|0:0,0:0:0:0:
0,216,182029,2,0,P|52:204|104:172,1,92.5,2|0,3:2|0:0,0:0:0:0:
156,156,182279,1,2,0:2:0:0:
188,136,182363,2,0,P|240:148|288:168,1,92.5,0|2,3:0|0:2,0:0:0:0:
348,248,182696,5,2,3:2:0:0:
316,64,182863,1,2,0:2:0:0:
256,284,183029,2,0,L|252:336,2,46.25,2|0|2,3:2|0:0|0:2,0:0:0:0:
412,172,183363,1,2,3:2:0:0:
188,88,183529,1,2,0:2:0:0:
228,252,183696,6,0,L|216:392,1,120.249994495392,10|2,0:2|0:2,0:0:0:0:
188,156,184029,6,0,L|172:40,1,92.5,2|0,3:2|0:0,0:0:0:0:
336,24,184363,2,0,L|328:120,1,92.5,2|0,3:2|0:0,0:0:0:0:
312,188,184613,1,2,0:2:0:0:
300,224,184696,2,0,L|312:328,1,92.5,0|2,3:0|0:2,0:0:0:0:
420,256,185029,1,0,3:0:0:0:
204,228,185196,6,0,L|96:252,1,92.5,2|0,0:2|3:0,0:0:0:0:
152,124,185529,1,2,0:2:0:0:
176,324,185696,2,0,L|168:376,2,46.25,2|0|2,3:2|0:0|0:2,0:0:0:0:
280,164,186029,1,2,3:2:0:0:
268,352,186196,1,2,0:2:0:0:
160,140,186363,2,0,L|168:72,2,46.25,2|0|2,3:2|0:0|0:2,0:0:0:0:
176,324,186696,5,0,3:0:0:0:
256,220,186863,2,0,L|248:144,1,46.25,2|0,0:2|0:0,0:0:0:0:
336,104,187029,2,0,L|328:212,1,92.5,2|0,3:2|0:0,0:0:0:0:
276,328,187363,2,0,P|336:304|388:304,1,92.5,2|0,3:2|0:0,0:0:0:0:
432,336,187613,1,2,0:2:0:0:
464,356,187696,2,0,P|456:284|456:248,1,92.5,0|2,3:0|0:2,0:0:0:0:
424,156,188029,5,0,3:0:0:0:
368,376,188196,1,2,0:2:0:0:
292,188,188363,2,0,L|284:132,2,46.25,2|0|2,3:2|0:0|0:2,0:0:0:0:
220,356,188696,1,2,3:2:0:0:
424,304,188863,1,2,0:2:0:0:
208,248,189029,2,0,L|144:240,2,46.25,2|0|2,3:2|0:0|0:2,0:0:0:0:
408,200,189363,6,0,P|484:180|512:168,1,92.5,2|0,3:2|0:0,0:0:0:0:
356,40,189696,2,0,L|366:144,1,92.5,2|0,3:2|0:0,0:0:0:0:
332,196,189946,1,2,0:2:0:0:
316,228,190029,2,0,L|326:332,1,92.5,0|2,3:0|0:2,0:0:0:0:
220,364,190363,1,0,3:0:0:0:
436,304,190529,1,2,0:2:0:0:
196,240,190696,6,0,L|88:252,1,92.5,2|2,3:2|0:2,0:0:0:0:
144,136,191029,1,2,3:2:0:0:
136,352,191196,1,2,0:2:0:0:
268,192,191363,1,2,3:2:0:0:
48,240,191529,2,0,L|-12:236,2,46.25,2|0|2,0:2|0:0|3:2,0:0:0:0:
252,312,191863,1,2,0:2:0:0:
220,112,192029,5,0,3:0:0:0:
172,232,192196,2,0,L|175:278,1,46.25,2|0,0:2|0:0,0:0:0:0:
112,364,192363,2,0,L|103:271,1,92.5,2|0,3:2|0:0,0:0:0:0:
20,160,192696,2,0,P|101:161|137:146,1,92.5,2|0,3:2|0:0,0:0:0:0:
152,132,192946,1,2,0:2:0:0:
196,144,193029,1,0,3:0:0:0:
248,272,193196,1,2,0:2:0:0:
276,56,193363,5,4,3:2:0:0:
288,40,194363,2,0,L|284:152,1,110.999996612549,10|2,0:2|0:2,0:0:0:0:
356,328,194696,6,0,L|360:220,1,92.5,4|0,3:2|0:0,0:0:0:0:
476,364,195029,1,2,3:2:0:0:
472,328,195113,1,2,0:2:0:0:
468,292,195196,1,2,0:2:0:0:
464,256,195279,1,2,0:2:0:0:
460,220,195363,2,0,L|450:119,1,92.5,2|2,3:2|0:2,0:0:0:0:
359,235,195696,1,2,3:2:0:0:
300,80,195863,1,2,0:2:0:0:
240,236,196029,5,2,3:2:0:0:
236,264,196113,1,2,0:2:0:0:
232,288,196196,1,2,0:2:0:0:
228,316,196279,1,2,0:2:0:0:
224,344,196363,1,2,3:2:0:0:
172,332,196446,1,2,0:2:0:0:
136,292,196529,1,2,0:2:0:0:
124,240,196613,1,2,0:2:0:0:
139,198,196696,6,0,L|184:168,1,46.25,2|0,3:2|0:0,0:0:0:0:
84,56,196863,2,0,L|92:116,1,46.25,2|0,0:2|0:0,0:0:0:0:
36,224,197029,2,0,L|28:168,1,46.25,2|0,3:2|0:0,0:0:0:0:
184,80,197196,2,0,L|240:88,1,46.25,2|0,0:2|0:0,0:0:0:0:
344,60,197363,6,0,L|448:44,1,92.5,0|0,3:0|0:0,0:0:0:0:
256,164,197696,1,2,3:2:0:0:
292,172,197779,1,2,0:2:0:0:
328,180,197863,1,2,0:2:0:0:
364,188,197946,1,2,0:2:0:0:
400,196,198029,2,0,L|500:176,1,92.5,2|2,3:2|0:2,0:0:0:0:
408,76,198363,1,2,3:2:0:0:
360,268,198529,1,2,0:2:0:0:
288,80,198696,5,2,3:2:0:0:
288,80,198779,1,2,0:2:0:0:
288,80,198863,1,2,0:2:0:0:
288,80,198946,1,2,0:2:0:0:
288,80,199029,1,2,3:2:0:0:
248,60,199113,1,2,0:2:0:0:
204,52,199196,1,2,0:2:0:0:
160,64,199279,1,2,0:2:0:0:
128,96,199363,6,0,L|120:144,1,46.25,2|0,3:2|0:0,0:0:0:0:
88,288,199529,2,0,L|80:240,1,46.25,2|0,0:2|0:0,0:0:0:0:
12,92,199696,2,0,L|57:84,1,46.25,2|0,3:2|0:0,0:0:0:0:
204,224,199863,2,0,L|144:216,1,46.25,2|0,0:2|0:0,0:0:0:0:
64,108,200029,6,0,L|49:-4,1,92.5,0|0,3:0|0:0,0:0:0:0:
112,220,200363,1,2,3:2:0:0:
108,248,200446,1,2,0:2:0:0:
104,276,200529,1,2,0:2:0:0:
100,304,200613,1,2,0:2:0:0:
96,332,200696,2,0,L|56:220,1,92.5,2|2,3:2|0:2,0:0:0:0:
28,128,201029,1,2,3:2:0:0:
4,332,201196,1,2,0:2:0:0:
176,216,201363,5,2,3:2:0:0:
196,215,201446,1,2,0:2:0:0:
216,214,201529,1,2,0:2:0:0:
237,213,201613,1,2,0:2:0:0:
257,212,201696,1,2,3:2:0:0:
288,256,201779,1,2,0:0:0:0:
288,312,201863,1,2,0:2:0:0:
256,356,201946,1,2,0:0:0:0:
204,372,202029,6,0,P|164:336|128:316,1,92.5,2|2,3:2|0:2,0:0:0:0:
60,288,202279,1,0,0:0:0:0:
36,260,202363,2,0,L|52:168,1,92.5,2|2,3:2|0:2,0:0:0:0:
84,124,202613,1,0,0:0:0:0:
68,72,202696,5,2,3:2:0:0:
164,244,202863,1,2,0:2:0:0:
256,72,203029,1,2,3:2:0:0:
51,168,203196,1,2,0:2:0:0:
276,196,203363,1,2,3:2:0:0:
120,36,203529,1,2,0:2:0:0:
160,260,203696,1,2,3:2:0:0:
256,72,203863,1,2,0:2:0:0:
296,228,204029,5,2,3:2:0:0:
300,252,204113,1,2,0:2:0:0:
304,272,204196,1,2,0:2:0:0:
308,296,204279,1,2,0:2:0:0:
320,344,204363,5,2,3:2:0:0:
328,300,204446,1,2,0:2:0:0:
336,256,204529,1,2,0:2:0:0:
344,212,204613,1,2,0:2:0:0:
352,168,204696,2,0,L|340:112,3,46.25,2|0|2|0,3:2|0:0|0:2|0:0,0:0:0:0:
408,32,205029,6,0,L|440:168,1,120.249994495392,10|0,0:2|0:0,0:0:0:0:
416,320,205363,6,0,L|512:304,1,92.5,4|0,3:2|0:0,0:0:0:0:
316,280,205696,2,0,L|224:292,1,92.5,2|0,0:2|0:0,0:0:0:0:
352,188,206029,1,2,0:2:0:0:
320,376,206196,1,2,0:2:0:0:
220,208,206363,1,2,0:2:0:0:
404,296,206529,1,2,0:2:0:0:
216,312,206696,6,0,L|128:340,2,92.5,2|2|0,0:2|0:2|0:0,0:0:0:0:
380,244,207196,1,2,0:2:0:0:
192,212,207363,2,0,L|80:192,2,92.5,2|2|2,0:2|0:2|0:2,0:0:0:0:
324,352,207863,1,2,0:2:0:0:
320,184,208029,6,0,L|308:76,1,92.5,0|0,3:0|0:0,0:0:0:0:
404,308,208363,2,0,L|416:192,1,92.5,2|0,0:2|0:0,0:0:0:0:
408,76,208696,1,2,0:2:0:0:
232,148,208863,1,2,0:2:0:0:
416,200,209029,1,2,0:2:0:0:
300,56,209196,1,2,0:2:0:0:
276,240,209363,6,0,L|288:348,2,92.5,2|2|0,0:2|0:2|0:0,0:0:0:0:
184,80,209863,1,2,0:2:0:0:
144,256,210029,2,0,L|136:352,2,92.5,2|2|2,0:2|0:2|0:2,0:0:0:0:
52,88,210529,1,2,0:2:0:0:
96,212,210696,5,0,3:0:0:0:
144,220,210779,1,0,0:0:0:0:
188,196,210863,1,0,0:0:0:0:
196,148,210946,1,0,0:0:0:0:
168,108,211029,2,0,L|112:112,11,46.25,2|0|0|0|2|0|2|0|2|0|2|0,0:2|0:0|0:0|0:0|0:2|0:0|0:2|0:0|0:2|0:0|0:2|0:0,0:0:0:0:
248,36,212029,5,2,3:2:0:0:
296,32,212113,1,0,0:0:0:0:
336,56,212196,1,2,0:2:0:0:
344,104,212279,1,0,0:0:0:0:
328,152,212363,1,0,0:0:0:0:
320,200,212446,1,0,0:0:0:0:
336,248,212529,1,2,0:2:0:0:
380,272,212613,1,0,0:0:0:0:
428,276,212696,2,0,L|486:246,5,46.25,2|0|0|0|2|0,0:2|0:0|0:0|0:0|0:2|0:0,0:0:0:0:
320,328,213196,2,0,L|248:312,1,46.25,2|0,0:2|0:0,0:0:0:0:
172,348,213363,5,2,3:2:0:0:
166,307,213446,1,0,0:0:0:0:
159,267,213529,1,2,0:2:0:0:
152,228,213613,1,0,0:0:0:0:
146,189,213696,1,2,0:2:0:0:
154,183,213779,1,0,0:0:0:0:
162,179,213863,1,2,0:2:0:0:
170,177,213946,1,0,0:0:0:0:
226,129,214029,5,2,3:2:0:0:
271,109,214113,1,0,0:0:0:0:
320,121,214196,1,2,0:2:0:0:
354,157,214279,1,0,0:0:0:0:
351,167,214363,1,2,0:2:0:0:
350,176,214446,1,0,0:0:0:0:
349,187,214529,1,2,0:2:0:0:
347,196,214613,1,0,0:0:0:0:
288,276,214696,6,0,L|276:312,7,23.125,0|0|0|0|2|0|0|0,3:0|0:0|0:0|0:0|0:2|0:0|0:0|0:0,0:0:0:0:
332,300,215029,2,0,L|340:344,7,23.125,0|0|0|0|2|0|0|0,0:0|0:0|0:0|0:0|0:2|0:0|0:0|0:0,0:0:0:0:
384,300,215363,2,0,L|404:320,7,23.125,0|0|0|0|0|0|0|0,0:0|0:0|0:0|0:0|0:0|0:0|0:0|0:0,0:0:0:0:
424,264,215696,2,0,L|440:148,1,110.999996612549,12|0,0:0|0:0,0:0:0:0:
384,28,216029,5,4,3:2:0:0:
256,192,216113,12,0,222696,0:0:0:0:
