osu file format v14

[General]
AudioFilename: Caramel Ribbon.mp3
AudioLeadIn: 1000
PreviewTime: 77686
Countdown: 0
SampleSet: Normal
StackLeniency: 0.7
Mode: 0
LetterboxInBreaks: 0
WidescreenStoryboard: 1

[Editor]
DistanceSpacing: 1.2
BeatDivisor: 4
GridSize: 4
TimelineZoom: 1.6

[Metadata]
Title:caramel ribbon
TitleUnicode:caramel ribbon
Artist:P*Light
ArtistUnicode:P*Light
Creator:Reisen Udongein
Version:NOVICE
Source:SOUND VOLTEX BOOTH
Tags:KONAMI BEMANI SDVX jubeat saucer
BeatmapID:356778
BeatmapSetID:56843

[Difficulty]
HPDrainRate:5
CircleSize:3
OverallDifficulty:5
ApproachRate:6
SliderMultiplier:1.3
SliderTickRate:2

[Events]
//Background and Video events
0,0,"Sweets.jpg",0,0
//Break Periods
2,57334,61570
//Storyboard Layer 0 (Background)
//Storyboard Layer 1 (Fail)
//Storyboard Layer 2 (Pass)
//Storyboard Layer 3 (Foreground)
//Storyboard Sound Samples

[TimingPoints]
906,342.857142857143,4,1,0,60,1,0
2620,-100,4,2,0,60,0,0
7763,-100,4,2,1,60,0,0
10506,-100,4,2,0,60,0,0
13249,-100,4,2,1,60,0,1
18049,-100,4,2,1,60,0,0
18734,-100,4,2,1,60,0,1
22849,-100,4,2,1,60,0,0
24220,-100,4,1,0,60,0,1
29020,-100,4,1,0,60,0,0
29706,-100,4,2,1,60,0,1
33820,-100,4,2,1,60,0,0
53706,-100,4,1,0,60,0,0
54391,-100,4,2,1,60,0,0
57220,-100,4,2,0,60,0,0
67763,-100,4,2,0,60,0,0
79077,-100,4,1,0,60,0,1
83877,-100,4,1,0,60,0,0
84563,-100,4,1,0,60,0,1
88677,-100,4,1,0,60,0,0
90049,-100,4,2,1,60,0,1
94849,-100,4,2,1,60,0,0
95534,-100,4,2,0,60,0,1
99649,-100,4,1,0,60,0,0
100977,-100,4,1,0,60,0,1
101063,-100,4,2,0,60,0,0

[Colours]
Combo1 : 255,181,70
Combo2 : 255,128,128
Combo3 : 60,255,108
Combo4 : 163,70,255
Combo5 : 255,91,173
Combo6 : 50,165,250

[HitObjects]
256,192,906,12,4,2277,0:0:0:0:
32,88,2620,6,0,L|104:100,1,65,8|0,0:0|0:0,0:0:0:0:
160,144,2963,2,0,P|224:156|284:128,1,130,0|8,0:0|0:0,0:0:0:0:
432,168,3649,2,0,P|460:188|476:216,1,65,8|0,0:0|0:0,0:0:0:0:
492,292,3992,2,0,P|488:328|472:356,1,65,8|0,0:0|0:0,0:0:0:0:
396,356,4334,2,0,B|344:346|344:346|323:355|323:355|267:345,2,130,8|8|0,0:0|0:0|0:0,0:0:0:0:
340,212,5363,5,8,0:0:0:0:
264,192,5534,1,0,0:0:0:0:
192,224,5706,2,0,L|128:232,1,65
32,168,6049,2,0,L|96:160,1,65,8|0,0:0|0:0,0:0:0:0:
172,140,6391,2,0,P|200:80|184:20,2,130,0|8|0,0:0|0:0|0:0,0:0:0:0:
104,100,7249,2,0,L|64:108,2,32.5,0|0|8,0:0|0:0|0:0,0:0:0:0:
36,240,7763,6,0,L|32:304,2,65,6|0|10,0:0|0:0|0:0,0:0:0:0:
112,260,8277,1,0,0:0:0:0:
184,232,8448,2,0,L|248:224,1,65,2|8,0:0|0:0,0:0:0:0:
316,264,8792,2,0,L|380:256,1,65,2|8,0:0|0:0,0:0:0:0:
456,236,9134,6,0,L|496:180,2,65,6|0|10,0:0|0:0|0:0,0:0:0:0:
388,196,9649,1,0,0:0:0:0:
316,164,9820,2,0,L|252:168,1,65,2|8,0:0|0:0,0:0:0:0:
176,188,10163,2,0,L|112:192,1,65,2|8,0:0|0:0,0:0:0:0:
256,192,10506,12,2,11877,2:0:0:0:
336,160,12220,5,2,2:0:0:0:
492,184,12563,1,2,2:0:0:0:
392,304,12906,1,2,1:0:0:0:
236,312,13248,6,0,P|200:344|152:356,2,97.5,6|0|0,0:0|0:2|0:0,0:0:0:0:
292,256,13934,2,0,P|336:238|385:243,2,97.5,2|0|0,0:0|2:0|0:0,0:0:0:0:
216,236,14620,2,0,P|164:200|148:136,1,130,2|10,0:0|0:0,0:0:0:0:
204,84,15134,1,0,0:0:0:0:
280,108,15306,2,0,P|316:112|344:104,1,65,2|0,0:0|0:0,0:0:0:0:
412,72,15648,2,0,P|448:68|480:76,1,65,10|0,0:0|0:0,0:0:0:0:
456,152,15991,6,0,L|468:300,1,130,2|10,0:0|0:0,0:0:0:0:
404,328,16506,1,0,0:0:0:0:
340,288,16677,2,0,P|336:240|304:204,2,97.5,2|0|0,0:0|0:0|0:0,0:0:0:0:
300,356,17363,2,0,P|252:376|208:368,2,97.5,2|0|0,0:0|0:0|0:0,0:0:0:0:
248,296,18049,2,0,B|208:280|168:300|168:300|140:260,1,130,2|10,0:0|0:0,0:0:0:0:
124,184,18563,1,0,0:0:0:0:
100,112,18734,6,0,L|-4:104,2,97.5,6|0|0,0:0|0:0|0:0,0:0:0:0:
168,72,19420,2,0,L|272:64,2,97.5,2|0|0,0:0|0:0|0:0,0:0:0:0:
172,152,20106,2,0,B|204:208|204:208|264:232,1,130,2|10,0:0|0:0,0:0:0:0:
336,200,20620,1,0,0:0:0:0:
412,184,20791,2,0,L|480:192,3,65,2|0|10|0,0:0|0:0|0:0|0:0,0:0:0:0:
484,268,21477,6,0,P|488:320|512:360,2,97.5,2|0|0,0:0|0:0|0:0,0:0:0:0:
476,192,22163,2,0,P|472:140|448:100,2,97.5,2|0|0,0:0|0:0|0:0,0:0:0:0:
256,192,22848,12,4,24220,0:0:0:0:
72,316,24563,6,0,L|64:248,1,65,2|0,0:0|0:0,0:0:0:0:
144,256,24906,2,2,B|136:204|136:204|120:184|120:184|108:116,1,130,2|2,0:0|0:0,0:0:0:0:
248,60,25591,2,0,P|280:68|312:64,1,65,2|0,0:0|0:0,0:0:0:0:
388,44,25934,2,0,P|420:44|452:56,1,65,2|0,0:0|0:0,0:0:0:0:
460,132,26277,2,0,B|456:164|456:164|472:192|472:192|464:224|464:224|472:256,2,130,2|2|0,0:0|0:0|0:0,0:0:0:0:
308,92,27306,5,2,0:0:0:0:
248,144,27477,1,0,0:0:0:0:
172,160,27648,1,2,0:0:0:0:
92,164,27820,2,0,P|60:156|36:132,2,65,0|2|0,0:0|0:0|0:0,0:0:0:0:
136,228,28334,2,2,P|160:288|144:352,1,130,2|2,0:0|0:0,0:0:0:0:
300,324,29020,2,0,L|368:328,1,65,2|0,0:0|0:0,0:0:0:0:
396,340,29277,1,0,0:0:0:0:
428,352,29363,2,0,L|496:356,1,65,2|0,0:0|0:0,0:0:0:0:
488,276,29706,6,0,B|512:236|500:192|500:192|456:200,1,130,6|10,0:0|0:0,0:0:0:0:
404,52,30391,2,0,B|380:92|392:136|392:136|433:128,1,130,2|10,0:0|0:0,0:0:0:0:
300,124,30906,1,8,0:0:0:0:
300,124,31077,6,0,P|236:108|172:124,1,130,6|10,0:0|0:0,0:0:0:0:
52,216,31763,2,0,P|114:231|177:217,1,130,2|10,0:0|0:0,0:0:0:0:
252,200,32277,1,8,0:0:0:0:
324,232,32448,6,0,L|320:296,3,65,6|0|2|0,0:0|0:0|0:0|0:0,0:0:0:0:
384,184,33134,2,0,L|388:120,3,65,6|0|2|0,0:0|0:0|0:0|0:0,0:0:0:0:
404,260,33820,2,0,P|456:296|520:280,2,130,8|8|8,0:0|0:0|0:0,0:0:0:0:
104,348,35191,6,0,B|97:294|97:294|119:261|114:219,1,130,6|10,0:0|0:0,0:0:0:0:
44,112,35877,2,0,B|40:68|68:36|68:36|116:44,1,130,2|10,0:0|0:0,0:0:0:0:
208,136,36563,1,2,0:0:0:0:
316,64,36906,1,10,0:0:0:0:
440,104,37248,1,2,0:0:0:0:
456,232,37591,1,10,0:0:0:0:
348,308,37934,6,0,B|324:292|288:312|288:312|256:332|224:312,3,130,2|10|2|10,0:0|0:0|0:0|0:0,0:0:0:0:
21,252,39306,2,0,B|52:272|84:252|84:252|120:232|144:248,3,130,2|10|2|10,0:0|0:0|0:0|0:0,0:0:0:0:
192,128,40677,6,0,P|168:68|192:8,1,130,6|10,0:0|0:0,0:0:0:0:
320,8,41363,2,0,P|342:67|318:126,1,130,2|10,0:0|0:0,0:0:0:0:
392,232,42048,2,0,B|344:320|344:320|256:252|168:320|168:320|120:232,1,390,2|10,0:0|0:0,0:0:0:0:
192,124,43420,2,0,B|256:108|256:108|320:124,3,130,2|10|2|10,0:0|0:0|0:0|0:0,0:0:0:0:
256,192,44791,12,4,46163,0:0:0:0:
40,296,46506,6,0,L|104:280,1,65,10|0,0:0|0:0,0:0:0:0:
180,272,46848,2,0,L|244:300,1,65,2|0,0:0|0:0,0:0:0:0:
312,324,47191,2,0,L|380:308,1,65,10|0,0:0|0:0,0:0:0:0:
448,276,47534,2,0,P|476:216|460:156,3,130,0|10|2|10,0:0|0:0|0:0|0:0,0:0:0:0:
376,24,48906,5,2,0:0:0:0:
376,24,49248,2,0,P|344:28|316:44,1,65,10|0,0:0|0:0,0:0:0:0:
260,96,49591,2,0,P|228:108|192:104,1,65,2|0,0:0|0:0,0:0:0:0:
128,72,49934,2,0,P|96:72|64:80,1,65,10|0,0:0|0:0,0:0:0:0:
32,152,50277,2,0,B|36:192|36:192|24:232|24:232|32:280,3,130,2|10|2|10,0:0|0:0|0:0|0:0,0:0:0:0:
188,284,51648,5,6,0:0:0:0:
188,284,51991,2,0,L|252:292,1,65,10|0,0:0|0:0,0:0:0:0:
332,300,52334,2,0,L|396:308,1,65,2|0,0:0|0:0,0:0:0:0:
476,316,52677,1,2,1:0:0:0:
468,160,53020,6,0,L|480:96,1,65,6|0,0:0|0:0,0:0:0:0:
408,68,53363,2,0,P|380:76|344:72,1,65,10|0,0:0|0:0,0:0:0:0:
272,48,53706,2,2,B|212:24|152:48|152:48|136:60|136:60|120:52|120:52|112:72|112:72|92:48|92:48|88:72|88:72|68:64,1,260,2|6,1:0|0:0,1:0:0:0:
72,220,54734,1,10,0:0:0:0:
124,280,54906,1,0,0:0:0:0:
196,256,55077,2,0,L|240:200,3,65,6|0|10|0,0:0|0:0|0:0|0:0,0:0:0:0:
256,192,55763,12,4,57134,0:0:0:0:
0,264,62620,6,0,B|52:300|120:280|120:280|188:264|248:308,1,260,2|0,0:0|0:0,0:0:0:0:
320,340,63477,1,2,0:0:0:0:
396,320,63648,1,2,0:0:0:0:
444,260,63820,2,0,B|437:200|468:170|468:170|432:148|429:83,1,195,2|0,0:0|0:0,0:0:0:0:
356,52,64506,1,2,0:0:0:0:
284,24,64677,2,0,L|184:36,2,97.5,2|0|2,0:0|0:0|0:0,0:0:0:0:
256,192,65363,12,0,66391,0:0:0:0:
220,81,66734,6,0,P|156:69|95:88,1,130,2|0,0:0|0:0,0:0:0:0:
291,113,67420,2,0,P|355:125|417:107,1,130,2|0,0:0|1:0,0:0:0:0:
472,252,68106,5,6,0:0:0:0:
412,304,68277,1,2,0:0:0:0:
340,332,68448,1,0,0:0:0:0:
260,332,68620,1,2,0:0:0:0:
192,296,68791,2,0,L|168:228,2,65,0|2|2,0:0|0:0|0:0,0:0:0:0:
192,376,69306,5,4,0:0:0:0:
220,172,69477,2,0,B|264:168|296:148|296:148|316:188|316:188|352:168|400:176,1,195,4|4,0:0|0:0,0:0:0:0:
456,144,70163,2,0,P|488:104|488:48,2,97.5,4|4|4,0:0|0:0|0:0,0:0:0:0:
388,108,70848,5,6,0:0:0:0:
316,80,71020,1,2,0:0:0:0:
240,80,71191,1,0,0:0:0:0:
168,108,71363,1,2,0:0:0:0:
116,168,71534,2,0,L|128:232,2,65,0|2|2,0:0|0:0|0:0,0:0:0:0:
92,92,72048,5,4,0:0:0:0:
180,296,72220,2,0,B|232:300|268:332|268:332|308:304|364:316,1,195,4|4,0:0|0:0,0:0:0:0:
440,308,72906,2,0,L|464:208,2,97.5,4|4|4,0:0|0:0|0:0,0:0:0:0:
408,380,73591,5,4,0:0:0:0:
68,344,74277,5,4,0:0:0:0:
104,4,74963,5,4,0:0:0:0:
444,40,75648,5,4,0:0:0:0:
208,152,76334,6,0,L|144:160,3,65,4|0|4|0,0:0|0:0|0:0|0:0,0:0:0:0:
304,232,77020,2,0,L|368:224,3,65,4|0|4|0,0:0|0:0|0:0|0:0,0:0:0:0:
256,192,77706,12,4,79077,0:0:0:0:
128,168,79420,6,2,L|116:232,1,65,10|0,0:0|0:0,0:0:0:0:
96,308,79763,2,2,P|160:320|216:288,1,130,2|10,0:0|0:0,0:0:0:0:
368,308,80448,2,0,P|384:280|392:248,1,65,2|0,0:0|0:0,0:0:0:0:
364,176,80791,2,0,P|364:144|376:112,1,65,10|0,0:0|0:0,0:0:0:0:
328,52,81134,2,2,B|279:43|279:43|258:52|258:52|199:41,2,130,2|10|2,0:0|0:0|0:0,0:0:0:0:
396,192,82163,5,10,0:0:0:0:
416,268,82334,1,0,0:0:0:0:
376,336,82506,1,2,0:0:0:0:
304,364,82677,1,0,0:0:0:0:
232,336,82848,2,0,L|168:344,1,65,10|0,0:0|0:0,0:0:0:0:
92,372,83191,2,2,P|64:316|88:256,2,130,2|10|2,0:0|0:0|0:0,0:0:0:0:
164,344,84048,2,0,L|208:356,2,32.5,2|0|10,0:0|0:0|0:0,0:0:0:0:
336,240,84563,6,2,B|372:224|408:236|408:236|452:196,2,130,6|8|2,0:0|0:0|0:0,0:0:0:0:
300,172,85420,1,0,0:0:0:0:
256,108,85591,1,10,0:0:0:0:
216,172,85763,1,2,0:0:0:0:
176,240,85934,2,0,B|140:224|104:236|104:236|60:196,1,130,0|8,0:0|0:0,0:0:0:0:
56,120,86448,1,2,0:0:0:0:
56,120,86620,2,2,P|60:72|96:40,2,97.5,2|10|2,0:0|0:0|0:0,0:0:0:0:
64,200,87306,5,2,0:0:0:0:
64,200,87391,1,0,0:0:0:0:
64,200,87477,2,2,B|92:276|48:244|80:328,1,130,2|0,0:0|0:0,0:0:0:0:
156,304,87991,2,0,L|220:312,1,65
288,352,88334,2,0,L|352:360,1,65,8|0,0:0|0:0,0:0:0:0:
256,192,88677,12,4,90048,0:0:0:0:
168,32,90391,6,0,P|168:64|156:96,1,65,10|0,0:0|0:0,0:0:0:0:
128,176,90734,6,0,P|100:160|78:133,1,65,2|0,0:0|0:0,0:0:0:0:
24,72,91077,6,0,P|51:56|85:50,1,65,10|2,0:0|0:0,0:0:0:0:
228,108,91591,2,0,B|280:112|280:112|304:128|304:128|372:132,1,130,6|6,0:0|0:0,0:0:0:0:
428,104,92106,2,0,P|460:160|448:224,1,130,6|4,0:0|0:0,0:0:0:0:
316,300,92791,6,0,B|284:292|284:292|252:296,1,65,6|0,0:0|0:0,0:0:0:0:
176,312,93134,2,0,B|144:316|144:316|112:308,1,65,10|0,0:0|0:0,0:0:0:0:
36,284,93477,2,0,L|28:381,2,97.5,2|0|0,0:0|0:0|0:0,0:0:0:0:
96,236,94163,6,0,P|151:204|216:200,1,130,2|10,0:0|0:0,0:0:0:0:
168,52,94848,2,0,L|240:56,1,65,2|0,0:0|0:0,0:0:0:0:
260,72,95106,1,0,0:0:0:0:
288,88,95191,2,0,L|360:92,1,65,10|2,0:0|0:0,0:0:0:0:
416,48,95534,5,4,0:0:0:0:
112,32,96220,5,4,0:0:0:0:
96,336,96906,5,4,0:0:0:0:
400,352,97591,5,4,0:0:0:0:
116,220,98277,5,4,0:0:0:0:
188,244,98448,1,0,0:0:0:0:
264,236,98620,1,4,0:0:0:0:
328,192,98791,1,0,0:0:0:0:
360,120,98963,2,0,L|337:59,1,65,4|0,0:0|0:0,0:0:0:0:
412,180,99306,2,0,L|434:240,1,65,4|0,0:0|0:0,0:0:0:0:
256,192,99648,12,4,101019,0:0:0:0:
