osu file format v14

[General]
AudioFilename: Caramel Ribbon.mp3
AudioLeadIn: 1000
PreviewTime: 77686
Countdown: 0
SampleSet: Soft
StackLeniency: 0.7
Mode: 0
LetterboxInBreaks: 0
WidescreenStoryboard: 0

[Editor]
DistanceSpacing: 0.5
BeatDivisor: 4
GridSize: 4
TimelineZoom: 1

[Metadata]
Title:caramel ribbon
TitleUnicode:caramel ribbon
Artist:P*Light
ArtistUnicode:P*Light
Creator:Reisen Udongein
Version:EXHAUST
Source:SOUND VOLTEX BOOTH
Tags:KONAMI BEMANI SDVX jubeat saucer
BeatmapID:356777
BeatmapSetID:56843

[Difficulty]
HPDrainRate:8
CircleSize:4
OverallDifficulty:9
ApproachRate:9
SliderMultiplier:1.8
SliderTickRate:2

[Events]
//Background and Video events
0,0,"Sweets.jpg",0,0
//Break Periods
2,57334,62020
//Storyboard Layer 0 (Background)
//Storyboard Layer 1 (Fail)
//Storyboard Layer 2 (Pass)
//Storyboard Layer 3 (Foreground)
//Storyboard Layer 4 (Overlay)
//Storyboard Sound Samples

[TimingPoints]
906,342.857142857143,4,1,0,60,1,0
1934,-66.6666666666667,4,1,0,60,0,0
2620,-133.333333333333,4,2,0,60,0,0
4463,-133.333333333333,4,2,2,50,0,0
4891,-133.333333333333,4,2,0,60,0,0
7763,-100,4,2,1,60,0,0
13249,-83.3333333333333,4,2,1,70,0,1
18049,-83.3333333333333,4,2,1,60,0,0
18734,-83.3333333333333,4,2,1,70,0,1
22849,-83.3333333333333,4,2,0,60,0,0
24220,-83.3333333333333,4,2,1,70,0,1
24906,-83.3333333333333,4,1,0,70,0,1
25120,-83.3333333333333,4,2,1,70,0,1
29020,-83.3333333333333,4,2,0,60,0,0
29706,-83.3333333333333,4,2,1,70,0,1
33820,-100,4,2,1,60,0,0
34677,-100,4,2,1,40,0,0
34934,-100,4,2,1,60,0,0
37248,-100,4,2,1,65,0,0
37420,-100,4,2,1,70,0,0
37763,-100,4,2,0,60,0,0
37934,-100,4,2,1,60,0,0
40163,-100,4,2,1,50,0,0
40334,-100,4,2,1,45,0,0
40506,-100,4,2,0,60,0,0
40677,-100,4,2,1,60,0,0
42734,-100,4,2,1,65,0,0
42906,-100,4,2,1,70,0,0
43248,-100,4,2,0,60,0,0
43420,-100,4,2,1,60,0,0
44792,-100,4,3,0,60,0,0
45820,-50,4,2,1,40,0,0
46163,-100,4,2,1,60,0,0
53706,-66.6666666666667,4,1,1,60,0,0
54049,-50,4,2,1,40,0,0
54392,-100,4,2,1,60,0,0
55763,-100,4,1,0,60,0,0
56792,-66.6666666666667,4,2,1,60,0,0
57220,-133.333333333333,4,2,0,50,0,0
65534,-133.333333333333,4,2,0,30,0,0
65706,-133.333333333333,4,2,0,35,0,0
65877,-133.333333333333,4,2,0,40,0,0
66048,-133.333333333333,4,2,0,45,0,0
66220,-133.333333333333,4,2,0,50,0,0
66391,-133.333333333333,4,2,0,55,0,0
66563,-133.333333333333,4,2,0,60,0,0
67763,-100,4,1,0,60,0,0
67848,-100,4,2,0,60,0,0
69992,-66.6666666666667,4,2,0,60,0,0
70849,-100,4,2,0,60,0,0
72906,-66.6666666666667,4,2,0,60,0,0
73592,-100,4,2,0,60,0,0
74277,-100,4,1,0,50,0,0
74963,-100,4,2,0,60,0,0
75648,-100,4,1,0,50,0,0
76334,-100,4,2,0,60,0,0
77706,-66.6666666666667,4,2,1,60,0,0
79077,-83.3333333333333,4,2,1,70,0,1
83877,-83.3333333333333,4,2,1,60,0,0
84563,-83.3333333333333,4,1,0,70,0,1
85334,-83.3333333333333,4,2,1,70,0,1
88677,-83.3333333333333,4,2,0,60,0,0
90049,-83.3333333333333,4,2,1,70,0,1
94849,-83.3333333333333,4,2,1,60,0,0
95534,-83.3333333333333,4,2,0,70,0,1
98277,-83.3333333333333,4,2,1,70,0,1
99649,-100,4,2,1,60,0,0
100977,-100,4,1,0,70,0,0
101063,-100,4,2,0,40,0,0
101706,-100,4,2,0,30,0,0
103077,-100,4,2,0,20,0,0

[Colours]
Combo1 : 255,181,70
Combo2 : 255,128,128
Combo3 : 60,255,108
Combo4 : 163,70,255
Combo5 : 255,91,173
Combo6 : 50,165,250

[HitObjects]
196,36,906,5,0,0:0:0:0:
211,20,992,2,0,B|254:11|254:11|298:19,1,90
316,36,1249,1,0,0:0:0:0:
256,100,1420,5,0,0:0:0:0:
272,132,1506,1,0,0:0:0:0:
272,168,1592,1,0,0:0:0:0:
264,204,1677,1,0,0:0:0:0:
240,232,1763,1,0,0:0:0:0:
228,264,1849,1,0,0:0:0:0:
232,296,1934,6,0,P|309:366|292:261,1,270.000010299683,0|4,0:0|0:0,0:0:0:0:
72,324,2620,6,0,B|64:256,1,67.5000025749208,8|0,0:0|0:0,0:0:0:0:
52,156,2963,1,0,0:0:0:0:
208,28,3306,2,0,B|216:96,1,67.5000025749208,8|0,0:0|0:0,0:0:0:0:
164,208,3649,6,0,B|200:220|228:196,1,67.5000025749208
388,152,3991,2,0,B|352:140|324:164,1,67.5000025749208,8|0,0:0|0:0,0:0:0:0:
304,264,4334,2,0,B|333:280|331:322|331:322|328:363|358:380,2,135.000005149842,0|8|0,0:0|0:0|0:0,0:0:0:0:
108,324,5363,5,8,0:0:0:0:
80,228,5534,1,0,0:0:0:0:
104,128,5706,1,0,0:0:0:0:
76,32,5877,1,0,0:0:0:0:
8,108,6049,5,8,0:0:0:0:
172,52,6220,1,0,0:0:0:0:
188,196,6391,2,0,B|159:208|139:239|139:239|108:225|72:228,2,135.000005149842,0|8|0,0:0|0:0|0:0,0:0:0:0:
108,132,7249,1,8,0:0:0:0:
108,132,7334,1,0,0:0:0:0:
108,132,7420,2,0,B|92:104,3,33.7500012874604,8|0|8|0,0:0|0:0|0:0|0:0,0:0:0:0:
32,56,7763,6,0,B|76:48|76:48|120:56,1,90,6|0,0:0|0:0,0:0:0:0:
164,184,8106,2,0,B|120:192|120:192|76:184,1,90,10|0,0:0|0:0,0:0:0:0:
244,144,8449,1,2,0:0:0:0:
332,136,8620,1,8,0:0:0:0:
420,160,8792,1,2,0:0:0:0:
476,232,8963,1,8,0:0:0:0:
480,320,9134,6,0,B|436:328|436:328|392:320,1,90,6|0,0:0|0:0,0:0:0:0:
288,184,9477,2,0,B|332:176|332:176|376:184,1,90,10|0,0:0|0:0,0:0:0:0:
204,216,9820,1,2,0:0:0:0:
116,204,9991,1,8,0:0:0:0:
56,136,10163,1,2,0:0:0:0:
52,48,10334,1,8,0:0:0:0:
132,88,10506,5,6,0:0:0:0:
416,140,10677,1,2,0:0:0:0:
288,184,10849,5,2,0:0:0:0:
260,44,11020,1,2,0:0:0:0:
392,272,11192,6,2,B|408:316,1,45,4|0,0:0|0:0,0:0:0:0:
308,356,11363,2,2,B|312:312,1,45
200,312,11534,2,2,B|204:356,1,45
104,314,11706,2,2,B|120:272,1,45
192,220,11877,5,8,0:0:0:0:
64,92,12220,1,8,0:0:0:0:
238,45,12563,1,8,0:0:0:0:
168,120,12906,5,0,0:0:0:0:
188,124,12992,1,0,0:0:0:0:
208,128,13077,1,0,0:0:0:0:
228,132,13163,1,0,0:0:0:0:
248,136,13249,6,0,B|312:136|328:72|328:72|348:120,1,161.999995056153,6|0,0:0|0:0,0:0:0:0:
356,144,13592,2,0,B|412:176|460:136,1,107.999996704102,10|0,0:0|0:0,0:0:0:0:
480,300,13934,2,0,B|424:284|388:336|388:336|364:284,1,161.999995056153,2|0,0:0|0:0,0:0:0:0:
340,276,14277,2,0,B|284:248|236:284,1,107.999996704102,10|0,0:0|0:0,0:0:0:0:
76,272,14620,6,0,B|116:228|100:168,1,107.999996704102,2|0,0:0|0:0,0:0:0:0:
96,144,14877,1,0,0:0:0:0:
88,120,14963,2,0,B|72:63|112:19,1,107.999996704102,10|0,0:0|0:0,0:0:0:0:
192,92,15306,2,0,B|244:56|296:88,1,107.999996704102,2|8,0:0|0:0,0:0:0:0:
364,116,15563,2,0,B|413:146|465:110,1,107.999996704102
412,56,15820,1,8,0:0:0:0:
424,208,15992,6,0,B|404:272|468:296|468:296|424:320,1,161.999995056153,2|0,0:0|0:0,0:0:0:0:
396,320,16334,2,0,B|340:304|292:336,1,107.999996704102,10|0,0:0|0:0,0:0:0:0:
208,316,16677,1,2,0:0:0:0:
124,336,16849,1,0,0:0:0:0:
124,336,16934,1,0,0:0:0:0:
124,336,17020,1,10,0:0:0:0:
40,316,17192,1,0,0:0:0:0:
96,252,17363,6,0,B|76:136,1,107.999996704102,2|0,0:0|0:0,0:0:0:0:
434,145,17706,2,0,B|416:252,1,107.999996704102,10|0,0:0|0:0,0:0:0:0:
176,182,18049,6,0,B|166:124,1,53.9999983520508,2|0,0:0|0:0,0:0:0:0:
345,128,18220,2,0,B|336:182,1,53.9999983520508
208,64,18392,6,0,B|216:8,1,53.9999983520508,10|0,0:0|0:0,0:0:0:0:
296,12,18563,2,0,B|304:66,1,53.9999983520508,2|0,0:0|0:0,0:0:0:0:
256,136,18734,6,0,B|256:296,1,161.999995056153,6|0,0:0|0:0,0:0:0:0:
208,364,19077,2,0,B|256:408|304:364,1,107.999996704102,10|0,0:0|0:0,0:0:0:0:
404,320,19420,2,0,B|456:344|492:300|492:300|476:232,1,161.999995056153,2|0,0:0|0:0,0:0:0:0:
460,216,19763,2,0,B|424:168|452:112,1,107.999996704102,10|0,0:0|0:0,0:0:0:0:
304,44,20106,6,0,B|260:48|228:68|228:68|200:48|148:52,1,161.999995056153,2|0,0:0|0:0,0:0:0:0:
128,36,20448,2,0,B|132:92|104:140,1,107.999996704102,10|0,0:0|0:0,0:0:0:0:
64,352,20792,1,2,0:0:0:0:
156,244,20963,1,0,0:0:0:0:
156,244,21049,1,0,0:0:0:0:
156,244,21134,1,10,0:0:0:0:
16,220,21306,1,0,0:0:0:0:
80,272,21477,6,0,B|136:356|220:296,1,161.999995056153,2|0,0:0|0:0,0:0:0:0:
272,348,21820,2,0,B|320:312|376:336,1,107.999996704102,10|0,0:0|0:0,0:0:0:0:
476,376,22163,1,2,0:0:0:0:
484,340,22249,1,0,0:0:0:0:
484,304,22334,1,0,0:0:0:0:
480,268,22420,1,0,0:0:0:0:
472,232,22506,1,10,0:0:0:0:
464,196,22592,1,0,0:0:0:0:
468,160,22677,1,0,0:0:0:0:
476,124,22763,1,0,0:0:0:0:
492,92,22848,6,0,B|440:80,1,53.9999983520508,4|0,1:0|0:0,0:0:0:0:
376,132,23020,2,0,B|324:120,1,53.9999983520508,0|0,1:0|0:0,0:0:0:0:
264,64,23191,1,0,1:0:0:0:
240,112,23277,1,0,0:0:0:0:
192,140,23363,1,0,0:0:0:0:
140,148,23449,1,0,0:0:0:0:
88,128,23534,6,0,B|68:176,1,53.9999983520508,4|0,1:0|0:0,0:0:0:0:
0,294,23706,2,0,B|20:244,1,53.9999983520508,0|0,1:0|0:0,0:0:0:0:
100,252,23877,1,2,2:0:0:0:
116,260,23963,1,2,2:0:0:0:
132,268,24049,1,2,2:0:0:0:
148,276,24134,1,2,2:0:0:0:
164,284,24220,6,0,B|216:277|244:324|244:324|274:263,1,161.999995056153,4|0,0:0|0:0,0:0:0:0:
284,240,24563,1,10,1:0:0:0:
420,328,24734,1,2,1:0:0:0:
424,176,24906,2,2,B|412:114|412:114|364:140|324:96,1,161.999995056153,2|0,0:0|0:0,0:0:0:0:
300,80,25249,1,10,1:0:0:0:
88,44,25420,1,0,0:0:0:0:
24,132,25592,6,0,B|112:172|72:268,1,161.999995056153,2|0,1:0|0:0,0:0:0:0:
12,312,25934,2,0,B|52:364|108:332,1,107.999996704102,10|0,1:0|0:0,0:0:0:0:
338,184,26277,1,2,1:0:0:0:
176,184,26449,1,0,0:0:0:0:
176,184,26534,1,0,0:0:0:0:
176,184,26620,1,10,1:0:0:0:
256,328,26792,1,0,0:0:0:0:
256,236,26963,6,0,B|268:196|256:156|256:156|244:116|256:76,1,161.999995056153
332,48,27306,2,0,B|384:24|436:48,1,107.999996704102,10|2,1:0|1:0,0:0:0:0:
180,100,27649,2,0,B|128:124|76:100,1,107.999996704102,2|0,1:0|0:0,0:0:0:0:
60,96,27906,1,0,0:0:0:0:
44,92,27992,2,0,B|12:200,1,107.999996704102,10|0,1:0|0:0,0:0:0:0:
69,363,28334,6,0,B|100:260,1,107.999996704102,2|0,1:0|0:0,0:0:0:0:
412,260,28677,2,0,B|442:363,1,107.999996704102,10|0,1:0|0:0,0:0:0:0:
176,200,29020,1,2,1:0:0:0:
256,236,29192,1,2,1:0:0:0:
256,236,29277,1,0,0:0:0:0:
256,236,29363,1,10,1:0:0:0:
332,196,29534,1,0,0:0:0:0:
408,152,29706,6,0,L|432:40,1,107.999996704102,6|0,0:0|0:0,0:0:0:0:
424,176,30049,1,10,0:0:0:0:
452,36,30220,1,0,0:0:0:0:
68,272,30392,6,0,L|44:160,1,107.999996704102,2|8,0:0|0:0,0:0:0:0:
52,296,30735,1,2,0:0:0:0:
24,156,30906,1,8,0:0:0:0:
128,64,31077,6,0,B|210:64|210:64|246:44|246:44|338:44,1,215.999993408203,6|10,0:0|0:0,0:0:0:0:
344,132,31592,1,0,0:0:0:0:
344,132,31677,1,0,0:0:0:0:
344,132,31763,2,0,B|272:132|272:132|241:151,1,107.999996704102,2|8,0:0|0:0,0:0:0:0:
404,224,32106,2,0,B|476:224|476:224|506:204,1,107.999996704102,2|8,0:0|0:0,0:0:0:0:
448,356,32449,5,6,0:0:0:0:
340,348,32620,1,2,0:0:0:0:
188,240,32792,5,2,0:0:0:0:
296,248,32963,1,2,0:0:0:0:
124,328,33134,5,6,0:0:0:0:
100,300,33220,1,0,0:0:0:0:
88,264,33306,1,2,0:0:0:0:
88,228,33392,1,0,0:0:0:0:
100,192,33477,1,2,0:0:0:0:
124,164,33563,1,0,0:0:0:0:
156,144,33649,1,2,0:0:0:0:
192,140,33734,1,0,0:0:0:0:
224,144,33820,5,12,0:0:0:0:
420,328,34163,1,8,0:0:0:0:
480,64,34506,1,8,0:0:0:0:
388,184,34677,6,0,B|400:232,2,45
212,40,35192,6,0,P|168:32|120:52,1,90,6|0,0:0|0:0,0:0:0:0:
2,135,35534,2,0,P|46:143|88:128,1,90,10|0,0:0|0:0,0:0:0:0:
160,184,35877,1,2,0:0:0:0:
156,216,35963,1,0,0:0:0:0:
152,248,36049,1,0,0:0:0:0:
200,324,36220,2,0,L|296:308,1,90,10|0,0:0|0:0,0:0:0:0:
494,176,36563,2,0,P|451:163|408:172,1,90,2|0,0:0|0:0,0:0:0:0:
448,252,36906,1,10,0:0:0:0:
336,120,37077,5,0,0:0:0:0:
304,132,37163,1,0,0:0:0:0:
268,140,37249,1,2,3:0:0:0:
232,136,37334,1,2,3:0:0:0:
200,120,37420,1,2,3:0:0:0:
176,92,37506,1,2,3:0:0:0:
168,56,37592,1,2,3:0:0:0:
24,144,37763,5,2,2:0:0:0:
24,144,37849,1,2,0:0:0:0:
24,144,37934,2,0,L|32:236,1,90,2|0,0:0|0:0,0:0:0:0:
123,353,38277,2,0,L|116:264,1,90,10|0,0:0|0:0,0:0:0:0:
224,192,38620,2,0,L|272:196,1,45,2|0,0:0|0:0,0:0:0:0:
292,216,38792,1,0,0:0:0:0:
372,252,38963,2,0,P|416:256|460:240,1,90,10|0,0:0|0:0,0:0:0:0:
440,60,39306,6,0,P|395:55|352:72,1,90
272,112,39649,2,0,P|228:116|188:96,1,90,8|0,0:0|0:0,0:0:0:0:
176,68,39906,1,0,0:0:0:0:
152,48,39992,1,2,3:0:0:0:
120,40,40077,1,2,3:0:0:0:
88,44,40163,1,2,3:0:0:0:
60,56,40249,1,2,3:0:0:0:
40,80,40334,1,2,3:0:0:0:
300,312,40506,5,2,0:0:0:0:
300,312,40592,1,2,0:0:0:0:
300,312,40677,2,0,L|392:300,1,90,6|0,0:0|0:0,0:0:0:0:
467,74,41020,2,0,L|459:163,1,90,10|0,0:0|0:0,0:0:0:0:
432,176,41277,1,0,0:0:0:0:
400,180,41363,1,2,0:0:0:0:
368,172,41449,1,0,0:0:0:0:
348,148,41534,1,0,0:0:0:0:
216,12,41706,2,0,P|260:16|300:40,1,90,10|0,0:0|0:0,0:0:0:0:
152,208,42048,2,0,L|62:219,1,90,2|0,0:0|0:0,0:0:0:0:
4,148,42392,1,10,0:0:0:0:
204,284,42563,5,0,0:0:0:0:
236,268,42649,1,0,0:0:0:0:
272,260,42734,1,2,3:0:0:0:
308,260,42820,1,2,3:0:0:0:
344,272,42906,1,2,3:0:0:0:
372,296,42992,1,2,3:0:0:0:
388,328,43077,1,2,3:0:0:0:
460,168,43249,5,2,0:0:0:0:
460,168,43334,1,2,0:0:0:0:
460,168,43420,2,0,L|476:76,1,90,2|0,0:0|0:0,0:0:0:0:
36,79,43763,2,0,L|52:168,1,90,10|0,0:0|0:0,0:0:0:0:
304,60,44106,2,0,L|352:68,2,45,2|0|0,0:0|0:0|0:0,0:0:0:0:
208,60,44449,2,0,L|160:68,2,45,10|0|0,0:0|0:0|0:0,0:0:0:0:
256,352,44792,6,0,B|284:312|256:268,1,90,8|8,0:0|2:0,0:0:0:0:
240,252,45049,2,0,B|212:212|240:168,1,90,4|8,0:0|2:0,0:0:0:0:
256,152,45306,1,4,0:0:0:0:
208,60,45477,1,4,0:0:0:0:
128,104,45649,1,0,0:0:0:0:
100,112,45734,1,0,0:0:0:0:
76,120,45820,6,0,B|44:160|60:204,1,90,0|0,0:0|0:0,0:0:0:0:
223,196,45992,2,0,B|188:164|140:176,1,90,0|0,0:0|0:0,0:0:0:0:
59,317,46163,6,0,B|106:306|124:260,1,90,4|2,0:0|1:0,0:0:0:0:
208,232,46506,1,10,1:0:0:0:
280,284,46677,1,2,1:0:0:0:
456,40,46849,6,0,P|456:84|432:124,1,90,0|2,0:0|1:0,0:0:0:0:
344,140,47192,1,10,1:0:0:0:
288,72,47363,1,2,1:0:0:0:
0,56,47534,5,0,0:0:0:0:
88,36,47706,1,2,1:0:0:0:
172,72,47877,1,10,1:0:0:0:
200,160,48049,1,2,1:0:0:0:
168,244,48220,1,2,1:0:0:0:
88,284,48392,1,10,1:0:0:0:
0,260,48563,1,10,1:0:0:0:
260,224,48734,5,2,1:0:0:0:
260,224,48820,1,0,0:0:0:0:
260,224,48906,2,0,L|352:232,1,90,0|2,0:0|1:0,0:0:0:0:
472,52,49249,2,0,L|380:44,1,90,10|2,1:0|1:0,0:0:0:0:
420,268,49592,6,0,L|512:276,1,90,0|2,0:0|1:0,0:0:0:0:
312,8,49935,2,0,L|220:0,1,90,10|2,1:0|1:0,0:0:0:0:
28,92,50277,5,0,0:0:0:0:
12,180,50449,1,2,1:0:0:0:
116,144,50620,5,10,1:0:0:0:
100,232,50792,1,2,1:0:0:0:
220,96,50963,5,2,1:0:0:0:
204,184,51135,1,10,1:0:0:0:
308,148,51306,5,10,1:0:0:0:
292,236,51478,1,2,1:0:0:0:
280,324,51649,6,0,P|324:328|368:312,1,90,4|2,0:0|1:0,0:0:0:0:
452,288,51992,1,10,1:0:0:0:
408,208,52163,1,2,1:0:0:0:
332,0,52334,5,0,0:0:0:0:
465,16,52506,1,2,1:0:0:0:
384,124,52677,1,0,1:0:0:0:
180,0,53020,5,4,0:0:0:0:
47,16,53192,1,2,1:0:0:0:
128,124,53363,1,10,1:0:0:0:
64,188,53534,1,2,1:0:0:0:
40,272,53706,6,2,P|132:300|220:248,1,202.500007724762,0|0,0:0|0:0,0:0:0:0:
288,188,54049,6,0,B|312:228|304:276,1,90
400,336,54220,2,0,B|392:288|412:248,1,90
392,144,54392,5,6,0:0:0:0:
488,156,54563,1,2,0:0:0:0:
308,44,54734,1,2,0:0:0:0:
212,56,54905,1,2,0:0:0:0:
48,128,55077,5,2,0:0:0:0:
32,168,55163,1,2,0:0:0:0:
28,212,55249,1,2,0:0:0:0:
40,256,55334,1,2,0:0:0:0:
68,292,55420,1,2,0:0:0:0:
108,316,55506,1,2,0:0:0:0:
152,324,55592,1,2,0:0:0:0:
196,316,55677,1,2,0:0:0:0:
236,296,55763,5,0,0:0:0:0:
252,280,55849,2,0,L|264:184,1,90
280,176,56106,1,0,0:0:0:0:
404,24,56277,1,0,0:0:0:0:
412,76,56363,1,0,0:0:0:0:
420,128,56449,1,0,0:0:0:0:
428,180,56534,1,0,0:0:0:0:
436,232,56620,1,0,0:0:0:0:
444,284,56706,1,0,0:0:0:0:
452,336,56792,6,0,P|412:239|505:291,1,270.000010299683,0|4,0:0|0:0,0:0:0:0:
60,320,62620,6,0,L|48:252,1,67.5000025749208
64,236,62877,1,0,0:0:0:0:
80,220,62963,1,8,0:0:0:0:
100,120,63134,1,0,0:0:0:0:
140,132,63220,1,0,0:0:0:0:
180,132,63306,1,0,0:0:0:0:
216,116,63392,1,0,0:0:0:0:
240,84,63477,1,0,0:0:0:0:
419,28,63649,2,0,B|384:20|352:32,1,67.5000025749208,8|0,0:0|0:0,0:0:0:0:
340,44,63906,1,0,0:0:0:0:
332,60,63992,6,0,L|336:128,1,67.5000025749208
352,144,64249,1,0,0:0:0:0:
368,160,64334,1,8,0:0:0:0:
404,280,64506,2,0,L|336:288,1,67.5000025749208
332,304,64763,1,0,0:0:0:0:
324,320,64848,1,0,0:0:0:0:
316,336,64934,1,0,0:0:0:0:
308,352,65020,1,8,0:0:0:0:
112,356,65192,1,0,0:0:0:0:
104,340,65277,1,0,0:0:0:0:
96,324,65363,6,0,L|112:256,1,67.5000025749208,0|0,0:0|1:0,0:0:0:0:
128,240,65620,1,0,1:0:0:0:
140,220,65706,1,0,1:0:0:0:
144,196,65792,1,0,1:0:0:0:
140,172,65877,1,0,1:0:0:0:
132,148,65963,1,0,1:0:0:0:
116,128,66049,1,0,1:0:0:0:
164,140,66134,1,0,1:0:0:0:
216,136,66220,1,0,1:0:0:0:
260,112,66306,1,0,1:0:0:0:
292,72,66392,1,0,1:0:0:0:
336,44,66477,1,0,1:0:0:0:
388,44,66563,1,0,1:0:0:0:
436,60,66649,1,0,1:0:0:0:
472,96,66734,5,4,3:0:0:0:
232,356,67077,1,0,0:0:0:0:
112,36,67420,1,0,0:0:0:0:
264,184,67763,5,2,0:0:0:0:
56,340,68106,5,4,0:0:0:0:
28,120,68277,5,2,0:0:0:0:
100,156,68449,1,0,0:0:0:0:
180,144,68620,1,2,0:0:0:0:
248,100,68792,1,0,0:0:0:0:
320,64,68963,1,2,0:0:0:0:
400,84,69134,1,2,0:0:0:0:
348,352,69306,5,4,0:0:0:0:
456,144,69477,69,4,0:0:0:0:
392,192,69649,1,2,0:0:0:0:
316,216,69820,1,2,0:0:0:0:
0,104,69992,21,4,0:0:0:0:
236,196,70163,54,0,P|208:128|220:68,1,135.000005149842,4|0,0:0|0:0,0:0:0:0:
232,52,70420,2,0,P|284:12|352:8,1,135.000005149842,4|0,0:0|0:0,0:0:0:0:
372,12,70677,1,4,0:0:0:0:
472,300,70849,37,4,0:0:0:0:
444,52,71020,37,2,0:0:0:0:
468,128,71192,1,0,0:0:0:0:
456,208,71363,1,2,0:0:0:0:
392,256,71534,1,0,0:0:0:0:
320,216,71706,1,2,0:0:0:0:
240,212,71877,1,2,0:0:0:0:
20,36,72049,53,4,0:0:0:0:
168,252,72220,21,4,0:0:0:0:
92,280,72392,1,2,0:0:0:0:
20,244,72563,1,2,0:0:0:0:
328,60,72734,69,4,0:0:0:0:
8,164,72906,6,0,P|76:152|136:176,1,135.000005149842,4|0,0:0|0:0,0:0:0:0:
152,188,73163,2,0,P|192:244|192:312,1,135.000005149842,4|0,0:0|0:0,0:0:0:0:
188,328,73420,1,4,0:0:0:0:
272,360,73592,6,0,L|364:352,1,90,4|2,0:0|0:0,0:0:0:0:
481,260,73934,2,0,L|392:268,1,90,0|2,0:0|0:0,0:0:0:0:
296,172,74277,1,4,0:0:0:0:
280,144,74363,1,0,0:0:0:0:
276,112,74449,1,0,0:0:0:0:
280,80,74534,1,0,0:0:0:0:
296,52,74620,1,0,0:0:0:0:
320,32,74706,1,0,0:0:0:0:
352,24,74792,1,0,0:0:0:0:
384,24,74877,1,0,0:0:0:0:
416,32,74963,6,0,L|428:124,1,90,4|2,0:0|0:0,0:0:0:0:
319,273,75306,2,0,L|308:184,1,90,0|2,0:0|0:0,0:0:0:0:
172,164,75649,1,4,0:0:0:0:
144,152,75734,1,0,0:0:0:0:
112,156,75820,1,0,0:0:0:0:
84,168,75906,1,0,0:0:0:0:
60,188,75992,1,0,0:0:0:0:
44,212,76077,1,0,0:0:0:0:
40,244,76163,1,0,0:0:0:0:
44,276,76249,1,0,0:0:0:0:
56,304,76334,6,0,L|148:320,1,90,4|2,0:0|0:0,0:0:0:0:
456,304,76677,2,0,L|364:320,1,90,4|2,0:0|0:0,0:0:0:0:
156,216,77020,6,0,L|144:172,1,45,4|0,0:0|0:0,0:0:0:0:
368,172,77192,2,0,L|356:216,1,45
196,108,77363,2,0,L|208:64,1,45,4|0,0:0|0:0,0:0:0:0:
304,64,77534,2,0,L|316:108,1,45
324,188,77706,6,0,P|256:384|187:187,1,540.000020599366
256,276,78734,5,0,0:0:0:0:
8,80,79077,6,0,B|68:97|109:58|109:58|140:100,1,161.999995056153,4|0,0:0|0:0,0:0:0:0:
156,120,79420,2,0,P|212:128|256:104,1,107.999996704102,10|2,1:0|1:0,0:0:0:0:
496,80,79763,2,0,P|417:91|371:154,1,161.999995056153,2|0,1:0|0:0,0:0:0:0:
388,176,80106,2,0,P|408:228|400:284,1,107.999996704102,10|0,1:0|0:0,0:0:0:0:
280,328,80449,5,2,1:0:0:0:
252,332,80534,1,0,0:0:0:0:
224,336,80620,1,10,1:0:0:0:
20,252,80792,1,2,1:0:0:0:
48,248,80877,1,0,0:0:0:0:
76,244,80963,1,10,1:0:0:0:
168,29,81134,2,0,L|184:136,1,107.999996704102,2|0,1:0|0:0,0:0:0:0:
204,152,81392,1,0,0:0:0:0:
228,168,81477,2,0,L|243:274,1,107.999996704102,10|0,1:0|0:0,0:0:0:0:
340,352,81820,6,0,P|396:360|444:336,1,107.999996704102
468,4,82163,1,10,1:0:0:0:
392,16,82334,1,2,1:0:0:0:
336,68,82506,1,2,1:0:0:0:
316,140,82677,1,2,1:0:0:0:
332,216,82849,1,10,1:0:0:0:
380,276,83020,1,2,1:0:0:0:
452,300,83192,6,0,P|468:248|456:192,1,107.999996704102,2|0,1:0|0:0,0:0:0:0:
192,84,83534,2,0,P|176:136|188:192,1,107.999996704102,10|0,1:0|0:0,0:0:0:0:
116,336,83877,2,0,P|168:320|224:328,1,107.999996704102,2|2,1:0|1:0,0:0:0:0:
244,340,84134,1,2,1:0:0:0:
268,356,84220,2,0,P|321:362|372:346,1,107.999996704102,10|0,1:0|0:0,0:0:0:0:
492,144,84563,6,2,B|445:141|413:104|413:104|388:145|388:145|360:113|319:117,2,215.999993408203,6|10|2,0:0|0:0|0:0,0:0:0:0:
332,248,85420,1,2,1:0:0:0:
256,292,85592,1,10,1:0:0:0:
180,248,85763,1,2,1:0:0:0:
20,144,85934,2,0,B|66:141|98:104|98:104|123:145|123:145|151:113|192:117,1,215.999993408203,0|8,0:0|1:0,0:0:0:0:
256,56,86449,1,2,1:0:0:0:
320,112,86620,6,0,P|352:156|344:208,1,107.999996704102,2|8,1:0|1:0,0:0:0:0:
432,288,86877,2,0,L|444:180,1,107.999996704102,2|0,1:0|0:0,0:0:0:0:
452,104,87134,1,10,1:0:0:0:
240,196,87306,5,2,1:0:0:0:
212,200,87392,1,2,1:0:0:0:
184,204,87477,2,0,P|156:252|164:304,1,107.999996704102,2|8,1:0|1:0,0:0:0:0:
48,188,87820,2,0,P|48:132|15:91,1,107.999996704102
88,12,88163,1,0,1:0:0:0:
132,16,88249,1,0,1:0:0:0:
176,20,88334,1,0,1:0:0:0:
220,24,88420,1,0,1:0:0:0:
264,28,88506,1,0,1:0:0:0:
308,32,88592,1,0,1:0:0:0:
352,36,88677,6,0,L|360:92,1,53.9999983520508,4|0,1:0|0:0,0:0:0:0:
451,169,88849,2,0,L|443:115,1,53.9999983520508,0|0,1:0|0:0,0:0:0:0:
328,180,89020,1,0,1:0:0:0:
332,208,89106,1,0,0:0:0:0:
336,236,89192,1,0,0:0:0:0:
340,264,89277,1,0,0:0:0:0:
344,292,89363,6,0,L|288:300,1,53.9999983520508,4|0,1:0|0:0,0:0:0:0:
166,239,89534,2,0,L|220:232,1,53.9999983520508,0|0,1:0|0:0,0:0:0:0:
180,336,89706,1,2,2:0:0:0:
152,340,89792,1,2,2:0:0:0:
124,344,89877,1,2,2:0:0:0:
96,348,89963,1,2,2:0:0:0:
68,352,90049,6,0,B|24:304|40:252|40:252|0:216,1,161.999995056153,6|0,0:0|0:0,0:0:0:0:
16,192,90392,2,0,P|24:140|8:88,1,107.999996704102,10|0,0:0|0:0,0:0:0:0:
100,28,90734,1,2,0:0:0:0:
289,118,90906,2,0,L|184:96,1,107.999996704102,0|10,0:0|0:0,0:0:0:0:
264,24,91249,6,0,B|356:44|356:44|376:72|376:72|464:88,2,215.999993408203,2|6|6,0:0|0:0|0:0,0:0:0:0:
72,144,92106,5,4,0:0:0:0:
17,297,92277,1,0,0:0:0:0:
175,267,92449,1,12,0:0:0:0:
300,232,92620,5,0,0:0:0:0:
300,232,92706,1,0,0:0:0:0:
300,232,92792,2,0,L|408:252,1,107.999996704102,6|0,0:0|0:0,0:0:0:0:
476,104,93134,2,0,L|368:84,1,107.999996704102,10|0,0:0|0:0,0:0:0:0:
100,68,93477,2,0,P|184:76|240:28,2,161.999995056153,2|0|0,0:0|0:0|0:0,0:0:0:0:
104,176,94163,5,2,0:0:0:0:
201,223,94335,1,0,0:0:0:0:
186,330,94506,1,10,0:0:0:0:
79,349,94678,1,0,0:0:0:0:
28,253,94849,5,2,0:0:0:0:
112,96,95020,1,0,0:0:0:0:
256,364,95192,1,10,0:0:0:0:
324,4,95363,1,2,0:0:0:0:
460,176,95534,5,4,0:0:0:0:
396,88,95706,1,2,0:0:0:0:
396,88,95792,1,2,0:0:0:0:
396,88,95877,1,2,0:0:0:0:
504,72,96049,1,2,0:0:0:0:
108,184,96220,5,4,0:0:0:0:
7,227,96392,1,2,0:0:0:0:
7,227,96478,1,2,0:0:0:0:
7,227,96563,1,2,0:0:0:0:
94,295,96735,1,2,0:0:0:0:
428,256,96906,5,4,0:0:0:0:
508,330,97078,1,2,0:0:0:0:
508,330,97163,1,2,0:0:0:0:
508,330,97249,1,2,0:0:0:0:
403,365,97421,1,2,0:0:0:0:
24,108,97592,5,4,0:0:0:0:
10,0,97764,1,2,0:0:0:0:
10,0,97849,1,2,0:0:0:0:
10,0,97935,1,2,0:0:0:0:
113,41,98107,1,2,0:0:0:0:
200,152,98277,5,6,0:0:0:0:
240,172,98363,1,0,0:0:0:0:
284,176,98449,1,2,0:0:0:0:
324,164,98534,1,0,0:0:0:0:
360,144,98620,1,6,0:0:0:0:
384,108,98706,1,0,0:0:0:0:
416,80,98792,1,2,0:0:0:0:
460,80,98877,1,0,0:0:0:0:
496,100,98963,5,6,0:0:0:0:
508,140,99049,1,2,0:0:0:0:
492,180,99134,1,2,0:0:0:0:
452,196,99220,1,2,0:0:0:0:
412,176,99306,1,6,0:0:0:0:
396,136,99392,1,2,0:0:0:0:
412,96,99477,1,6,0:0:0:0:
404,52,99563,1,2,0:0:0:0:
376,28,99649,5,4,0:0:0:0:
76,84,99820,1,8,0:0:0:0:
276,320,100163,1,8,0:0:0:0:
340,108,100506,5,8,0:0:0:0:
512,123,100677,1,8,0:0:0:0:
497,294,100849,1,8,0:0:0:0:
324,279,101020,1,4,0:0:0:0:
256,192,101063,12,0,103763,0:0:0:0:
