osu file format v14

[General]
AudioFilename: Caramel Ribbon.mp3
AudioLeadIn: 1000
PreviewTime: 77686
Countdown: 0
SampleSet: Soft
StackLeniency: 0.7
Mode: 0
LetterboxInBreaks: 0
WidescreenStoryboard: 1

[Editor]
Bookmarks: 57114,62600,88829
DistanceSpacing: 1.4
BeatDivisor: 4
GridSize: 4
TimelineZoom: 1

[Metadata]
Title:caramel ribbon
TitleUnicode:caramel ribbon
Artist:P*Light
ArtistUnicode:P*Light
Creator:Reisen Udongein
Version:BASIC
Source:SOUND VOLTEX BOOTH
Tags:KONAMI BEMANI SDVX jubeat saucer
BeatmapID:356779
BeatmapSetID:56843

[Difficulty]
HPDrainRate:3
CircleSize:2
OverallDifficulty:3
ApproachRate:4
SliderMultiplier:1
SliderTickRate:2

[Events]
//Background and Video events
0,0,"Sweets.jpg",0,0
//Break Periods
2,2477,6443
2,57334,61300
//Storyboard Layer 0 (Background)
//Storyboard Layer 1 (Fail)
//Storyboard Layer 2 (Pass)
//Storyboard Layer 3 (Foreground)
//Storyboard Sound Samples

[TimingPoints]
906,342.857142857143,4,1,0,60,1,0
2620,-100,4,2,0,60,0,0
7763,-100,4,2,1,60,0,0
13249,-100,4,2,1,60,0,1
18049,-100,4,2,1,60,0,0
18734,-100,4,2,1,60,0,1
22849,-100,4,2,0,60,0,0
24220,-100,4,2,1,60,0,1
29020,-100,4,2,1,60,0,0
29706,-100,4,2,1,60,0,1
33820,-100,4,1,0,60,0,0
35191,-100,4,2,1,60,0,0
57220,-100,4,2,0,60,0,0
67763,-100,4,2,0,60,0,0
79077,-100,4,2,1,60,0,1
83877,-100,4,2,1,60,0,0
84563,-100,4,2,1,60,0,1
88677,-100,4,2,0,60,0,0
90049,-100,4,2,1,60,0,1
94849,-100,4,2,1,60,0,0
95534,-100,4,2,1,60,0,1
99649,-100,4,2,1,60,0,0
100977,-100,4,2,1,60,0,1
101063,-100,4,2,0,60,0,0

[Colours]
Combo1 : 255,181,70
Combo2 : 255,128,128
Combo3 : 60,255,108
Combo4 : 163,70,255
Combo5 : 255,91,173
Combo6 : 50,165,250

[HitObjects]
256,192,906,12,4,2277,0:0:0:0:
132,128,7763,6,0,B|176:60|232:88|256:52|256:52|280:88|336:60|380:128,1,300,6|8,0:0|0:0,0:0:0:0:
380,256,9134,2,0,B|336:324|280:296|256:332|256:332|232:296|176:324|132:256,1,300,2|8,0:0|0:0,0:0:0:0:
256,192,10506,12,0,11877,0:0:0:0:
108,96,12906,5,2,1:0:0:0:
108,96,13249,6,0,B|144:80|172:92|172:92|200:64,1,100,6|8,0:0|0:0,0:0:0:0:
316,68,13934,2,0,B|340:92|340:92|368:80|404:96,1,100,2|10,0:0|0:0,0:0:0:0:
396,216,14620,2,0,P|256:264|116:216,1,300,0|10,0:0|0:0,0:0:0:0:
144,120,15992,5,2,0:0:0:0:
208,44,16334,1,10,0:0:0:0:
308,44,16677,1,2,0:0:0:0:
368,120,17020,1,10,0:0:0:0:
380,220,17363,2,0,B|328:296|256:312|184:296|132:220,1,300,2|10,0:0|0:0,0:0:0:0:
108,120,18734,6,0,P|156:100|208:104,1,100,6|8,0:0|0:0,0:0:0:0:
300,124,19420,2,0,P|352:128|400:112,1,100,2|10,0:0|0:0,0:0:0:0:
496,104,20106,2,0,B|536:188|488:268|488:268|424:244|360:276,1,300,2|10,0:0|0:0,0:0:0:0:
268,308,21477,6,0,P|220:320|168:308,1,100,2|10,0:0|0:0,0:0:0:0:
120,224,22163,2,0,P|168:212|220:224,1,100,2|10,0:0|0:0,0:0:0:0:
256,192,22848,12,4,24219,0:0:0:0:
116,112,24906,5,2,0:0:0:0:
116,112,25592,2,0,B|184:92|184:92|256:148|328:92|328:92|396:112,1,300,2|10,0:0|0:0,0:0:0:0:
468,184,26963,6,0,P|484:232|476:280,1,100,2|10,0:0|0:0,0:0:0:0:
392,336,27649,2,0,P|376:288|384:240,1,100,2|10,0:0|0:0,0:0:0:0:
300,184,28334,2,0,P|156:152|32:232,1,300,2|10,0:0|0:0,0:0:0:0:
92,312,29706,6,0,B|214:290|214:290|257:307|257:307|391:283,1,300,6|10,0:0|0:0,0:0:0:0:
385,99,31077,2,0,B|257:76|257:76|214:93|214:93|92:72,1,300,6|10,0:0|0:0,0:0:0:0:
36,192,32449,5,6,0:0:0:0:
136,176,32792,1,10,0:0:0:0:
236,192,33134,1,6,0:0:0:0:
336,208,33477,1,10,0:0:0:0:
432,180,33820,2,0,L|456:80,2,100,2|2|2,0:0|0:0|0:0,0:0:0:0:
296,32,35192,6,0,L|196:44,1,100,6|8,0:0|0:0,0:0:0:0:
168,140,35877,2,0,L|268:128,1,100,2|10,0:0|0:0,0:0:0:0:
360,168,36563,1,2,0:0:0:0:
384,264,36906,1,10,0:0:0:0:
308,332,37249,2,0,P|256:344|208:332,1,100,2|10,0:0|0:0,0:0:0:0:
112,340,37934,6,0,B|112:260|84:192|84:192|112:124|112:44,1,300,2|10,0:0|0:0,0:0:0:0:
196,104,39306,2,0,P|248:112|300:100,1,100,2|10,0:0|0:0,0:0:0:0:
372,36,39992,2,0,P|420:28|476:48,1,100,2|10,0:0|0:0,0:0:0:0:
472,144,40677,6,0,P|480:192|464:244,1,100,6|10,0:0|0:0,0:0:0:0:
384,184,41363,2,0,P|368:232|376:280,1,100,2|10,0:0|0:0,0:0:0:0:
288,328,42049,1,2,0:0:0:0:
188,308,42392,1,10,0:0:0:0:
92,284,42734,2,0,L|76:180,1,100,2|10,0:0|0:0,0:0:0:0:
152,116,43420,6,0,B|220:56|292:116|292:116|364:176|432:116,1,300,2|10,0:0|0:0,0:0:0:0:
256,192,44792,12,4,46163,0:0:0:0:
256,56,46849,5,2,0:0:0:0:
308,248,47534,2,0,B|319:297|319:297|307:345,1,100,2|10,0:0|0:0,0:0:0:0:
207,345,48220,2,0,B|195:295|195:295|207:247,1,100,2|10,0:0|0:0,0:0:0:0:
160,160,48906,5,0,0:0:0:0:
360,160,49592,1,2,0:0:0:0:
412,352,50277,2,0,P|364:336|316:344,1,100,2|10,0:0|0:0,0:0:0:0:
220,368,50963,2,0,B|172:384|128:368|128:368|116:244,1,200,2|6,0:0|0:0,0:0:0:0:
80,64,52334,5,2,0:0:0:0:
168,116,52677,1,0,0:0:0:0:
264,92,53020,2,0,P|360:64|448:104,1,200,6|0,0:0|0:0,0:0:0:0:
388,296,54391,6,0,P|340:316|288:308,1,100,2|10,0:0|0:0,0:0:0:0:
204,268,55077,2,0,P|156:264|108:280,1,100,2|10,0:0|0:0,0:0:0:0:
256,192,55763,12,4,57134,0:0:0:0:
192,316,62620,6,0,B|124:272|152:216|116:192|116:192|152:168|124:112|192:68,1,300,2|2,0:0|0:0,0:0:0:0:
320,68,63991,2,0,B|388:112|360:168|396:192|396:192|360:216|388:272|320:316,1,300,2|2,0:0|0:0,0:0:0:0:
256,192,65363,12,0,66734,0:0:0:0:
0,120,68106,6,0,B|64:152|140:120|140:120|216:88|292:120,1,300,4|2,0:0|0:0,0:0:0:0:
408,100,69477,2,0,P|448:160|436:236,1,150,4|0,0:0|1:0,0:0:0:0:
400,268,70163,2,0,L|325:260,1,75,4|4,0:0|0:0,0:0:0:0:
236,276,70677,2,0,L|172:268,1,50,4|0,0:0|1:0,0:0:0:0:
60,52,72049,5,0,1:0:0:0:
60,52,72220,2,0,P|20:112|32:188,1,150,4|0,0:0|1:0,0:0:0:0:
68,220,72906,2,0,L|142:212,1,75,4|4,0:0|0:0,0:0:0:0:
232,232,73420,5,4,0:0:0:0:
232,232,73592,2,0,L|332:220,1,100,4|0,0:0|0:0,0:0:0:0:
376,108,74277,2,0,L|276:120,1,100,4|0,0:0|0:0,0:0:0:0:
156,119,74963,2,0,L|56:107,1,100,4|0,0:0|0:0,0:0:0:0:
4,216,75649,2,0,L|104:228,1,100,4|0,0:0|0:0,0:0:0:0:
256,192,76334,12,4,77706,0:0:0:0:
196,128,78392,5,2,2:0:0:0:
196,128,79077,6,0,P|176:84|196:40,1,100,6|10,0:0|0:0,0:0:0:0:
316,40,79763,2,0,P|336:84|316:128,1,100,2|10,0:0|0:0,0:0:0:0:
376,232,80449,2,0,B|316:300|316:300|256:280|196:300|196:300|136:232,1,300,2|10,0:0|0:0,0:0:0:0:
72,160,81820,5,2,0:0:0:0:
132,80,82163,1,10,0:0:0:0:
228,100,82506,2,0,P|280:96|328:88,1,100,2|10,0:0|0:0,0:0:0:0:
424,60,83192,2,0,B|472:232|380:168|440:360,1,300,2|10,0:0|0:0,0:0:0:0:
328,308,84563,6,0,P|184:344|40:300,1,300,6|10,0:0|0:0,0:0:0:0:
42,82,85934,2,0,P|184:39|328:76,1,300,2|10,0:0|0:0,0:0:0:0:
424,108,87306,6,0,P|440:156|432:208,1,100,2|10,0:0|0:0,0:0:0:0:
352,260,87992,2,0,P|336:213|342:163,1,100,2|10,0:0|0:0,0:0:0:0:
244,188,88677,2,0,L|144:196,1,100,2|0,0:0|0:0,0:0:0:0:
80,272,89363,1,2,0:0:0:0:
4,204,89706,1,2,0:0:0:0:
28,104,90049,6,0,B|104:128|160:84|160:84|224:72|264:120,1,250,6|0,0:0|0:0,0:0:0:0:
304,140,91077,2,0,L|360:132,1,50,2|2,0:0|0:0,0:0:0:0:
487,240,91592,2,0,L|388:248,1,100,6|2,0:0|0:0,0:0:0:0:
344,272,92106,2,0,L|294:275,2,50,6|4|6,0:0|0:0|0:0,0:0:0:0:
196,220,92792,6,0,P|200:172|184:120,1,100,6|10,0:0|0:0,0:0:0:0:
104,64,93477,2,0,P|56:56|4:68,1,100,2|10,0:0|0:0,0:0:0:0:
0,168,94163,2,0,L|4:280,3,100,2|10|2|10,0:0|0:0|0:0|0:0,0:0:0:0:
68,344,95534,5,4,0:0:0:0:
348,324,96220,5,4,0:0:0:0:
328,44,96906,5,4,0:0:0:0:
48,60,97591,5,4,0:0:0:0:
176,180,98277,6,0,B|180:220|200:248|200:248|192:280,1,100,2|10,0:0|0:0,0:0:0:0:
318,274,98963,2,0,B|312:248|312:248|332:220|336:180,1,100,2|10,0:0|0:0,0:0:0:0:
256,192,99649,12,4,101020,0:0:0:0:
