osu file format v14

[General]
AudioFilename: P-Light - YELLOW SPLASH!!.mp3
AudioLeadIn: 0
PreviewTime: 21316
Countdown: 0
SampleSet: Soft
StackLeniency: 0.7
Mode: 0
LetterboxInBreaks: 1
WidescreenStoryboard: 0

[Editor]
DistanceSpacing: 1
BeatDivisor: 8
GridSize: 4
TimelineZoom: 3.899998

[Metadata]
Title:YELLOW SPLASH!!
TitleUnicode:YELLOW SPLASH!!
Artist:P*Light
ArtistUnicode:P*Light
Creator:pota-row
Version:sugoi
Source:REFLEC BEAT groovin'!!
Tags:
BeatmapID:1206295
BeatmapSetID:568983

[Difficulty]
HPDrainRate:6
CircleSize:4
OverallDifficulty:7
ApproachRate:9
SliderMultiplier:1.8
SliderTickRate:1

[Events]
//Background and Video events
0,0,"BG (2).jpg",0,0
//Break Periods
//Storyboard Layer 0 (Background)
//Storyboard Layer 1 (Fail)
//Storyboard Layer 2 (Pass)
//Storyboard Layer 3 (Foreground)
//Storyboard Sound Samples

[TimingPoints]
1249,324.324324324324,4,2,1,100,1,0
1249,-142.857142857143,4,2,1,100,0,0
3681,-66.6666666666667,4,2,1,100,0,0
4005,-142.857142857143,4,2,1,100,0,0
6275,-71.4285714285714,4,2,1,100,0,0
6437,-100,4,2,1,100,0,0
9032,-50,4,2,1,70,0,0
9356,-100,4,2,1,70,0,0
10330,-100,4,1,1,60,0,0
10654,-100,4,1,1,50,0,0
10978,-100,4,1,1,40,0,0
11140,-66.6666666666667,4,2,1,100,0,0
11221,-100,4,2,1,100,0,0
11626,-100,4,2,1,100,0,0
11627,-100,4,2,1,100,0,0
20383,-50,4,2,1,100,0,0
20789,-100,4,2,1,100,0,0
21681,-100,4,2,1,100,0,0
25897,-58.8235294117647,4,2,1,100,0,0
26708,-100,4,2,1,100,0,0
29464,-52.6315789473684,4,2,1,100,0,0
29789,-100,4,2,1,100,0,0
31086,-100,4,2,1,65,0,0
32059,-79.9999999999999,4,2,1,65,0,0
32383,-100,4,2,1,100,0,0
34654,-50,4,2,1,100,0,0
35140,-100,4,2,1,100,0,0
36275,-52.6315789473684,4,2,1,100,0,0
36924,-66.6666666666667,4,2,1,100,0,0
37248,-83.3333333333333,4,2,1,70,0,0
37572,-100,4,2,1,100,0,0
40654,-83.3333333333333,4,2,1,100,0,0
41302,-76.9230769230769,4,2,1,100,0,0
41464,-200,4,2,1,100,0,0
41951,-62.5,4,2,1,100,0,0
42275,-100,4,2,1,100,0,0
42762,-100,4,2,1,100,0,1
62220,-200,4,2,1,100,0,0
63193,-50,4,2,1,100,0,0
63518,-100,4,2,1,100,0,0
72275,-71.4285714285714,4,2,1,100,0,0
72599,-200,4,2,1,60,0,0
73085,-200,4,2,1,5,0,0
73247,-66.6666666666667,4,2,1,100,0,0
73896,-100,4,2,1,100,0,0
76491,-62.5,4,2,1,100,0,0
77788,-100,4,2,1,100,0,0
79085,-400,4,2,1,5,0,0
80464,-200,4,2,1,20,0,0
80626,-133.333333333333,4,2,1,30,0,0
80788,-111.111111111111,4,2,1,40,0,0
80950,-79.9999999999999,4,2,1,50,0,0
81112,-66.6666666666667,4,2,1,60,0,0
81275,-50,4,2,1,70,0,0
81437,-50,4,2,1,80,0,0
81599,-50,4,2,1,90,0,0
81680,-66.6666666666667,4,2,1,100,0,0
82004,-100,4,2,1,100,0,0
82410,-66.6666666666667,4,2,1,100,0,0
82653,-83.3333333333333,4,2,1,100,0,0
83018,-83.3333333333333,4,2,1,5,0,0
83139,-83.3333333333333,4,2,1,100,0,0
83180,-83.3333333333333,4,2,1,5,0,0
83302,-83.3333333333333,4,2,1,100,0,0
83342,-83.3333333333333,4,2,1,5,0,0
83464,-83.3333333333333,4,2,1,100,0,0
83504,-83.3333333333333,4,2,1,5,0,0
83626,-83.3333333333333,4,2,1,100,0,0
83666,-83.3333333333333,4,2,1,5,0,0
83788,-100,4,2,1,100,0,0
83788,-83.3333333333333,4,2,1,100,0,0
83950,-83.3333333333333,4,2,1,100,0,0
84276,-100,4,2,1,60,0,0
85572,-100,4,2,1,100,0,0
86221,-100,4,2,1,30,0,0
86545,-66.6666666666667,4,2,1,100,0,0
86870,-66.6666666666667,4,2,1,100,0,1
87031,-100,4,2,1,100,0,1
88815,-62.5,4,2,1,100,0,1
89139,-100,4,2,1,100,0,1
92707,-76.9230769230769,4,2,1,100,0,1
93518,-100,4,2,1,100,0,1
94329,-66.6666666666667,4,2,1,100,0,1
94572,-66.6666666666667,4,2,1,5,0,1
94653,-100,4,2,1,100,0,1
98545,-58.8235294117647,4,2,1,100,0,1
99518,-100,4,2,1,100,0,1
102112,-66.6666666666667,4,2,1,100,0,1
102437,-100,4,2,1,100,0,1
103734,-58.8235294117647,4,2,1,100,0,1
104708,-100,4,2,1,100,0,1
105031,-100,4,2,1,100,0,0

[Colours]
Combo1 : 255,0,255
Combo2 : 255,255,0
Combo3 : 255,255,128
Combo4 : 255,128,64
Combo5 : 255,192,0
Combo6 : 128,64,0
Combo7 : 192,192,192
Combo8 : 128,128,128

[HitObjects]
188,272,600,5,2,0:0:0:0:
179,76,762,1,2,0:0:0:0:
299,231,924,1,2,0:0:0:0:
111,175,1086,1,2,0:0:0:0:
299,107,1249,69,2,0:0:0:0:
216,164,1572,1,2,0:0:0:0:
116,152,1897,1,2,0:0:0:0:
204,40,2059,37,0,0:0:0:0:
224,44,2140,1,2,0:0:0:0:
184,256,2303,5,0,0:0:0:0:
168,248,2383,2,0,L|36:244,1,125.999996154785,2|0,0:0|0:0,0:0:0:0:
128,128,2870,5,2,0:0:0:0:
160,352,3032,1,0,0:0:0:0:
272,176,3194,1,2,0:0:0:0:
56,248,3356,1,0,0:0:0:0:
56,248,3437,1,2,0:0:0:0:
280,296,3599,1,0,0:0:0:0:
280,296,3681,86,0,L|344:272,1,67.5000025749208,2|0,0:0|0:0,0:0:0:0:
492,216,3843,5,2,0:0:0:0:
384,172,4005,1,0,0:0:0:0:
285,234,4167,2,0,P|277:266|285:314,1,62.9999980773926,2|0,0:0|0:0,0:0:0:0:
380,376,4491,1,2,0:0:0:0:
480,316,4654,1,0,0:0:0:0:
480,316,4735,1,2,0:0:0:0:
284,232,4897,1,0,0:0:0:0:
284,232,4978,6,0,P|356:240|420:220,1,125.999996154785,2|0,0:0|0:0,0:0:0:0:
352,92,5464,2,0,P|340:128|344:168,1,62.9999980773926,2|0,0:0|0:0,0:0:0:0:
440,136,5789,1,2,0:0:0:0:
404,232,5951,1,0,0:0:0:0:
304,248,6113,1,2,0:0:0:0:
216,196,6275,22,0,P|208:160|212:124,1,62.9999980773926,2|0,0:0|0:0,0:0:0:0:
244,28,6437,53,4,0:0:0:0:
231,70,6519,1,0,0:0:0:0:
201,104,6599,1,0,0:0:0:0:
161,123,6681,1,0,0:0:0:0:
116,124,6761,1,2,0:0:0:0:
75,106,6842,1,0,0:0:0:0:
45,74,6924,2,0,P|36:48|36:16,1,45,2|0,0:0|0:0,0:0:0:0:
120,128,7086,2,0,L|127:177,3,45,2|0|2|0,0:0|0:0|0:0|0:0,0:0:0:0:
240,240,7411,2,0,L|232:180,3,45,2|0|2|0,0:0|0:0|0:0|0:0,0:0:0:0:
384,168,7736,6,0,P|332:156|284:112,1,90,4|2,0:0|0:0,0:0:0:0:
256,48,7978,1,0,0:0:0:0:
256,48,8059,2,0,P|232:80|176:112,1,90,2|2,0:0|0:0,0:0:0:0:
84,132,8302,1,0,0:0:0:0:
84,132,8384,2,0,L|8:108,1,45,2|0,0:0|0:0,0:0:0:0:
191,209,8545,2,0,L|233:195,1,45,2|0,0:0|0:0,0:0:0:0:
64,276,8708,2,0,L|0:260,3,45,2|0|2|0,0:0|0:0|0:0|0:0,0:0:0:0:
75,365,9033,6,0,B|140:344|140:344|188:352|188:352|256:328,1,180,4|0,0:0|0:0,0:0:0:0:
336,248,9275,1,0,0:0:0:0:
336,248,9356,2,0,L|328:312,1,45
336,104,9518,2,0,L|308:24,1,45
436,212,9681,2,0,L|488:248,1,45
272,176,9843,2,0,L|208:176,1,45
428,124,10005,2,0,L|468:84,3,45
352,176,10330,6,0,L|308:144,3,45
200,196,10654,2,0,L|240:216,3,45
104,228,10978,54,0,P|82:274|86:338,1,90,0|2,0:0|0:0,0:0:0:0:
106,350,11221,1,0,0:0:0:0:
106,350,11303,1,0,0:0:0:0:
240,216,11465,1,0,0:0:0:0:
364,336,11627,6,0,L|460:320,1,90,4|0,0:0|0:0,0:0:0:0:
360,184,11951,2,0,L|272:200,1,90,2|0,0:0|0:0,0:0:0:0:
200,368,12276,2,0,L|316:348,1,90,2|0,0:0|0:0,0:0:0:0:
272,200,12599,1,2,0:0:0:0:
116,168,12762,2,0,P|112:216|132:272,1,90,2|0,0:0|0:0,0:0:0:0:
272,200,13086,5,2,0:0:0:0:
300,368,13248,1,2,0:0:0:0:
152,264,13410,1,2,0:0:0:0:
376,280,13572,1,2,0:0:0:0:
256,116,13735,1,2,0:0:0:0:
272,324,13897,1,2,0:0:0:0:
376,144,14059,1,2,0:0:0:0:
184,224,14221,5,2,0:0:0:0:
376,280,14383,1,2,0:0:0:0:
412,272,14464,1,0,0:0:0:0:
448,264,14545,1,2,0:0:0:0:
344,68,14708,1,2,0:0:0:0:
272,160,14870,2,0,L|172:148,1,90,2|0,0:0|0:0,0:0:0:0:
60,68,15194,1,2,0:0:0:0:
184,148,15356,1,2,0:0:0:0:
340,120,15518,1,2,0:0:0:0:
416,8,15681,6,0,L|428:56,2,45,2|0|2,0:0|0:0|0:0,0:0:0:0:
264,104,16005,2,0,L|272:48,2,45,2|0|2,0:0|0:0|0:0,0:0:0:0:
380,212,16329,1,2,0:0:0:0:
280,312,16491,2,0,L|172:304,1,90,2|0,0:0|0:0,0:0:0:0:
304,224,16816,6,0,P|380:268|348:372,1,180,6|2,0:0|0:0,0:0:0:0:
280,312,17303,1,0,0:0:0:0:
212,212,17464,2,0,L|220:104,1,90,2|0,0:0|0:0,0:0:0:0:
296,32,17789,1,2,0:0:0:0:
372,232,17951,1,2,0:0:0:0:
388,136,18113,54,0,P|340:140|284:168,1,90,4|0,0:0|0:0,0:0:0:0:
164,300,18437,2,0,P|96:304|56:288,1,90,2|2,0:0|0:0,0:0:0:0:
164,100,18762,1,2,0:0:0:0:
272,272,18924,1,2,0:0:0:0:
92,204,19086,1,2,0:0:0:0:
276,136,19248,1,2,0:0:0:0:
164,300,19411,53,6,0:0:0:0:
124,279,19491,1,0,0:0:0:0:
97,243,19572,1,2,0:0:0:0:
87,199,19653,1,0,0:0:0:0:
97,156,19734,1,2,0:0:0:0:
124,120,19815,1,0,0:0:0:0:
164,99,19897,2,0,L|224:96,1,45,2|0,0:0|0:0,0:0:0:0:
380,84,20059,2,0,P|344:104|328:136,1,45,6|0,0:0|0:0,0:0:0:0:
272,212,20221,2,0,L|272:148,1,45,2|0,0:0|0:0,0:0:0:0:
268,0,20384,2,0,L|268:72,8,45,2|0|0|0|0|0|2|0|4,0:0|0:0|0:0|0:0|0:0|0:0|0:0|0:0|0:0,0:0:0:0:
156,144,20870,54,0,L|152:84,2,45,2|0|2,0:0|0:0|0:0,0:0:0:0:
336,192,21194,2,0,L|332:240,2,45,2|0|2,0:0|0:0|0:0,0:0:0:0:
328,80,21518,1,2,0:0:0:0:
204,260,21681,1,0,0:0:0:0:
328,80,21843,2,0,L|296:144,1,45,2|0,0:0|0:0,0:0:0:0:
204,260,22005,54,0,P|200:216|160:160,1,90,4|0,0:0|0:0,0:0:0:0:
384,300,22329,2,0,P|360:340|348:388,1,90,2|0,0:0|0:0,0:0:0:0:
204,260,22654,1,2,0:0:0:0:
308,144,22816,2,0,L|416:136,1,90,2|0,0:0|0:0,0:0:0:0:
204,260,23140,54,0,L|320:252,1,90,2|0,0:0|0:0,0:0:0:0:
96,376,23464,2,0,L|212:368,1,90,2|0,0:0|0:0,0:0:0:0:
293,253,23789,1,2,0:0:0:0:
144,108,23951,1,2,0:0:0:0:
96,296,24113,1,2,0:0:0:0:
144,108,24275,2,0,L|244:100,1,90,2|0,0:0|0:0,0:0:0:0:
368,180,24599,53,2,0:0:0:0:
260,312,24762,1,2,0:0:0:0:
236,284,24843,1,0,0:0:0:0:
228,248,24924,1,2,0:0:0:0:
328,84,25086,1,2,0:0:0:0:
452,232,25248,2,0,P|424:272|412:336,1,90,2|0,0:0|0:0,0:0:0:0:
272,179,25572,2,0,P|259:136|232:99,1,90,2|0,0:0|0:0,0:0:0:0:
160,200,25897,54,0,P|120:256|152:344,1,153.000002918243,2|2,0:0|0:0,0:0:0:0:
200,292,26140,1,0,0:0:0:0:
188,280,26221,2,0,P|124:256|64:352,1,153.000002918243,2|2,0:0|0:0,0:0:0:0:
127,348,26464,1,0,0:0:0:0:
139,332,26545,2,0,P|127:252|64:228,1,153.000002918243,2|0,0:0|0:0,0:0:0:0:
32,104,26870,1,2,0:0:0:0:
120,80,27032,1,2,0:0:0:0:
208,60,27194,69,4,0:0:0:0:
132,12,27518,1,2,0:0:0:0:
88,92,27843,1,2,0:0:0:0:
256,208,28005,22,0,L|352:176,1,90,2|0,0:0|0:0,0:0:0:0:
392,4,28329,85,2,0:0:0:0:
464,68,28654,1,2,0:0:0:0:
416,144,28978,54,0,L|340:136,1,45,2|0,0:0|0:0,0:0:0:0:
280,176,29140,2,0,L|192:164,1,45,2|0,0:0|0:0,0:0:0:0:
144,200,29302,2,0,L|56:188,1,45,2|0,0:0|0:0,0:0:0:0:
84,208,29465,86,0,P|156:140|140:264,1,256.499993150711,4|0,0:0|0:0,0:0:0:0:
144,200,29789,37,2,0:0:0:0:
188,194,29870,1,0,0:0:0:0:
233,189,29951,1,2,0:0:0:0:
278,183,30032,1,0,0:0:0:0:
312,212,30113,1,2,0:0:0:0:
356,206,30194,1,0,0:0:0:0:
401,201,30275,1,2,0:0:0:0:
446,195,30356,1,0,0:0:0:0:
488,216,30437,2,0,L|476:160,1,45,2|0,0:0|0:0,0:0:0:0:
388,152,30599,2,0,L|400:208,1,45,2|0,0:0|0:0,0:0:0:0:
296,176,30762,2,0,L|284:120,1,45,2|0,0:0|0:0,0:0:0:0:
196,112,30924,2,0,L|208:168,1,45,2|0,0:0|0:0,0:0:0:0:
272,344,31086,5,4,0:0:0:0:
344,244,31248,2,0,L|280:232,2,45,2|0|4,0:0|0:0|0:0,0:0:0:0:
416,136,31573,2,0,L|360:124,2,45,2|0|4,0:0|0:0|0:0,0:0:0:0:
176,80,31897,6,0,P|204:84|240:96,1,45,2|0,0:0|0:0,0:0:0:0:
248,124,32059,2,0,P|196:80|76:124,1,168.75,2|0,0:0|0:0,0:0:0:0:
24,144,32383,53,4,0:0:0:0:
104,216,32546,1,0,0:0:0:0:
148,208,32627,1,0,0:0:0:0:
192,200,32708,1,0,0:0:0:0:
184,300,32870,1,0,0:0:0:0:
228,292,32952,1,0,0:0:0:0:
272,284,33032,2,0,L|320:272,1,45,2|0,0:0|0:0,0:0:0:0:
435,327,33194,2,0,L|392:340,1,45,2|0,0:0|0:0,0:0:0:0:
496,232,33356,2,0,P|500:168|444:100,1,135,2|0,0:0|0:0,0:0:0:0:
388,60,33681,5,6,0:0:0:0:
340,168,33843,1,0,0:0:0:0:
352,212,33924,1,0,0:0:0:0:
364,256,34005,1,0,0:0:0:0:
192,144,34167,1,0,0:0:0:0:
204,100,34248,1,0,0:0:0:0:
216,56,34329,2,0,B|236:62|236:62|264:76,1,45,2|0,0:0|0:0,0:0:0:0:
352,212,34491,2,0,L|412:180,1,45,2|0,0:0|0:0,0:0:0:0:
468,96,34654,86,0,B|412:72|380:40|380:40|328:64|328:64|324:132|280:160|208:140,1,270,2|0,0:0|0:0,0:0:0:0:
180,120,34978,37,4,0:0:0:0:
76,192,35140,2,0,L|80:260,2,45,2|0|2,0:0|0:0|0:0,0:0:0:0:
100,0,35465,1,2,0:0:0:0:
144,8,35545,1,0,0:0:0:0:
188,16,35627,2,0,L|248:32,1,45,2|0,0:0|0:0,0:0:0:0:
256,124,35789,2,0,L|196:108,1,45,2|0,0:0|0:0,0:0:0:0:
236,216,35951,2,0,L|296:232,1,45,2|0,0:0|0:0,0:0:0:0:
312,332,36113,2,0,L|252:316,1,45,2|0,0:0|0:0,0:0:0:0:
180,280,36276,70,0,P|84:272|32:352,1,170.999995433807,4|2,0:0|0:0,0:0:0:0:
102,371,36518,1,0,0:0:0:0:
112,356,36599,2,0,P|76:256|-12:252,1,170.999995433807,2|2,0:0|0:0,0:0:0:0:
25,327,36843,1,0,0:0:0:0:
40,328,36924,2,0,B|92:288|92:288|164:284|164:284|256:220,1,202.500007724762,2|0,0:0|0:0,0:0:0:0:
272,156,37248,2,0,L|264:88,3,53.9999983520508,4|0|0|0,0:0|0:0|0:0|0:0,0:0:0:0:
356,168,37572,5,2,0:0:0:0:
337,208,37653,1,0,0:0:0:0:
300,233,37734,1,2,0:0:0:0:
256,236,37815,1,0,0:0:0:0:
217,215,37897,1,2,0:0:0:0:
179,192,37978,1,0,0:0:0:0:
134,189,38059,1,2,0:0:0:0:
94,209,38140,1,0,0:0:0:0:
69,246,38221,2,0,P|63:272|60:304,1,45,2|0,0:0|0:0,0:0:0:0:
209,369,38383,2,0,L|198:308,1,45,2|0,0:0|0:0,0:0:0:0:
361,228,38545,1,2,0:0:0:0:
358,250,38626,1,0,0:0:0:0:
356,272,38707,1,2,0:0:0:0:
354,295,38788,1,0,0:0:0:0:
352,317,38870,54,0,L|356:376,3,45,2|0|0|0,0:0|0:0|0:0|0:0,0:0:0:0:
260,252,39194,2,0,L|256:192,3,45,2|0|0|0,0:0|0:0|0:0|0:0,0:0:0:0:
358,160,39518,1,2,0:0:0:0:
377,119,39599,1,0,0:0:0:0:
376,75,39680,1,2,0:0:0:0:
355,35,39761,1,0,0:0:0:0:
319,9,39843,2,0,L|242:19,1,45,2|0,0:0|0:0,0:0:0:0:
197,119,40005,2,0,L|113:136,1,45,2|0,0:0|0:0,0:0:0:0:
88,204,40167,53,2,0:0:0:0:
46,187,40248,1,0,0:0:0:0:
23,150,40330,1,0,0:0:0:0:
27,106,40410,1,0,0:0:0:0:
56,73,40492,2,0,L|120:60,3,45,2|0|2|0,0:0|0:0|0:0|0:0,0:0:0:0:
188,128,40816,5,2,0:0:0:0:
196,126,40897,1,0,0:0:0:0:
205,125,40978,1,2,0:0:0:0:
214,124,41059,1,0,0:0:0:0:
223,123,41140,2,0,L|280:112,3,53.9999983520508,2|0|2|0,0:0|0:0|0:0|0:0,0:0:0:0:
384,192,41465,54,0,L|264:212,1,112.5
296,300,41951,22,0,P|216:228|80:272,1,216,4|0,0:0|0:0,0:0:0:0:
32,340,42275,2,0,P|16:316|4:276,1,45,2|0,0:0|0:0,0:0:0:0:
40,108,42437,5,4,0:0:0:0:
188,260,42762,6,0,L|292:244,1,90,4|0,0:0|0:0,0:0:0:0:
360,152,43086,1,2,0:0:0:0:
240,56,43248,2,0,P|224:100|232:156,1,90,2|0,0:0|0:0,0:0:0:0:
332,332,43573,1,2,0:0:0:0:
392,188,43735,1,2,0:0:0:0:
228,144,43897,1,2,0:0:0:0:
228,144,43978,1,0,0:0:0:0:
228,144,44059,6,0,L|112:164,1,90,2|0,0:0|0:0,0:0:0:0:
68,328,44383,1,2,0:0:0:0:
256,380,44545,2,0,P|252:320|232:272,1,90,2|0,0:0|0:0,0:0:0:0:
140,160,44870,1,2,0:0:0:0:
96,172,44951,1,0,0:0:0:0:
68,204,45032,1,2,0:0:0:0:
180,340,45194,1,0,0:0:0:0:
272,168,45356,5,2,0:0:0:0:
280,364,45518,1,0,0:0:0:0:
184,208,45681,1,2,0:0:0:0:
372,304,45843,1,0,0:0:0:0:
184,296,46005,1,2,0:0:0:0:
344,376,46166,2,0,L|456:348,1,90,2|0,0:0|0:0,0:0:0:0:
260,204,46491,2,0,L|148:224,1,90,2|0,0:0|0:0,0:0:0:0:
432,132,46816,6,0,P|428:84|408:32,1,90,2|0,0:0|0:0,0:0:0:0:
260,204,47140,2,0,P|260:248|280:312,1,90,2|0,0:0|0:0,0:0:0:0:
172,128,47464,1,2,0:0:0:0:
128,104,47545,1,0,0:0:0:0:
80,112,47627,1,2,0:0:0:0:
0,216,47789,1,0,0:0:0:0:
80,304,47951,54,0,L|180:280,1,90,4|0,0:0|0:0,0:0:0:0:
252,128,48275,1,2,0:0:0:0:
332,184,48437,2,0,L|456:160,1,90,2|0,0:0|0:0,0:0:0:0:
320,48,48762,2,0,L|196:24,1,90,2|0,0:0|0:0,0:0:0:0:
132,216,49086,1,2,0:0:0:0:
132,216,49167,1,0,0:0:0:0:
132,216,49248,6,0,P|112:168|112:104,1,90,2|0,0:0|0:0,0:0:0:0:
280,256,49572,2,0,P|275:307|245:364,1,90,2|0,0:0|0:0,0:0:0:0:
156,288,49897,1,2,0:0:0:0:
296,136,50059,1,2,0:0:0:0:
340,160,50140,1,0,0:0:0:0:
360,204,50221,1,2,0:0:0:0:
264,340,50383,1,0,0:0:0:0:
188,140,50546,5,2,0:0:0:0:
292,256,50708,1,0,0:0:0:0:
288,48,50870,1,2,0:0:0:0:
236,200,51032,1,0,0:0:0:0:
188,0,51194,1,2,0:0:0:0:
332,128,51356,1,0,0:0:0:0:
260,252,51518,1,2,0:0:0:0:
226,281,51599,1,0,0:0:0:0:
184,295,51681,1,2,0:0:0:0:
139,290,51761,1,0,0:0:0:0:
101,268,51843,6,0,L|92:216,3,45,6|0|0|0,0:0|0:0|0:0|0:0,0:0:0:0:
204,124,52167,2,0,L|192:192,3,45,2|0|0|0,0:0|0:0|0:0|0:0,0:0:0:0:
272,344,52491,2,0,L|262:291,1,45,2|0,0:0|0:0,0:0:0:0:
374,199,52654,2,0,L|362:267,1,45
280,176,52816,1,2,0:0:0:0:
249,143,52897,1,0,0:0:0:0:
239,100,52978,1,0,0:0:0:0:
254,58,53059,1,0,0:0:0:0:
288,28,53140,6,0,L|396:32,1,90,4|0,0:0|0:0,0:0:0:0:
168,140,53464,2,0,L|258:143,1,90,2|0,0:0|0:0,0:0:0:0:
68,252,53788,2,0,L|172:256,1,90,2|2,0:0|0:0,0:0:0:0:
224,316,54031,1,0,0:0:0:0:
224,316,54112,2,0,P|276:320|324:308,1,90,2|0,0:0|0:0,0:0:0:0:
424,228,54438,53,0,0:0:0:0:
304,128,54599,2,0,P|276:180|268:244,1,90,2|0,0:0|0:0,0:0:0:0:
256,304,54843,2,0,P|200:272|136:268,1,90,2|0,0:0|0:0,0:0:0:0:
104,292,55085,1,2,0:0:0:0:
200,124,55247,1,0,0:0:0:0:
368,208,55410,1,2,0:0:0:0:
392,244,55491,1,0,0:0:0:0:
396,288,55572,1,2,0:0:0:0:
196,384,55734,6,0,L|84:364,1,90,2|0,0:0|0:0,0:0:0:0:
312,292,56058,2,0,L|212:280,1,90,2|0,0:0|0:0,0:0:0:0:
416,200,56383,2,0,L|324:192,1,90,2|2,0:0|0:0,0:0:0:0:
264,128,56626,1,0,0:0:0:0:
264,128,56707,2,0,P|204:120|156:144,1,90,2|0,0:0|0:0,0:0:0:0:
80,248,57031,5,0,0:0:0:0:
212,352,57193,2,0,P|220:304|208:244,1,90,2|0,0:0|0:0,0:0:0:0:
160,192,57437,2,0,P|140:144|144:92,1,90,2|0,0:0|0:0,0:0:0:0:
192,32,57680,1,2,0:0:0:0:
304,168,57842,1,0,0:0:0:0:
180,300,58004,1,2,0:0:0:0:
136,312,58085,1,0,0:0:0:0:
92,300,58166,2,0,P|68:284|56:264,1,45,2|0,0:0|0:0,0:0:0:0:
140,184,58329,6,0,L|132:256,3,45,4|0|0|0,0:0|0:0|0:0|0:0,0:0:0:0:
80,108,58653,2,0,L|76:56,3,45,2|0|0|0,0:0|0:0|0:0|0:0,0:0:0:0:
168,108,58977,5,2,0:0:0:0:
212,105,59058,1,0,0:0:0:0:
257,102,59139,1,0,0:0:0:0:
302,100,59220,1,0,0:0:0:0:
332,136,59303,53,2,0:0:0:0:
376,133,59383,1,0,0:0:0:0:
421,130,59464,1,0,0:0:0:0:
466,128,59545,1,0,0:0:0:0:
500,160,59626,22,0,L|492:96,3,45,4|0|0|0,0:0|0:0|0:0|0:0,0:0:0:0:
424,232,59950,2,0,L|432:300,3,45,2|0|0|0,0:0|0:0|0:0|0:0,0:0:0:0:
336,372,60275,6,0,L|336:300,1,45,2|0,0:0|0:0,0:0:0:0:
256,264,60437,6,0,L|176:268,1,45
280,144,60600,54,0,L|312:192,1,45,2|0,0:0|0:0,0:0:0:0:
408,184,60761,6,0,L|428:136,1,45
440,312,60924,6,0,L|396:288,3,45,6|0|0|0,0:0|0:0|0:0|0:0,0:0:0:0:
312,224,61248,6,0,L|264:244,3,45,6|0|0|0,0:0|0:0|0:0|0:0,0:0:0:0:
208,316,61572,5,4,0:0:0:0:
194,298,61654,1,0,0:0:0:0:
175,286,61734,1,2,0:0:0:0:
153,281,61815,1,0,0:0:0:0:
131,283,61897,1,6,0:0:0:0:
110,293,61977,1,0,0:0:0:0:
95,309,62058,1,2,0:0:0:0:
85,329,62139,1,0,0:0:0:0:
83,352,62221,6,0,B|67:299|91:255|91:255|63:239|63:239|35:283,1,180,4|0,0:0|0:0,0:0:0:0:
37,280,63193,22,0,B|96:268|96:268|132:276|132:276|164:260|164:260|220:288|264:240|316:272,1,270,2|0,0:0|0:0,0:0:0:0:
356,324,63518,5,4,0:0:0:0:
388,136,63680,1,0,0:0:0:0:
468,240,63842,1,2,0:0:0:0:
252,196,64005,2,0,L|260:248,2,45,2|0|2,0:0|0:0|0:0,0:0:0:0:
312,72,64328,1,0,0:0:0:0:
452,176,64491,1,2,0:0:0:0:
416,148,64572,1,0,0:0:0:0:
372,146,64653,1,2,0:0:0:0:
334,168,64734,1,0,0:0:0:0:
315,208,64815,5,2,0:0:0:0:
368,316,64978,2,0,L|372:364,2,45,2|0|2,0:0|0:0|0:0,0:0:0:0:
464,224,65303,2,0,L|460:160,2,45,2|0|2,0:0|0:0|0:0,0:0:0:0:
360,108,65626,1,0,0:0:0:0:
264,276,65788,1,2,0:0:0:0:
259,231,65869,1,0,0:0:0:0:
255,186,65950,1,2,0:0:0:0:
250,141,66031,1,0,0:0:0:0:
246,96,66112,5,2,0:0:0:0:
120,44,66275,1,0,0:0:0:0:
96,232,66437,2,0,L|192:208,1,90,2|2,0:0|0:0,0:0:0:0:
336,128,66762,2,0,L|388:144,2,45,2|0|2,0:0|0:0|0:0,0:0:0:0:
312,216,67085,1,2,0:0:0:0:
271,197,67166,1,0,0:0:0:0:
245,161,67247,1,2,0:0:0:0:
239,117,67328,1,0,0:0:0:0:
255,76,67409,5,2,0:0:0:0:
428,168,67573,2,0,L|420:240,2,45,2|0|2,0:0|0:0|0:0,0:0:0:0:
255,76,67897,2,0,L|264:28,2,45,2|0|2,0:0|0:0|0:0,0:0:0:0:
400,32,68220,1,2,0:0:0:0:
332,176,68383,1,2,0:0:0:0:
287,170,68464,1,0,0:0:0:0:
248,192,68545,1,2,0:0:0:0:
203,186,68626,1,0,0:0:0:0:
164,208,68707,5,2,0:0:0:0:
236,316,68869,2,0,L|336:296,1,90,2|0,0:0|0:0,0:0:0:0:
440,232,69194,2,0,L|448:300,2,45,2|0|2,0:0|0:0|0:0,0:0:0:0:
312,140,69519,1,0,0:0:0:0:
412,32,69681,2,0,L|420:100,2,45,2|0|2,0:0|0:0|0:0,0:0:0:0:
276,136,70005,54,0,L|268:84,2,45,2|0|2,0:0|0:0|0:0,0:0:0:0:
304,276,70330,1,0,0:0:0:0:
112,184,70492,1,2,0:0:0:0:
104,140,70573,1,0,0:0:0:0:
96,96,70654,1,2,0:0:0:0:
136,328,70815,1,0,0:0:0:0:
224,224,70978,1,2,0:0:0:0:
268,218,71058,1,0,0:0:0:0:
313,213,71140,1,2,0:0:0:0:
358,207,71220,1,0,0:0:0:0:
402,202,71301,5,2,0:0:0:0:
480,84,71464,1,2,0:0:0:0:
336,28,71626,1,0,0:0:0:0:
232,156,71788,1,2,0:0:0:0:
228,200,71869,1,0,0:0:0:0:
248,240,71950,1,2,0:0:0:0:
392,336,72112,1,0,0:0:0:0:
496,220,72275,2,0,L|400:204,1,62.9999980773926,2|0,0:0|0:0,0:0:0:0:
360,140,72437,2,0,L|288:168,1,62.9999980773926,2|0,0:0|0:0,0:0:0:0:
268,248,72599,54,0,B|216:256|216:256|168:236|168:236|160:272|160:272|184:264|192:272,1,157.5,4|0,0:0|0:0,0:0:0:0:
175,268,73247,22,0,B|200:248|200:248|236:280|236:280|268:248|268:248|352:240,1,202.500007724762
434,192,73572,2,0,L|500:208,3,67.5000025749208,2|0|2|0,0:0|0:0|0:0|0:0,0:0:0:0:
360,128,73896,5,4,0:0:0:0:
324,155,73977,1,0,0:0:0:0:
307,196,74058,1,0,0:0:0:0:
314,240,74139,1,0,0:0:0:0:
341,275,74220,2,0,L|408:272,3,45,2|0|0|0,0:0|0:0|0:0|0:0,0:0:0:0:
292,344,74545,1,2,0:0:0:0:
247,338,74626,1,0,0:0:0:0:
202,333,74707,1,0,0:0:0:0:
157,328,74788,1,0,0:0:0:0:
113,323,74869,2,0,L|56:352,3,45,2|0|0|0,0:0|0:0|0:0|0:0,0:0:0:0:
192,244,75193,5,2,0:0:0:0:
227,216,75274,1,0,0:0:0:0:
244,175,75355,1,0,0:0:0:0:
237,131,75436,1,0,0:0:0:0:
210,96,75517,2,0,L|143:99,3,45,2|0|0|0,0:0|0:0|0:0|0:0,0:0:0:0:
292,32,75842,2,0,L|358:35,3,45,2|0|0|0,0:0|0:0|0:0|0:0,0:0:0:0:
436,80,76166,1,2,0:0:0:0:
395,97,76247,1,0,0:0:0:0:
365,131,76328,1,0,0:0:0:0:
354,174,76409,1,0,0:0:0:0:
364,220,76491,6,0,P|388:281|360:372,1,144,6|2,0:0|0:0,0:0:0:0:
352,376,76734,1,0,0:0:0:0:
352,376,76815,6,0,P|284:344|192:364,1,144,2|2,0:0|0:0,0:0:0:0:
192,364,77058,1,0,0:0:0:0:
192,364,77139,6,0,P|112:380|40:352,1,144,4|2,0:0|0:0,0:0:0:0:
40,336,77383,1,0,0:0:0:0:
40,336,77464,54,0,P|60:260|32:184,1,144,2|0,0:0|0:0,0:0:0:0:
28,176,77707,1,0,0:0:0:0:
44,152,77788,5,4,0:0:0:0:
88,145,77869,1,0,0:0:0:0:
132,138,77950,1,0,0:0:0:0:
177,131,78031,1,0,0:0:0:0:
212,160,78112,5,4,0:0:0:0:
256,153,78193,1,0,0:0:0:0:
300,146,78274,1,0,0:0:0:0:
345,139,78355,1,0,0:0:0:0:
372,104,78444,6,0,L|424:92,3,45,6|0|6|0,0:0|0:0|0:0|0:0,0:0:0:0:
360,188,78762,6,0,L|408:176,3,45,6|0|6|0,0:0|0:0|0:0|0:0,0:0:0:0:
348,272,79085,6,0,L|528:232,1,180,4|2,0:0|0:0,0:0:0:0:
508,220,80465,6,0,L|512:184,14,22.5,0|2|0|0|0|0|0|0|0|0|0|0|0|0|0,0:0|0:0|0:0|0:0|0:0|0:0|0:0|0:0|0:0|0:0|0:0|0:0|0:0|0:0|0:0,0:0:0:0:
512,240,81680,6,0,P|436:224|352:256,1,135.000005149842,4|2,0:0|0:0,0:0:0:0:
304,300,81923,1,0,0:0:0:0:
296,320,82004,2,0,L|300:376,2,45,2|0|2,0:0|0:0|0:0,0:0:0:0:
324,192,82329,1,4,0:0:0:0:
332,172,82410,2,0,L|316:36,1,135.000005149842,2|0,0:0|0:0,0:0:0:0:
236,108,82653,2,0,L|244:164,2,53.9999983520508,2|0|2,0:0|0:0|0:0,0:0:0:0:
224,308,82977,6,0,L|208:340,1,26.9999991760254,2|0,0:0|0:0,0:0:0:0:
385,179,83139,6,0,L|416:168,1,26.9999991760254,2|0,0:0|0:0,0:0:0:0:
192,183,83302,22,0,L|144:176,1,26.9999991760254,2|0,0:0|0:0,0:0:0:0:
356,308,83464,6,0,L|368:336,1,26.9999991760254,2|0,0:0|0:0,0:0:0:0:
292,108,83626,54,0,L|292:72,1,26.9999991760254,2|0,0:0|0:0,0:0:0:0:
288,220,83788,5,2,0:0:0:0:
290,235,83869,1,0,0:0:0:0:
293,250,83950,2,0,L|264:125,1,107.999996704102,4|0,0:0|0:0,0:0:0:0:
234,0,84275,53,2,0:0:0:0:
185,71,84599,1,2,0:0:0:0:
102,96,84923,1,2,0:0:0:0:
19,71,85247,1,6,0:0:0:0:
116,262,85410,22,0,L|208:248,1,90,6|0,0:0|0:0,0:0:0:0:
287,211,85734,85,2,0:0:0:0:
348,263,85896,1,2,0:0:0:0:
311,335,86058,1,2,0:0:0:0:
232,324,86221,1,0,0:0:0:0:
232,324,86545,22,0,B|292:336|292:336|368:312|368:312|444:328,1,202.500007724762,2|0,0:0|0:0,0:0:0:0:
428,324,86870,5,4,0:0:0:0:
360,204,87031,1,2,0:0:0:0:
336,164,87112,1,0,0:0:0:0:
340,120,87193,1,2,0:0:0:0:
416,16,87356,1,2,0:0:0:0:
508,140,87518,2,0,L|412:132,1,90,2|0,0:0|0:0,0:0:0:0:
324,216,87842,1,2,0:0:0:0:
240,24,88004,1,0,0:0:0:0:
172,136,88166,6,0,P|148:180|148:252,1,90,2|2,0:0|0:0,0:0:0:0:
272,284,88410,1,0,0:0:0:0:
272,284,88491,2,0,P|252:240|216:204,1,90,2|2,0:0|0:0,0:0:0:0:
144,220,88734,1,0,0:0:0:0:
144,220,88815,2,0,L|292:196,1,144,2|0,0:0|0:0,0:0:0:0:
368,100,89139,1,2,0:0:0:0:
452,192,89302,1,0,0:0:0:0:
380,296,89464,6,0,L|284:276,1,90,4|0,0:0|0:0,0:0:0:0:
224,148,89788,2,0,L|320:168,1,90,2|0,0:0|0:0,0:0:0:0:
240,32,90112,2,0,L|144:12,1,90,2|0,0:0|0:0,0:0:0:0:
52,92,90438,1,2,0:0:0:0:
128,184,90599,1,2,0:0:0:0:
128,184,90680,1,0,0:0:0:0:
128,184,90762,6,0,L|160:72,1,90,6|0,0:0|0:0,0:0:0:0:
269,180,91085,2,0,L|248:268,1,90,2|0,0:0|0:0,0:0:0:0:
360,348,91410,2,0,L|388:232,1,90,2|0,0:0|0:0,0:0:0:0:
344,124,91734,1,2,0:0:0:0:
248,216,91896,1,2,0:0:0:0:
248,216,91977,1,0,0:0:0:0:
248,216,92058,6,4,P|164:236|80:176,1,180,6|0,0:0|0:0,0:0:0:0:
204,80,92546,2,0,L|320:68,1,90,2|4,0:0|0:0,0:0:0:0:
336,216,92870,1,2,0:0:0:0:
444,196,93032,2,0,L|480:192,8,29.2499986610413,2|0|0|0|0|0|0|0|4,0:0|0:0|0:0|0:0|0:0|0:0|0:0|0:0|0:0,0:0:0:0:
464,44,93519,2,0,L|468:-8,2,45,2|0|2,0:0|0:0|0:0,0:0:0:0:
448,176,93843,2,0,L|452:124,2,45,2|0|2,0:0|0:0|0:0,0:0:0:0:
424,308,94167,2,0,L|432:256,1,45,2|0,0:0|0:0,0:0:0:0:
424,308,94329,2,0,B|356:368|299:292|224:360,1,202.500007724762,2|0,0:0|0:0,0:0:0:0:
233,352,94654,54,0,P|208:308|200:248,1,90,4|0,0:0|0:0,0:0:0:0:
296,156,94977,2,0,P|321:200|329:260,1,90,2|0,0:0|0:0,0:0:0:0:
176,196,95302,1,2,0:0:0:0:
268,76,95464,2,0,L|384:84,1,90,2|0,0:0|0:0,0:0:0:0:
176,196,95789,22,0,L|292:204,1,90,2|0,0:0|0:0,0:0:0:0:
96,320,96112,2,0,L|212:328,1,90,2|0,0:0|0:0,0:0:0:0:
368,192,96437,1,2,0:0:0:0:
316,368,96599,1,2,0:0:0:0:
368,192,96761,1,2,0:0:0:0:
468,256,96923,2,0,P|488:308|484:356,1,90,2|0,0:0|0:0,0:0:0:0:
336,316,97247,5,2,0:0:0:0:
212,244,97410,1,2,0:0:0:0:
168,252,97491,1,0,0:0:0:0:
124,264,97572,1,2,0:0:0:0:
184,104,97734,1,2,0:0:0:0:
304,172,97896,2,0,P|328:212|332:272,1,90,2|0,0:0|0:0,0:0:0:0:
153,186,98221,2,0,P|177:146|181:86,1,90,2|0,0:0|0:0,0:0:0:0:
240,244,98545,6,0,L|392:224,1,153.000002918243,2|2,0:0|0:0,0:0:0:0:
340,156,98788,1,0,0:0:0:0:
332,148,98870,2,0,P|304:232|364:312,1,153.000002918243,2|2,0:0|0:0,0:0:0:0:
392,308,99112,1,0,0:0:0:0:
400,312,99194,2,0,P|392:252|276:244,1,153.000002918243,2|0,0:0|0:0,0:0:0:0:
208,324,99518,1,0,0:0:0:0:
120,332,99680,1,0,0:0:0:0:
48,276,99842,5,4,0:0:0:0:
248,224,100166,1,2,0:0:0:0:
48,276,100491,1,2,0:0:0:0:
248,224,100653,22,0,L|348:240,1,90,2|0,0:0|0:0,0:0:0:0:
404,300,100977,85,2,0:0:0:0:
364,88,101302,1,2,0:0:0:0:
404,300,101626,22,0,L|396:248,1,45,2|0,0:0|0:0,0:0:0:0:
424,180,101788,2,0,L|416:128,1,45,2|0,0:0|0:0,0:0:0:0:
448,56,101950,2,0,L|440:4,1,45,2|0,0:0|0:0,0:0:0:0:
360,68,102112,6,0,P|268:112|204:52,1,202.500007724762,4|0,0:0|0:0,0:0:0:0:
120,36,102437,2,0,L|128:100,3,45,6|0|0|0,0:0|0:0|0:0|0:0,0:0:0:0:
48,152,102761,2,0,L|40:96,3,45,2|0|0|0,0:0|0:0|0:0|0:0,0:0:0:0:
112,220,103085,1,6,0:0:0:0:
144,189,103166,1,0,0:0:0:0:
187,180,103247,1,0,0:0:0:0:
230,194,103328,1,0,0:0:0:0:
259,227,103410,1,0,0:0:0:0:
288,260,103491,1,0,0:0:0:0:
331,274,103572,1,0,0:0:0:0:
374,265,103653,1,0,0:0:0:0:
407,235,103734,6,0,P|432:160|380:68,1,153.000002918243,4|2,0:0|0:0,0:0:0:0:
364,160,103977,5,0,0:0:0:0:
376,172,104058,2,0,P|456:184|520:132,1,153.000002918243,2|2,0:0|0:0,0:0:0:0:
460,80,104302,5,0,0:0:0:0:
452,92,104383,2,0,P|440:176|508:224,1,153.000002918243,6|0,0:0|0:0,0:0:0:0:
416,308,104708,6,0,L|296:288,1,90,2|0,0:0|0:0,0:0:0:0:
196,192,105031,21,6,0:0:0:0:
256,192,105085,12,0,106815,0:0:0:0:
