osu file format v14

[General]
AudioFilename: audio.mp3
AudioLeadIn: 0
PreviewTime: 21357
Countdown: 1
SampleSet: Soft
StackLeniency: 0.7
Mode: 1
LetterboxInBreaks: 0
WidescreenStoryboard: 0

[Editor]
DistanceSpacing: 0.9
BeatDivisor: 4
GridSize: 4
TimelineZoom: 2

[Metadata]
Title:YELLOW SPLASH!!
TitleUnicode:YELLOW SPLASH!!
Artist:P*Light
ArtistUnicode:P*Light
Creator:k3v227
Version:Inner Oni
Source:
Tags:
BeatmapID:1002385
BeatmapSetID:468654

[Difficulty]
HPDrainRate:5
CircleSize:4
OverallDifficulty:6
ApproachRate:5
SliderMultiplier:1.4
SliderTickRate:1

[Events]
//Background and Video events
0,0,"yellow splash BG.jpg",0,0
//Break Periods
//Storyboard Layer 0 (Background)
//Storyboard Layer 1 (Fail)
//Storyboard Layer 2 (Pass)
//Storyboard Layer 3 (Foreground)
//Storyboard Sound Samples

[TimingPoints]
1249,324.324324324324,4,2,3,100,1,0
1330,-117.647058823529,4,2,3,100,0,0
6438,-99.9999999999999,4,2,3,100,0,0
11465,-100,4,2,3,100,0,0
22005,-100,4,2,3,100,0,1
31897,-100,4,2,3,75,0,1
32384,-100,4,2,3,100,0,0
63194,-90.9090909090909,4,2,3,100,0,0
63519,-111.111111111111,4,2,3,100,0,0
73248,-100,4,2,3,100,0,0
75194,-95.2380952380952,4,2,3,100,0,0
76492,-90.9090909090909,4,2,3,100,0,0
79167,-90.9090909090909,4,2,3,80,0,0
80384,-105.263157894737,4,2,3,25,0,0
80870,-105.263157894737,4,2,3,10,0,0
81194,-105.263157894737,4,2,3,35,0,0
81681,-105.263157894737,4,2,3,100,0,0
84357,-133.333333333333,4,2,3,80,0,0
85086,-133.333333333333,4,2,3,100,0,0
86546,-83.3333333333333,4,2,3,100,0,0
86708,-90.9090909090909,4,2,3,100,0,0
86870,-90.9090909090909,4,2,3,100,0,1
93357,-90.9090909090909,4,2,3,100,0,0
94654,-90.9090909090909,4,2,3,100,0,1
99843,-86.9565217391304,4,2,3,100,0,1
102438,-83.3333333333333,4,2,3,100,0,1
103735,-83.3333333333333,4,2,3,100,0,0
105032,-100,4,2,3,100,0,0

[Colours]
Combo1 : 9,104,247
Combo2 : 248,254,1
Combo3 : 6,247,49
Combo4 : 255,105,40

[HitObjects]
220,148,600,5,0,0:0:0:0:
220,148,762,1,8,0:0:0:0:
264,112,924,1,0,0:0:0:0:
284,96,1086,1,0,0:0:0:0:
236,312,1249,1,12,0:0:0:0:
216,232,1573,1,8,0:0:0:0:
188,152,1897,1,0,0:0:0:0:
168,92,2059,1,0,0:0:0:0:
168,92,2140,1,8,0:0:0:0:
152,132,2303,1,0,0:0:0:0:
168,92,2384,1,0,0:0:0:0:
232,236,2546,1,0,0:0:0:0:
144,172,2708,1,8,0:0:0:0:
144,172,2870,1,8,0:0:0:0:
144,172,3032,1,0,0:0:0:0:
124,136,3194,1,8,0:0:0:0:
172,148,3357,1,0,0:0:0:0:
124,136,3438,1,8,0:0:0:0:
168,148,3600,1,0,0:0:0:0:
192,152,3681,1,8,0:0:0:0:
232,192,3843,1,0,0:0:0:0:
60,268,4005,1,8,0:0:0:0:
60,268,4167,1,8,0:0:0:0:
60,268,4330,1,0,0:0:0:0:
60,268,4492,1,8,0:0:0:0:
60,268,4654,1,0,0:0:0:0:
60,268,4735,1,8,0:0:0:0:
60,268,4897,1,8,0:0:0:0:
60,268,4978,1,8,0:0:0:0:
60,268,5140,1,0,0:0:0:0:
60,268,5303,1,8,0:0:0:0:
60,268,5465,1,8,0:0:0:0:
60,268,5627,1,0,0:0:0:0:
60,268,5789,1,8,0:0:0:0:
60,268,5951,1,0,0:0:0:0:
124,136,6032,1,8,0:0:0:0:
124,136,6113,1,8,0:0:0:0:
124,136,6276,1,0,0:0:0:0:
124,136,6438,1,8,0:0:0:0:
124,136,6519,1,8,0:0:0:0:
124,136,6600,1,8,0:0:0:0:
140,156,6681,1,8,0:0:0:0:
140,156,6762,1,0,0:0:0:0:
124,136,6924,1,0,0:0:0:0:
124,136,7086,1,8,0:0:0:0:
124,136,7167,1,8,0:0:0:0:
124,136,7248,1,8,0:0:0:0:
140,156,7329,1,8,0:0:0:0:
140,156,7410,1,0,0:0:0:0:
88,148,7573,1,8,0:0:0:0:
76,172,7654,1,8,0:0:0:0:
124,176,7735,1,0,0:0:0:0:
116,220,7816,1,0,0:0:0:0:
116,220,7897,1,0,0:0:0:0:
116,220,7978,1,0,0:0:0:0:
116,220,8059,1,8,0:0:0:0:
140,156,8140,1,8,0:0:0:0:
116,220,8221,1,0,0:0:0:0:
140,156,8303,1,8,0:0:0:0:
116,220,8384,1,0,0:0:0:0:
116,220,8465,1,0,0:0:0:0:
116,220,8546,1,8,0:0:0:0:
116,220,8627,1,0,0:0:0:0:
116,220,8708,1,8,0:0:0:0:
116,220,8789,1,8,0:0:0:0:
116,220,8870,1,8,0:0:0:0:
116,220,8951,1,8,0:0:0:0:
116,220,9032,1,0,0:0:0:0:
116,220,9194,1,0,0:0:0:0:
116,220,9357,1,8,0:0:0:0:
116,220,9519,1,0,0:0:0:0:
116,220,9600,1,8,0:0:0:0:
116,220,9681,1,0,0:0:0:0:
116,220,9762,1,8,0:0:0:0:
116,220,9843,1,0,0:0:0:0:
116,220,9924,1,0,0:0:0:0:
116,220,10005,1,8,0:0:0:0:
116,220,10167,1,0,0:0:0:0:
116,220,10248,1,8,0:0:0:0:
144,120,10330,1,0,0:0:0:0:
144,120,10411,1,0,0:0:0:0:
144,120,10492,1,0,0:0:0:0:
144,120,10573,1,0,0:0:0:0:
144,120,10654,1,8,0:0:0:0:
144,120,10735,1,8,0:0:0:0:
144,120,10816,1,8,0:0:0:0:
144,120,10897,1,0,0:0:0:0:
144,120,10978,1,0,0:0:0:0:
144,120,11140,1,0,0:0:0:0:
144,120,11221,1,0,0:0:0:0:
144,120,11303,1,8,0:0:0:0:
196,120,11465,1,0,0:0:0:0:
212,120,11519,1,0,0:0:0:0:
228,120,11573,1,0,0:0:0:0:
248,120,11627,1,8,0:0:0:0:
136,232,11789,1,0,0:0:0:0:
136,232,11951,1,8,0:0:0:0:
148,208,12032,1,8,0:0:0:0:
160,184,12113,1,0,0:0:0:0:
180,132,12276,1,8,0:0:0:0:
180,132,12438,1,0,0:0:0:0:
180,132,12519,1,0,0:0:0:0:
180,132,12600,1,8,0:0:0:0:
180,132,12762,1,8,0:0:0:0:
180,132,12924,1,0,0:0:0:0:
180,132,13086,1,8,0:0:0:0:
180,132,13167,1,0,0:0:0:0:
180,132,13248,1,8,0:0:0:0:
180,132,13411,1,8,0:0:0:0:
168,92,13573,1,0,0:0:0:0:
104,180,13735,1,8,0:0:0:0:
104,180,13897,1,8,0:0:0:0:
104,180,14059,1,8,0:0:0:0:
168,92,14221,1,0,0:0:0:0:
168,92,14384,1,8,0:0:0:0:
168,92,14465,1,0,0:0:0:0:
168,92,14546,1,0,0:0:0:0:
244,148,14708,1,8,0:0:0:0:
168,92,14870,1,8,0:0:0:0:
168,92,15032,1,0,0:0:0:0:
124,128,15194,1,8,0:0:0:0:
176,104,15357,1,0,0:0:0:0:
200,92,15438,1,0,0:0:0:0:
200,92,15519,1,8,0:0:0:0:
244,304,15681,1,8,0:0:0:0:
232,280,15762,1,8,0:0:0:0:
220,256,15843,1,0,0:0:0:0:
208,200,16005,1,8,0:0:0:0:
188,180,16086,1,0,0:0:0:0:
172,160,16167,1,0,0:0:0:0:
168,96,16330,1,8,0:0:0:0:
188,148,16492,1,8,0:0:0:0:
168,96,16654,1,8,0:0:0:0:
116,116,16816,1,4,0:0:0:0:
172,160,16978,1,8,0:0:0:0:
172,160,17059,1,8,0:0:0:0:
172,160,17140,1,0,0:0:0:0:
172,160,17303,1,8,0:0:0:0:
172,160,17465,1,0,0:0:0:0:
172,160,17546,1,0,0:0:0:0:
172,160,17627,1,0,0:0:0:0:
172,160,17789,1,8,0:0:0:0:
172,160,17951,1,8,0:0:0:0:
24,156,18113,1,4,0:0:0:0:
76,176,18276,1,8,0:0:0:0:
128,192,18438,1,8,0:0:0:0:
156,196,18519,1,8,0:0:0:0:
184,200,18600,1,0,0:0:0:0:
212,208,18681,1,8,0:0:0:0:
240,216,18762,1,0,0:0:0:0:
240,216,18924,1,8,0:0:0:0:
236,244,19005,1,8,0:0:0:0:
232,272,19086,1,8,0:0:0:0:
240,216,19248,1,8,0:0:0:0:
24,156,19411,1,4,0:0:0:0:
80,148,19573,1,8,0:0:0:0:
108,144,19654,1,0,0:0:0:0:
136,140,19735,1,8,0:0:0:0:
192,132,19897,1,8,0:0:0:0:
220,124,19978,1,8,0:0:0:0:
24,156,20059,1,0,0:0:0:0:
104,180,20140,1,0,0:0:0:0:
132,180,20221,1,8,0:0:0:0:
160,180,20303,1,0,0:0:0:0:
104,180,20384,1,8,0:0:0:0:
104,180,20438,1,8,0:0:0:0:
108,160,20492,1,8,0:0:0:0:
108,160,20546,1,0,0:0:0:0:
136,156,20627,1,0,0:0:0:0:
164,152,20708,1,0,0:0:0:0:
152,208,20870,1,8,0:0:0:0:
144,236,20951,1,8,0:0:0:0:
144,236,21032,1,0,0:0:0:0:
144,236,21194,1,8,0:0:0:0:
144,236,21276,1,8,0:0:0:0:
144,264,21357,1,0,0:0:0:0:
144,264,21519,1,0,0:0:0:0:
144,264,21600,1,8,0:0:0:0:
144,264,21681,1,8,0:0:0:0:
184,228,21843,1,0,0:0:0:0:
196,216,21897,1,0,0:0:0:0:
212,204,21951,1,0,0:0:0:0:
228,192,22005,1,8,0:0:0:0:
196,240,22167,1,0,0:0:0:0:
172,292,22330,1,8,0:0:0:0:
192,240,22492,1,0,0:0:0:0:
204,216,22573,1,0,0:0:0:0:
216,188,22654,1,8,0:0:0:0:
236,136,22816,1,8,0:0:0:0:
236,136,22897,1,0,0:0:0:0:
172,292,22978,1,8,0:0:0:0:
184,236,23140,1,8,0:0:0:0:
212,188,23303,1,0,0:0:0:0:
144,340,23465,1,8,0:0:0:0:
168,288,23627,1,8,0:0:0:0:
192,236,23789,1,0,0:0:0:0:
204,212,23870,1,8,0:0:0:0:
164,288,23951,1,8,0:0:0:0:
184,236,24113,1,8,0:0:0:0:
184,236,24276,1,0,0:0:0:0:
204,184,24438,1,8,0:0:0:0:
76,108,24600,1,0,0:0:0:0:
96,128,24762,1,0,0:0:0:0:
116,148,24843,1,8,0:0:0:0:
148,192,25086,1,8,0:0:0:0:
140,164,25167,1,8,0:0:0:0:
92,204,25248,1,0,0:0:0:0:
36,216,25411,1,8,0:0:0:0:
8,224,25573,1,8,0:0:0:0:
8,224,25735,1,0,0:0:0:0:
8,224,25897,1,0,0:0:0:0:
8,224,26059,1,8,0:0:0:0:
140,164,26140,1,8,0:0:0:0:
8,224,26221,1,0,0:0:0:0:
8,224,26384,1,8,0:0:0:0:
36,216,26465,1,8,0:0:0:0:
28,208,26546,1,0,0:0:0:0:
52,192,26708,1,8,0:0:0:0:
328,288,26789,1,0,0:0:0:0:
108,180,26870,1,8,0:0:0:0:
8,224,26951,1,8,0:0:0:0:
8,224,27032,1,0,0:0:0:0:
32,152,27194,1,12,0:0:0:0:
88,164,27357,1,0,0:0:0:0:
144,176,27519,1,12,0:0:0:0:
196,160,27681,1,0,0:0:0:0:
252,144,27843,1,12,0:0:0:0:
252,144,28005,1,12,0:0:0:0:
252,144,28330,1,12,0:0:0:0:
252,144,28654,1,12,0:0:0:0:
252,144,28978,1,12,0:0:0:0:
196,156,29140,1,12,0:0:0:0:
196,156,29303,1,4,0:0:0:0:
196,156,29465,1,12,0:0:0:0:
236,260,29789,1,0,0:0:0:0:
228,232,29870,1,8,0:0:0:0:
216,208,29951,1,0,0:0:0:0:
216,208,30032,1,8,0:0:0:0:
216,208,30113,1,0,0:0:0:0:
216,208,30194,1,0,0:0:0:0:
216,208,30276,1,8,0:0:0:0:
216,208,30357,1,0,0:0:0:0:
168,212,30438,1,8,0:0:0:0:
168,212,30519,1,8,0:0:0:0:
156,188,30600,1,8,0:0:0:0:
168,212,30681,1,8,0:0:0:0:
168,212,30762,1,8,0:0:0:0:
168,212,30843,1,8,0:0:0:0:
168,212,30924,1,0,0:0:0:0:
168,212,31005,1,8,0:0:0:0:
168,212,31086,1,0,0:0:0:0:
116,196,31248,1,8,0:0:0:0:
88,188,31330,1,8,0:0:0:0:
88,188,31411,1,0,0:0:0:0:
88,188,31573,1,8,0:0:0:0:
88,188,31654,1,8,0:0:0:0:
88,188,31735,1,0,0:0:0:0:
88,188,31897,1,8,0:0:0:0:
88,188,31978,1,0,0:0:0:0:
88,188,32059,1,8,0:0:0:0:
172,172,32384,1,4,0:0:0:0:
116,184,32546,1,8,0:0:0:0:
144,184,32627,1,8,0:0:0:0:
144,184,32708,1,0,0:0:0:0:
144,184,32870,1,0,0:0:0:0:
144,184,33032,1,8,0:0:0:0:
164,164,33113,1,8,0:0:0:0:
188,152,33194,1,8,0:0:0:0:
216,140,33276,1,8,0:0:0:0:
216,140,33357,1,0,0:0:0:0:
216,140,33519,1,8,0:0:0:0:
216,140,33600,1,8,0:0:0:0:
172,172,33681,1,0,0:0:0:0:
144,176,33762,1,8,0:0:0:0:
172,172,33843,1,0,0:0:0:0:
172,172,33924,1,0,0:0:0:0:
172,172,34005,1,8,0:0:0:0:
172,172,34167,1,8,0:0:0:0:
172,172,34330,1,0,0:0:0:0:
216,140,34411,1,8,0:0:0:0:
216,140,34492,1,8,0:0:0:0:
216,140,34573,1,8,0:0:0:0:
216,140,34654,1,0,0:0:0:0:
216,140,34816,1,8,0:0:0:0:
216,140,34897,1,8,0:0:0:0:
168,196,34978,1,0,0:0:0:0:
168,196,35140,1,0,0:0:0:0:
168,196,35221,1,0,0:0:0:0:
168,196,35303,1,8,0:0:0:0:
168,196,35465,1,0,0:0:0:0:
192,184,35546,1,8,0:0:0:0:
168,196,35627,1,8,0:0:0:0:
192,184,35708,1,0,0:0:0:0:
168,196,35789,1,8,0:0:0:0:
84,196,35951,1,0,0:0:0:0:
84,196,36032,1,8,0:0:0:0:
84,196,36113,1,8,0:0:0:0:
84,196,36194,1,8,0:0:0:0:
84,196,36276,1,0,0:0:0:0:
168,196,36438,1,0,0:0:0:0:
168,196,36519,1,0,0:0:0:0:
168,196,36600,1,8,0:0:0:0:
168,196,36762,1,0,0:0:0:0:
168,196,36843,1,0,0:0:0:0:
168,196,36924,1,8,0:0:0:0:
68,244,37248,1,8,0:0:0:0:
92,232,37330,1,0,0:0:0:0:
116,220,37411,1,8,0:0:0:0:
116,220,37492,1,0,0:0:0:0:
116,220,37573,1,0,0:0:0:0:
92,204,37654,1,0,0:0:0:0:
68,188,37735,1,8,0:0:0:0:
48,168,37816,1,0,0:0:0:0:
48,168,37897,1,8,0:0:0:0:
48,168,37978,1,8,0:0:0:0:
48,168,38059,1,0,0:0:0:0:
48,168,38221,1,0,0:0:0:0:
48,168,38303,1,8,0:0:0:0:
48,168,38384,1,0,0:0:0:0:
48,168,38465,1,0,0:0:0:0:
48,168,38546,1,8,0:0:0:0:
48,168,38627,1,8,0:0:0:0:
48,168,38708,1,8,0:0:0:0:
104,160,38870,1,0,0:0:0:0:
132,156,38951,1,0,0:0:0:0:
160,152,39032,1,8,0:0:0:0:
160,152,39113,1,0,0:0:0:0:
160,152,39194,1,8,0:0:0:0:
180,132,39276,1,8,0:0:0:0:
180,132,39357,1,8,0:0:0:0:
180,132,39438,1,8,0:0:0:0:
180,132,39519,1,0,0:0:0:0:
180,132,39600,1,8,0:0:0:0:
180,132,39681,1,0,0:0:0:0:
180,132,39762,1,0,0:0:0:0:
180,132,39843,1,8,0:0:0:0:
180,132,39924,1,8,0:0:0:0:
180,132,40005,1,0,0:0:0:0:
164,236,40167,1,8,0:0:0:0:
164,236,40248,1,0,0:0:0:0:
164,236,40330,1,8,0:0:0:0:
164,236,40411,1,8,0:0:0:0:
164,236,40492,1,8,0:0:0:0:
164,236,40573,1,0,0:0:0:0:
164,236,40654,1,8,0:0:0:0:
156,264,40735,1,0,0:0:0:0:
164,236,40816,1,8,0:0:0:0:
164,236,40897,1,8,0:0:0:0:
164,236,40978,1,8,0:0:0:0:
164,236,41059,1,8,0:0:0:0:
228,128,41140,1,0,0:0:0:0:
196,156,41194,1,8,0:0:0:0:
196,156,41248,1,8,0:0:0:0:
196,156,41303,1,8,0:0:0:0:
176,160,41357,1,8,0:0:0:0:
156,164,41411,1,8,0:0:0:0:
136,168,41465,1,0,0:0:0:0:
56,200,41789,1,0,0:0:0:0:
36,256,41951,1,8,0:0:0:0:
36,256,42276,1,8,0:0:0:0:
36,256,42357,1,8,0:0:0:0:
36,256,42438,1,0,0:0:0:0:
36,256,42600,1,8,0:0:0:0:
36,256,42762,1,4,0:0:0:0:
36,256,42924,1,8,0:0:0:0:
52,232,43005,1,8,0:0:0:0:
36,256,43086,1,8,0:0:0:0:
36,256,43248,1,0,0:0:0:0:
108,172,43573,1,8,0:0:0:0:
144,132,43897,1,8,0:0:0:0:
144,132,44059,1,0,0:0:0:0:
144,132,44221,1,0,0:0:0:0:
144,132,44384,1,8,0:0:0:0:
136,188,44546,1,8,0:0:0:0:
136,188,44708,1,0,0:0:0:0:
108,192,44789,1,0,0:0:0:0:
144,132,44870,1,8,0:0:0:0:
144,132,45032,1,8,0:0:0:0:
144,132,45194,1,0,0:0:0:0:
144,132,45357,1,8,0:0:0:0:
144,132,45438,1,8,0:0:0:0:
144,132,45519,1,0,0:0:0:0:
144,132,45681,1,8,0:0:0:0:
144,132,45843,1,0,0:0:0:0:
144,132,46005,1,0,0:0:0:0:
144,132,46167,1,8,0:0:0:0:
144,132,46492,1,0,0:0:0:0:
144,132,46816,1,8,0:0:0:0:
144,132,46978,1,0,0:0:0:0:
144,132,47140,1,8,0:0:0:0:
144,132,47303,1,0,0:0:0:0:
144,132,47465,1,8,0:0:0:0:
116,132,47546,1,0,0:0:0:0:
144,132,47627,1,8,0:0:0:0:
144,132,47789,1,0,0:0:0:0:
144,132,47951,1,8,0:0:0:0:
144,76,48113,1,0,0:0:0:0:
144,76,48194,1,0,0:0:0:0:
144,76,48276,1,0,0:0:0:0:
144,76,48438,1,8,0:0:0:0:
240,132,48762,1,0,0:0:0:0:
128,124,49086,1,0,0:0:0:0:
144,76,49248,1,8,0:0:0:0:
200,72,49411,1,0,0:0:0:0:
200,72,49573,1,8,0:0:0:0:
200,72,49735,1,8,0:0:0:0:
120,220,49897,1,0,0:0:0:0:
148,212,49978,1,8,0:0:0:0:
148,172,50059,1,8,0:0:0:0:
120,220,50221,1,8,0:0:0:0:
184,272,50384,1,0,0:0:0:0:
184,272,50546,1,8,0:0:0:0:
184,272,50627,1,8,0:0:0:0:
184,272,50708,1,0,0:0:0:0:
184,272,50789,1,0,0:0:0:0:
184,272,50870,1,8,0:0:0:0:
184,272,51032,1,0,0:0:0:0:
184,272,51194,1,8,0:0:0:0:
184,272,51276,1,8,0:0:0:0:
184,272,51357,1,8,0:0:0:0:
184,272,51438,1,0,0:0:0:0:
248,184,51519,1,8,0:0:0:0:
248,184,51573,1,8,0:0:0:0:
248,184,51627,1,8,0:0:0:0:
248,184,51681,1,0,0:0:0:0:
272,168,51762,1,0,0:0:0:0:
296,152,51843,1,0,0:0:0:0:
240,160,52005,1,8,0:0:0:0:
184,168,52167,1,8,0:0:0:0:
128,176,52330,1,0,0:0:0:0:
128,176,52411,1,8,0:0:0:0:
128,176,52492,1,0,0:0:0:0:
128,176,52573,1,8,0:0:0:0:
128,176,52654,1,0,0:0:0:0:
128,176,52735,1,0,0:0:0:0:
128,176,52816,1,8,0:0:0:0:
128,176,52978,1,0,0:0:0:0:
128,176,53059,1,8,0:0:0:0:
128,176,53140,1,0,0:0:0:0:
156,224,53303,1,0,0:0:0:0:
156,224,53384,1,0,0:0:0:0:
156,224,53465,1,8,0:0:0:0:
184,220,53546,1,0,0:0:0:0:
0,212,53627,1,8,0:0:0:0:
156,224,53789,1,0,0:0:0:0:
156,224,53870,1,8,0:0:0:0:
156,224,53951,1,0,0:0:0:0:
156,224,54032,1,0,0:0:0:0:
156,224,54113,1,8,0:0:0:0:
0,212,54276,1,8,0:0:0:0:
0,212,54357,1,0,0:0:0:0:
0,212,54438,1,8,0:0:0:0:
0,212,54519,1,8,0:0:0:0:
0,212,54600,1,0,0:0:0:0:
0,212,54681,1,0,0:0:0:0:
0,212,54762,1,8,0:0:0:0:
0,212,54924,1,8,0:0:0:0:
24,228,55005,1,8,0:0:0:0:
24,228,55086,1,0,0:0:0:0:
24,228,55167,1,0,0:0:0:0:
24,228,55248,1,8,0:0:0:0:
24,228,55411,1,8,0:0:0:0:
24,228,55573,1,8,0:0:0:0:
48,216,55654,1,0,0:0:0:0:
48,216,55735,1,8,0:0:0:0:
48,216,55897,1,0,0:0:0:0:
48,216,55978,1,0,0:0:0:0:
48,216,56059,1,8,0:0:0:0:
48,216,56221,1,0,0:0:0:0:
48,216,56303,1,0,0:0:0:0:
48,216,56384,1,8,0:0:0:0:
48,216,56546,1,8,0:0:0:0:
104,204,56708,1,8,0:0:0:0:
160,192,56789,1,8,0:0:0:0:
160,192,56870,1,0,0:0:0:0:
160,192,56951,1,0,0:0:0:0:
160,192,57032,1,0,0:0:0:0:
160,192,57194,1,8,0:0:0:0:
160,192,57357,1,0,0:0:0:0:
160,192,57438,1,0,0:0:0:0:
160,192,57519,1,8,0:0:0:0:
160,192,57681,1,0,0:0:0:0:
160,192,57762,1,0,0:0:0:0:
160,192,57843,1,8,0:0:0:0:
160,192,58005,1,8,0:0:0:0:
160,192,58086,1,8,0:0:0:0:
160,192,58167,1,0,0:0:0:0:
160,192,58330,1,0,0:0:0:0:
152,164,58411,1,8,0:0:0:0:
144,136,58492,1,0,0:0:0:0:
140,108,58573,1,0,0:0:0:0:
132,80,58654,1,8,0:0:0:0:
132,80,58735,1,8,0:0:0:0:
132,80,58816,1,8,0:0:0:0:
132,80,58897,1,8,0:0:0:0:
132,80,58978,1,0,0:0:0:0:
132,80,59059,1,0,0:0:0:0:
132,80,59140,1,8,0:0:0:0:
132,80,59221,1,8,0:0:0:0:
132,80,59303,1,0,0:0:0:0:
104,128,59465,1,8,0:0:0:0:
160,116,59627,1,0,0:0:0:0:
188,112,59708,1,0,0:0:0:0:
216,104,59789,1,8,0:0:0:0:
244,100,59870,1,0,0:0:0:0:
244,100,59951,1,8,0:0:0:0:
244,100,60032,1,8,0:0:0:0:
244,100,60113,1,0,0:0:0:0:
244,100,60194,1,8,0:0:0:0:
244,100,60276,1,0,0:0:0:0:
244,100,60357,1,0,0:0:0:0:
96,152,60438,1,8,0:0:0:0:
96,152,60519,1,0,0:0:0:0:
96,152,60600,1,8,0:0:0:0:
96,152,60762,1,8,0:0:0:0:
132,68,60924,1,8,0:0:0:0:
132,68,61005,1,0,0:0:0:0:
132,68,61086,1,0,0:0:0:0:
132,68,61167,1,0,0:0:0:0:
132,68,61248,1,8,0:0:0:0:
132,68,61330,1,0,0:0:0:0:
132,68,61411,1,0,0:0:0:0:
132,68,61492,1,0,0:0:0:0:
132,68,61573,1,8,0:0:0:0:
132,68,61654,1,8,0:0:0:0:
132,68,61735,1,0,0:0:0:0:
132,68,61816,1,0,0:0:0:0:
320,120,61897,1,8,0:0:0:0:
320,120,61951,1,8,0:0:0:0:
320,120,62005,1,8,0:0:0:0:
320,120,62059,1,0,0:0:0:0:
296,108,62140,1,0,0:0:0:0:
268,96,62221,1,0,0:0:0:0:
256,192,62384,8,12,63032,0:0:0:0:
196,68,63194,5,12,0:0:0:0:
260,132,63519,1,0,0:0:0:0:
228,100,63681,1,0,0:0:0:0:
228,100,63843,1,8,0:0:0:0:
264,128,64005,1,0,0:0:0:0:
280,144,64086,1,8,0:0:0:0:
296,160,64167,1,0,0:0:0:0:
312,176,64248,1,0,0:0:0:0:
332,188,64330,1,8,0:0:0:0:
364,216,64492,1,0,0:0:0:0:
380,232,64573,1,8,0:0:0:0:
396,248,64654,1,0,0:0:0:0:
396,248,64735,1,8,0:0:0:0:
396,248,64816,1,0,0:0:0:0:
396,248,64978,1,8,0:0:0:0:
396,248,65140,1,8,0:0:0:0:
364,216,65303,1,8,0:0:0:0:
348,200,65384,1,0,0:0:0:0:
332,184,65465,1,0,0:0:0:0:
316,168,65546,1,8,0:0:0:0:
396,248,65627,1,8,0:0:0:0:
396,248,65789,1,8,0:0:0:0:
396,248,65870,1,8,0:0:0:0:
396,248,65951,1,8,0:0:0:0:
396,248,66032,1,0,0:0:0:0:
416,240,66113,1,0,0:0:0:0:
416,240,66276,1,0,0:0:0:0:
416,240,66438,1,8,0:0:0:0:
396,248,66600,1,0,0:0:0:0:
396,248,66681,1,8,0:0:0:0:
396,248,66762,1,0,0:0:0:0:
396,248,66843,1,0,0:0:0:0:
396,248,66924,1,8,0:0:0:0:
396,248,67086,1,0,0:0:0:0:
384,228,67167,1,8,0:0:0:0:
384,228,67248,1,0,0:0:0:0:
384,228,67330,1,8,0:0:0:0:
384,228,67411,1,0,0:0:0:0:
384,228,67573,1,8,0:0:0:0:
384,228,67735,1,8,0:0:0:0:
384,228,67897,1,8,0:0:0:0:
384,228,67978,1,0,0:0:0:0:
384,228,68059,1,0,0:0:0:0:
384,228,68140,1,8,0:0:0:0:
384,228,68221,1,8,0:0:0:0:
344,204,68384,1,0,0:0:0:0:
324,192,68465,1,8,0:0:0:0:
344,204,68546,1,8,0:0:0:0:
324,192,68627,1,8,0:0:0:0:
304,180,68708,1,0,0:0:0:0:
268,156,68870,1,0,0:0:0:0:
224,144,69032,1,8,0:0:0:0:
224,144,69194,1,0,0:0:0:0:
224,144,69276,1,8,0:0:0:0:
224,144,69357,1,0,0:0:0:0:
224,144,69438,1,0,0:0:0:0:
224,144,69519,1,8,0:0:0:0:
224,144,69681,1,0,0:0:0:0:
224,144,69762,1,8,0:0:0:0:
224,144,69843,1,0,0:0:0:0:
224,144,69924,1,8,0:0:0:0:
224,144,70005,1,0,0:0:0:0:
224,144,70167,1,8,0:0:0:0:
224,144,70330,1,8,0:0:0:0:
224,144,70492,1,8,0:0:0:0:
224,144,70573,1,0,0:0:0:0:
224,144,70654,1,0,0:0:0:0:
224,144,70735,1,8,0:0:0:0:
224,144,70816,1,8,0:0:0:0:
224,144,70978,1,8,0:0:0:0:
224,144,71059,1,8,0:0:0:0:
224,144,71140,1,8,0:0:0:0:
224,144,71221,1,0,0:0:0:0:
224,144,71303,1,0,0:0:0:0:
224,144,71465,1,0,0:0:0:0:
224,144,71627,1,8,0:0:0:0:
224,144,71789,1,0,0:0:0:0:
224,144,71870,1,8,0:0:0:0:
224,144,71951,1,0,0:0:0:0:
224,144,72032,1,0,0:0:0:0:
224,144,72113,1,8,0:0:0:0:
224,144,72276,1,0,0:0:0:0:
224,144,72357,1,8,0:0:0:0:
224,144,72438,1,8,0:0:0:0:
224,144,72519,1,8,0:0:0:0:
204,148,72600,1,4,0:0:0:0:
92,288,73248,1,0,0:0:0:0:
116,252,73411,1,8,0:0:0:0:
116,252,73573,1,0,0:0:0:0:
116,252,73735,1,0,0:0:0:0:
64,248,73897,1,4,0:0:0:0:
108,220,74059,1,8,0:0:0:0:
200,168,74384,1,8,0:0:0:0:
288,112,74708,1,8,0:0:0:0:
200,168,75032,1,8,0:0:0:0:
188,116,75194,1,4,0:0:0:0:
288,112,75357,1,8,0:0:0:0:
184,128,75681,1,8,0:0:0:0:
80,140,76005,1,8,0:0:0:0:
80,140,76330,1,8,0:0:0:0:
176,36,76492,1,8,0:0:0:0:
140,132,76573,1,0,0:0:0:0:
140,132,76654,1,0,0:0:0:0:
140,132,76735,1,0,0:0:0:0:
140,132,76816,1,0,0:0:0:0:
140,132,76897,1,0,0:0:0:0:
160,144,76978,1,8,0:0:0:0:
180,160,77059,1,8,0:0:0:0:
176,36,77140,1,0,0:0:0:0:
140,132,77221,1,0,0:0:0:0:
140,132,77303,1,8,0:0:0:0:
140,132,77384,1,0,0:0:0:0:
140,132,77465,1,8,0:0:0:0:
140,132,77546,1,8,0:0:0:0:
160,144,77627,1,8,0:0:0:0:
180,156,77708,1,8,0:0:0:0:
108,64,77789,1,0,0:0:0:0:
140,132,77870,1,0,0:0:0:0:
164,136,77951,1,8,0:0:0:0:
180,140,78005,1,8,0:0:0:0:
196,144,78059,1,8,0:0:0:0:
108,64,78113,1,0,0:0:0:0:
140,132,78194,1,0,0:0:0:0:
164,136,78275,1,8,0:0:0:0:
180,140,78329,1,8,0:0:0:0:
196,144,78383,1,8,0:0:0:0:
108,64,78438,1,0,0:0:0:0:
140,132,78519,1,0,0:0:0:0:
164,136,78600,1,8,0:0:0:0:
180,140,78654,1,8,0:0:0:0:
196,144,78708,1,8,0:0:0:0:
108,64,78762,1,0,0:0:0:0:
140,132,78843,1,0,0:0:0:0:
164,136,78924,1,8,0:0:0:0:
180,140,78978,1,8,0:0:0:0:
196,144,79032,1,8,0:0:0:0:
180,144,79086,1,0,0:0:0:0:
256,192,79248,8,4,80221,0:0:0:0:
64,216,80384,5,8,0:0:0:0:
84,200,80465,1,8,0:0:0:0:
84,200,80546,1,8,0:0:0:0:
84,200,80627,1,8,0:0:0:0:
84,200,80708,1,8,0:0:0:0:
84,200,80789,1,8,0:0:0:0:
84,200,80870,1,0,0:0:0:0:
84,200,80951,1,0,0:0:0:0:
84,200,81032,1,0,0:0:0:0:
84,200,81113,1,0,0:0:0:0:
84,200,81194,1,2,0:0:0:0:
84,200,81276,1,2,0:0:0:0:
84,200,81357,1,2,0:0:0:0:
84,200,81438,1,2,0:0:0:0:
84,200,81519,1,2,0:0:0:0:
84,200,81600,1,2,0:0:0:0:
84,200,81681,1,0,0:0:0:0:
128,176,81843,1,8,0:0:0:0:
136,200,82005,1,8,0:0:0:0:
180,172,82167,1,0,0:0:0:0:
180,172,82248,1,8,0:0:0:0:
180,172,82330,1,0,0:0:0:0:
180,172,82411,1,8,0:0:0:0:
180,172,82492,1,0,0:0:0:0:
180,172,82573,1,0,0:0:0:0:
180,172,82654,1,8,0:0:0:0:
180,172,82816,1,0,0:0:0:0:
180,172,82897,1,8,0:0:0:0:
180,172,82978,1,0,0:0:0:0:
156,216,83140,1,0,0:0:0:0:
132,260,83303,1,0,0:0:0:0:
132,260,83465,1,0,0:0:0:0:
132,260,83627,1,4,0:0:0:0:
132,260,83789,1,0,0:0:0:0:
132,260,83870,1,0,0:0:0:0:
132,260,83951,1,8,0:0:0:0:
148,160,84276,1,4,0:0:0:0:
248,164,84600,1,8,0:0:0:0:
348,164,84924,1,0,0:0:0:0:
304,204,85248,1,12,0:0:0:0:
172,284,85411,1,12,0:0:0:0:
136,188,85735,1,4,0:0:0:0:
300,196,85897,1,12,0:0:0:0:
348,208,86059,1,12,0:0:0:0:
304,204,86221,1,4,0:0:0:0:
304,204,86546,1,12,0:0:0:0:
340,164,86708,1,0,0:0:0:0:
340,164,86762,1,0,0:0:0:0:
340,164,86816,1,0,0:0:0:0:
340,164,86870,1,8,0:0:0:0:
284,172,87032,1,8,0:0:0:0:
256,172,87113,1,8,0:0:0:0:
228,180,87194,1,0,0:0:0:0:
228,180,87357,1,8,0:0:0:0:
228,180,87519,1,0,0:0:0:0:
228,180,87681,1,0,0:0:0:0:
228,180,87762,1,0,0:0:0:0:
228,180,87843,1,8,0:0:0:0:
180,208,88005,1,8,0:0:0:0:
144,252,88167,1,0,0:0:0:0:
180,208,88330,1,8,0:0:0:0:
160,228,88411,1,8,0:0:0:0:
160,228,88492,1,0,0:0:0:0:
160,228,88654,1,8,0:0:0:0:
160,228,88735,1,0,0:0:0:0:
160,228,88816,1,0,0:0:0:0:
188,180,88978,1,8,0:0:0:0:
216,132,89140,1,8,0:0:0:0:
216,132,89303,1,8,0:0:0:0:
172,164,89465,1,4,0:0:0:0:
196,148,89627,1,0,0:0:0:0:
196,148,89708,1,0,0:0:0:0:
196,148,89789,1,8,0:0:0:0:
196,148,89951,1,8,0:0:0:0:
196,148,90113,1,0,0:0:0:0:
196,148,90276,1,0,0:0:0:0:
200,120,90357,1,8,0:0:0:0:
196,148,90438,1,0,0:0:0:0:
196,148,90600,1,8,0:0:0:0:
200,92,90762,1,4,0:0:0:0:
200,92,90924,1,8,0:0:0:0:
256,96,91086,1,8,0:0:0:0:
256,96,91167,1,8,0:0:0:0:
256,96,91248,1,0,0:0:0:0:
256,96,91330,1,8,0:0:0:0:
256,96,91411,1,0,0:0:0:0:
256,96,91573,1,8,0:0:0:0:
256,96,91654,1,0,0:0:0:0:
256,96,91735,1,8,0:0:0:0:
256,96,91897,1,8,0:0:0:0:
188,280,92059,1,8,0:0:0:0:
188,280,92140,1,0,0:0:0:0:
188,280,92221,1,8,0:0:0:0:
188,280,92303,1,8,0:0:0:0:
188,280,92384,1,8,0:0:0:0:
188,280,92465,1,0,0:0:0:0:
188,280,92546,1,8,0:0:0:0:
188,280,92627,1,0,0:0:0:0:
188,280,92708,1,8,0:0:0:0:
188,280,92789,1,8,0:0:0:0:
188,280,92870,1,0,0:0:0:0:
188,280,92951,1,0,0:0:0:0:
260,172,93032,1,8,0:0:0:0:
260,172,93086,1,8,0:0:0:0:
260,172,93140,1,8,0:0:0:0:
260,172,93194,1,0,0:0:0:0:
284,156,93276,1,0,0:0:0:0:
308,140,93357,1,0,0:0:0:0:
260,112,93519,1,8,0:0:0:0:
236,96,93600,1,8,0:0:0:0:
216,104,93681,1,0,0:0:0:0:
192,52,93843,1,8,0:0:0:0:
172,68,93924,1,8,0:0:0:0:
172,68,94005,1,0,0:0:0:0:
168,124,94167,1,0,0:0:0:0:
172,68,94248,1,8,0:0:0:0:
172,68,94330,1,8,0:0:0:0:
172,68,94492,1,0,0:0:0:0:
260,112,94546,1,0,0:0:0:0:
260,112,94600,1,0,0:0:0:0:
260,112,94654,1,8,0:0:0:0:
176,120,94897,1,0,0:0:0:0:
264,224,94978,1,8,0:0:0:0:
216,192,95140,1,0,0:0:0:0:
260,112,95303,1,8,0:0:0:0:
204,116,95465,1,0,0:0:0:0:
176,120,95546,1,0,0:0:0:0:
264,224,95627,1,0,0:0:0:0:
260,168,95789,1,8,0:0:0:0:
260,168,96113,1,0,0:0:0:0:
232,160,96194,1,8,0:0:0:0:
260,168,96276,1,8,0:0:0:0:
260,168,96438,1,8,0:0:0:0:
260,168,96600,1,0,0:0:0:0:
260,168,96762,1,8,0:0:0:0:
260,168,96843,1,0,0:0:0:0:
204,168,96924,1,8,0:0:0:0:
260,168,97086,1,0,0:0:0:0:
260,168,97248,1,8,0:0:0:0:
260,168,97411,1,0,0:0:0:0:
260,168,97492,1,0,0:0:0:0:
260,168,97573,1,0,0:0:0:0:
204,168,97735,1,8,0:0:0:0:
148,168,97897,1,8,0:0:0:0:
92,172,98059,1,0,0:0:0:0:
148,184,98221,1,8,0:0:0:0:
204,192,98384,1,0,0:0:0:0:
196,220,98465,1,0,0:0:0:0:
204,192,98546,1,8,0:0:0:0:
260,168,98708,1,8,0:0:0:0:
244,192,98789,1,8,0:0:0:0:
232,216,98870,1,0,0:0:0:0:
260,168,99032,1,8,0:0:0:0:
244,192,99113,1,8,0:0:0:0:
232,216,99194,1,0,0:0:0:0:
268,56,99357,1,0,0:0:0:0:
184,268,99438,1,0,0:0:0:0:
264,112,99519,1,8,0:0:0:0:
184,268,99600,1,8,0:0:0:0:
268,56,99681,1,0,0:0:0:0:
32,152,99843,1,12,0:0:0:0:
88,164,100006,1,0,0:0:0:0:
144,176,100168,1,12,0:0:0:0:
196,160,100330,1,0,0:0:0:0:
252,144,100492,1,12,0:0:0:0:
252,144,100654,1,12,0:0:0:0:
252,144,100979,1,12,0:0:0:0:
252,144,101303,1,12,0:0:0:0:
252,144,101627,1,12,0:0:0:0:
196,156,101789,1,12,0:0:0:0:
196,156,101952,1,4,0:0:0:0:
196,156,102114,1,12,0:0:0:0:
236,260,102438,1,8,0:0:0:0:
228,232,102519,1,0,0:0:0:0:
216,208,102600,1,0,0:0:0:0:
216,208,102681,1,0,0:0:0:0:
216,208,102762,1,8,0:0:0:0:
216,208,102843,1,0,0:0:0:0:
216,208,102925,1,8,0:0:0:0:
216,208,103006,1,0,0:0:0:0:
168,212,103087,1,8,0:0:0:0:
168,212,103168,1,8,0:0:0:0:
156,188,103249,1,0,0:0:0:0:
168,212,103330,1,0,0:0:0:0:
168,212,103411,1,8,0:0:0:0:
168,212,103492,1,8,0:0:0:0:
168,212,103573,1,8,0:0:0:0:
168,212,103654,1,8,0:0:0:0:
168,212,103735,1,0,0:0:0:0:
116,196,103897,1,8,0:0:0:0:
88,188,103979,1,8,0:0:0:0:
88,188,104060,1,0,0:0:0:0:
88,188,104222,1,8,0:0:0:0:
88,188,104303,1,8,0:0:0:0:
88,188,104384,1,0,0:0:0:0:
88,188,104546,1,0,0:0:0:0:
88,188,104627,1,8,0:0:0:0:
88,188,104708,1,8,0:0:0:0:
308,140,105032,1,12,0:0:0:0:
256,192,105194,8,0,107627,0:0:0:0:
