osu file format v14

[General]
AudioFilename: audio.mp3
AudioLeadIn: 0
PreviewTime: 41951
Countdown: 0
SampleSet: Normal
StackLeniency: 0.7
Mode: 1
LetterboxInBreaks: 0
WidescreenStoryboard: 0

[Editor]
Bookmarks: 11627,22086,32384,42762,57032,63519,73897,81600,86870
DistanceSpacing: 1.2
BeatDivisor: 4
GridSize: 4
TimelineZoom: 1.4

[Metadata]
Title:YELLOW SPLASH!!
TitleUnicode:YELLOW SPLASH!!
Artist:P*Light
ArtistUnicode:P*Light
Creator:Volta
Version:ONI!!
Source:REFLEC BEAT groovin'!!
Tags:pending cup konami bemani plus MUSIC PACK 67
BeatmapID:991564
BeatmapSetID:461767

[Difficulty]
HPDrainRate:5.5
CircleSize:6
OverallDifficulty:5.5
ApproachRate:6
SliderMultiplier:1.4
SliderTickRate:1

[Events]
//Background and Video events
0,0,"hot splash.jpg",0,40
//Break Periods
//Storyboard Layer 0 (Background)
//Storyboard Layer 1 (Fail)
//Storyboard Layer 2 (Pass)
//Storyboard Layer 3 (Foreground)
//Storyboard Sound Samples

[TimingPoints]
1249,324.324324324324,4,1,0,90,1,0
11627,-100,4,1,0,90,0,1
32384,-100,4,1,0,90,0,0
86870,-100,4,1,0,90,0,1
105032,-100,4,1,0,90,0,0

[HitObjects]
312,236,1249,5,4,0:0:0:0:
240,156,1897,1,8,0:0:0:0:
168,184,2140,1,0,0:0:0:0:
200,168,2384,1,8,0:0:0:0:
232,160,2708,1,8,0:0:0:0:
232,160,3032,1,8,0:0:0:0:
232,160,3194,1,8,0:0:0:0:
340,172,3519,1,8,0:0:0:0:
200,136,3843,1,0,0:0:0:0:
208,136,4492,1,8,0:0:0:0:
152,176,4735,1,0,0:0:0:0:
192,144,4978,1,8,0:0:0:0:
192,144,5303,1,8,0:0:0:0:
192,144,5627,1,8,0:0:0:0:
192,144,5789,1,8,0:0:0:0:
192,60,6113,1,8,0:0:0:0:
260,140,6438,1,4,0:0:0:0:
380,144,7086,1,8,0:0:0:0:
148,180,7330,1,0,0:0:0:0:
304,120,7573,1,8,0:0:0:0:
304,120,7735,1,4,0:0:0:0:
304,120,7897,1,8,0:0:0:0:
304,120,8221,1,8,0:0:0:0:
304,120,8384,1,4,0:0:0:0:
232,176,8546,1,8,0:0:0:0:
232,176,8708,1,4,0:0:0:0:
232,176,8870,1,8,0:0:0:0:
232,176,9032,1,12,0:0:0:0:
192,116,9357,1,8,0:0:0:0:
316,72,9519,5,0,0:0:0:0:
316,76,9600,1,8,0:0:0:0:
316,76,9681,1,0,0:0:0:0:
248,136,9843,1,0,0:0:0:0:
248,136,10005,1,8,0:0:0:0:
204,104,10167,1,0,0:0:0:0:
264,128,10330,1,0,0:0:0:0:
264,128,10411,1,0,0:0:0:0:
264,128,10492,1,0,0:0:0:0:
264,128,10654,1,8,0:0:0:0:
264,128,10735,1,8,0:0:0:0:
264,128,10816,1,8,0:0:0:0:
264,128,10897,1,8,0:0:0:0:
264,128,10978,1,0,0:0:0:0:
224,96,11303,1,8,0:0:0:0:
220,156,11465,1,0,0:0:0:0:
220,156,11546,1,0,0:0:0:0:
220,156,11627,1,8,0:0:0:0:
288,120,11951,1,8,0:0:0:0:
424,252,12113,1,0,0:0:0:0:
196,92,12276,1,0,0:0:0:0:
196,92,12357,1,0,0:0:0:0:
196,92,12438,1,0,0:0:0:0:
196,92,12600,1,8,0:0:0:0:
196,92,12762,1,0,0:0:0:0:
264,220,13086,1,0,0:0:0:0:
264,220,13248,1,8,0:0:0:0:
264,220,13411,1,0,0:0:0:0:
264,220,13492,1,8,0:0:0:0:
264,220,13573,1,0,0:0:0:0:
260,180,13735,1,0,0:0:0:0:
260,180,13897,1,8,0:0:0:0:
260,180,14059,1,8,0:0:0:0:
260,180,14221,1,0,0:0:0:0:
260,180,14384,1,8,0:0:0:0:
260,180,14465,1,8,0:0:0:0:
260,180,14546,1,0,0:0:0:0:
260,180,14708,1,8,0:0:0:0:
260,180,14870,1,0,0:0:0:0:
208,128,15194,1,0,0:0:0:0:
208,144,15357,1,8,0:0:0:0:
208,148,15519,1,8,0:0:0:0:
204,144,15681,1,8,0:0:0:0:
204,144,15762,1,8,0:0:0:0:
204,144,15843,1,0,0:0:0:0:
204,148,16005,1,8,0:0:0:0:
204,148,16167,1,0,0:0:0:0:
196,144,16330,1,0,0:0:0:0:
196,144,16411,1,0,0:0:0:0:
200,148,16492,1,8,0:0:0:0:
208,136,16654,1,8,0:0:0:0:
208,132,16816,1,4,0:0:0:0:
200,212,17140,1,8,0:0:0:0:
200,212,17303,1,0,0:0:0:0:
204,212,17465,1,0,0:0:0:0:
208,216,17546,1,0,0:0:0:0:
208,216,17627,1,0,0:0:0:0:
208,216,17789,1,8,0:0:0:0:
208,216,17951,1,0,0:0:0:0:
184,180,18276,1,0,0:0:0:0:
184,180,18438,1,8,0:0:0:0:
184,180,18600,1,0,0:0:0:0:
184,180,18681,1,8,0:0:0:0:
184,180,18762,1,0,0:0:0:0:
184,180,18924,1,0,0:0:0:0:
184,180,19086,1,8,0:0:0:0:
184,180,19248,1,8,0:0:0:0:
184,180,19411,1,0,0:0:0:0:
184,180,19573,1,8,0:0:0:0:
184,180,19654,1,8,0:0:0:0:
184,180,19735,1,0,0:0:0:0:
184,180,19897,1,8,0:0:0:0:
184,180,20059,1,0,0:0:0:0:
184,188,20221,1,0,0:0:0:0:
184,188,20384,1,0,0:0:0:0:
184,188,20465,1,0,0:0:0:0:
184,188,20546,1,8,0:0:0:0:
184,188,20627,1,8,0:0:0:0:
184,188,20708,1,0,0:0:0:0:
144,160,20870,1,8,0:0:0:0:
148,160,20951,1,8,0:0:0:0:
148,164,21032,1,0,0:0:0:0:
148,160,21194,1,8,0:0:0:0:
148,160,21276,1,8,0:0:0:0:
148,160,21357,1,0,0:0:0:0:
148,160,21681,1,8,0:0:0:0:
284,148,21843,1,0,0:0:0:0:
284,148,21924,1,0,0:0:0:0:
284,148,22005,1,8,0:0:0:0:
184,112,22330,1,8,0:0:0:0:
244,104,22492,1,0,0:0:0:0:
244,104,22654,1,8,0:0:0:0:
244,108,22816,1,0,0:0:0:0:
244,108,22897,1,0,0:0:0:0:
244,108,22978,1,8,0:0:0:0:
212,140,23140,1,8,0:0:0:0:
180,84,23465,1,8,0:0:0:0:
184,92,23627,1,0,0:0:0:0:
180,160,23789,1,8,0:0:0:0:
184,160,23870,1,0,0:0:0:0:
180,160,23951,1,8,0:0:0:0:
188,88,24113,1,0,0:0:0:0:
188,92,24276,1,8,0:0:0:0:
192,92,24438,1,8,0:0:0:0:
248,176,24600,1,0,0:0:0:0:
248,176,24762,1,8,0:0:0:0:
248,176,24843,1,8,0:0:0:0:
248,176,24924,1,8,0:0:0:0:
248,176,25086,1,8,0:0:0:0:
260,160,25248,1,0,0:0:0:0:
308,136,25573,1,0,0:0:0:0:
212,172,25735,1,8,0:0:0:0:
212,172,25897,1,8,0:0:0:0:
216,172,26059,1,8,0:0:0:0:
216,176,26140,1,8,0:0:0:0:
216,176,26221,1,0,0:0:0:0:
220,176,26384,1,8,0:0:0:0:
220,176,26546,1,0,0:0:0:0:
292,180,26708,1,0,0:0:0:0:
292,180,26870,1,8,0:0:0:0:
292,180,26951,1,8,0:0:0:0:
292,180,27032,1,0,0:0:0:0:
292,180,27194,1,8,0:0:0:0:
308,192,27519,1,8,0:0:0:0:
340,192,27843,1,8,0:0:0:0:
340,200,28005,1,0,0:0:0:0:
256,128,28330,1,8,0:0:0:0:
260,132,28654,1,0,0:0:0:0:
260,132,28816,1,8,0:0:0:0:
260,132,28978,1,8,0:0:0:0:
260,132,29140,1,0,0:0:0:0:
264,128,29303,1,0,0:0:0:0:
264,128,29465,1,12,0:0:0:0:
200,116,29789,1,0,0:0:0:0:
120,148,29951,1,8,0:0:0:0:
124,156,30032,1,8,0:0:0:0:
124,156,30113,1,0,0:0:0:0:
124,164,30276,1,8,0:0:0:0:
124,164,30438,1,0,0:0:0:0:
124,164,30600,1,0,0:0:0:0:
124,168,30762,1,0,0:0:0:0:
132,168,30843,1,0,0:0:0:0:
132,168,30924,1,8,0:0:0:0:
132,168,31005,1,8,0:0:0:0:
132,168,31086,1,0,0:0:0:0:
220,124,31248,1,8,0:0:0:0:
220,128,31330,1,8,0:0:0:0:
220,128,31411,1,0,0:0:0:0:
216,128,31573,1,8,0:0:0:0:
216,128,31654,1,8,0:0:0:0:
216,128,31735,1,0,0:0:0:0:
216,128,32384,1,0,0:0:0:0:
300,232,32546,1,0,0:0:0:0:
300,232,32708,1,8,0:0:0:0:
168,84,32870,5,0,0:0:0:0:
168,84,32951,1,8,0:0:0:0:
168,84,33032,1,0,0:0:0:0:
360,232,33681,1,0,0:0:0:0:
352,232,33843,1,0,0:0:0:0:
348,232,33924,1,0,0:0:0:0:
348,236,34005,1,8,0:0:0:0:
352,236,34167,1,0,0:0:0:0:
348,232,34248,1,8,0:0:0:0:
348,232,34330,1,0,0:0:0:0:
192,124,34978,1,0,0:0:0:0:
300,208,35140,1,0,0:0:0:0:
300,208,35221,1,0,0:0:0:0:
300,208,35303,1,8,0:0:0:0:
300,208,35465,1,0,0:0:0:0:
300,208,35627,1,8,0:0:0:0:
300,208,35789,1,8,0:0:0:0:
216,148,35870,1,8,0:0:0:0:
300,208,35951,1,0,0:0:0:0:
216,148,36113,1,8,0:0:0:0:
300,208,36276,1,0,0:0:0:0:
176,144,36438,1,8,0:0:0:0:
176,144,36519,1,8,0:0:0:0:
176,144,36600,1,0,0:0:0:0:
176,144,36762,1,8,0:0:0:0:
176,144,36843,1,8,0:0:0:0:
176,144,36924,1,0,0:0:0:0:
320,192,37573,1,0,0:0:0:0:
268,196,37735,1,0,0:0:0:0:
268,196,37816,1,0,0:0:0:0:
268,196,37897,1,8,0:0:0:0:
224,176,38059,1,8,0:0:0:0:
224,180,38221,1,0,0:0:0:0:
224,176,38546,1,8,0:0:0:0:
244,104,38627,1,8,0:0:0:0:
216,180,38708,1,0,0:0:0:0:
244,104,38870,1,8,0:0:0:0:
216,140,39032,1,0,0:0:0:0:
216,140,39113,1,0,0:0:0:0:
216,140,39194,1,8,0:0:0:0:
216,140,39357,1,8,0:0:0:0:
216,140,39519,1,0,0:0:0:0:
220,144,39843,1,8,0:0:0:0:
220,144,39924,1,8,0:0:0:0:
224,144,40005,1,0,0:0:0:0:
196,140,40167,1,8,0:0:0:0:
340,256,40330,1,0,0:0:0:0:
340,256,40411,1,0,0:0:0:0:
240,164,40492,1,8,0:0:0:0:
340,256,40654,1,8,0:0:0:0:
84,160,40816,1,0,0:0:0:0:
140,132,40897,1,0,0:0:0:0:
268,200,40978,1,0,0:0:0:0:
268,204,41140,1,8,0:0:0:0:
264,204,41221,1,8,0:0:0:0:
268,204,41303,1,8,0:0:0:0:
264,204,41384,1,8,0:0:0:0:
264,204,41465,1,0,0:0:0:0:
216,156,42276,1,0,0:0:0:0:
216,164,42438,1,8,0:0:0:0:
292,140,42762,1,4,0:0:0:0:
296,152,43086,1,8,0:0:0:0:
296,148,43248,1,0,0:0:0:0:
152,156,43411,1,0,0:0:0:0:
156,164,43573,1,0,0:0:0:0:
160,164,43735,1,8,0:0:0:0:
192,96,43897,1,0,0:0:0:0:
152,156,43978,1,8,0:0:0:0:
192,96,44059,1,0,0:0:0:0:
192,96,44221,1,0,0:0:0:0:
192,96,44384,1,8,0:0:0:0:
192,96,44546,1,0,0:0:0:0:
156,156,44870,1,8,0:0:0:0:
156,156,45032,1,8,0:0:0:0:
156,156,45194,1,8,0:0:0:0:
156,156,45357,1,0,0:0:0:0:
160,136,45519,1,8,0:0:0:0:
160,144,45600,1,8,0:0:0:0:
160,144,45681,1,0,0:0:0:0:
224,136,45843,1,8,0:0:0:0:
224,144,46005,1,0,0:0:0:0:
216,128,46167,1,8,0:0:0:0:
136,120,46330,1,8,0:0:0:0:
212,136,46492,1,0,0:0:0:0:
220,120,46816,1,8,0:0:0:0:
76,128,46978,1,0,0:0:0:0:
220,120,47140,1,8,0:0:0:0:
76,128,47303,1,0,0:0:0:0:
220,120,47465,1,8,0:0:0:0:
220,120,47627,1,8,0:0:0:0:
220,120,47789,1,8,0:0:0:0:
148,136,47951,1,0,0:0:0:0:
208,132,48276,1,8,0:0:0:0:
208,132,48438,1,0,0:0:0:0:
212,132,48600,1,0,0:0:0:0:
212,132,48762,1,0,0:0:0:0:
212,136,48924,1,8,0:0:0:0:
208,132,49086,1,0,0:0:0:0:
208,132,49167,1,8,0:0:0:0:
208,132,49248,1,0,0:0:0:0:
84,164,49411,1,0,0:0:0:0:
124,172,49573,1,8,0:0:0:0:
128,176,49735,1,0,0:0:0:0:
240,128,50059,1,8,0:0:0:0:
240,128,50221,1,8,0:0:0:0:
240,120,50384,1,8,0:0:0:0:
240,120,50546,1,0,0:0:0:0:
224,116,50708,1,0,0:0:0:0:
232,116,50789,1,8,0:0:0:0:
232,116,50870,1,0,0:0:0:0:
244,120,51032,1,8,0:0:0:0:
256,140,51194,1,0,0:0:0:0:
276,164,51357,1,8,0:0:0:0:
276,164,51519,1,8,0:0:0:0:
224,144,51600,1,8,0:0:0:0:
276,164,51681,1,0,0:0:0:0:
224,144,51843,1,0,0:0:0:0:
168,124,52167,1,8,0:0:0:0:
248,176,52330,1,0,0:0:0:0:
248,176,52411,1,8,0:0:0:0:
244,172,52492,1,0,0:0:0:0:
248,176,52654,1,0,0:0:0:0:
248,176,52816,1,8,0:0:0:0:
248,176,52978,1,0,0:0:0:0:
248,212,53140,5,8,0:0:0:0:
248,212,53465,1,8,0:0:0:0:
112,120,53627,1,0,0:0:0:0:
248,212,53789,1,8,0:0:0:0:
112,112,53870,1,0,0:0:0:0:
248,212,53951,1,8,0:0:0:0:
248,212,54113,1,8,0:0:0:0:
136,164,54438,1,0,0:0:0:0:
232,144,54600,1,8,0:0:0:0:
144,168,54681,1,0,0:0:0:0:
248,96,54762,1,8,0:0:0:0:
232,144,54924,1,0,0:0:0:0:
232,144,55005,1,0,0:0:0:0:
236,144,55086,1,8,0:0:0:0:
240,144,55248,1,8,0:0:0:0:
236,144,55411,1,8,0:0:0:0:
100,168,55735,1,8,0:0:0:0:
100,160,55897,1,0,0:0:0:0:
184,168,56059,1,8,0:0:0:0:
184,168,56221,1,0,0:0:0:0:
184,168,56303,1,0,0:0:0:0:
184,168,56384,1,8,0:0:0:0:
248,116,56546,1,8,0:0:0:0:
208,116,56708,1,8,0:0:0:0:
212,124,56870,1,0,0:0:0:0:
264,136,57194,1,8,0:0:0:0:
236,160,57357,1,0,0:0:0:0:
264,136,57519,1,8,0:0:0:0:
208,128,57681,1,0,0:0:0:0:
208,132,57843,1,8,0:0:0:0:
264,136,57924,1,0,0:0:0:0:
224,128,58005,1,8,0:0:0:0:
224,132,58167,1,0,0:0:0:0:
224,280,58330,1,8,0:0:0:0:
216,280,58492,1,0,0:0:0:0:
216,280,58573,1,0,0:0:0:0:
220,280,58654,1,8,0:0:0:0:
220,280,58816,1,0,0:0:0:0:
220,284,58978,1,8,0:0:0:0:
220,288,59059,1,0,0:0:0:0:
224,288,59140,1,8,0:0:0:0:
224,288,59221,1,0,0:0:0:0:
224,292,59303,1,8,0:0:0:0:
256,88,59465,1,0,0:0:0:0:
184,168,59627,1,8,0:0:0:0:
136,132,59951,1,8,0:0:0:0:
168,124,60113,1,0,0:0:0:0:
168,124,60194,1,0,0:0:0:0:
168,124,60276,1,8,0:0:0:0:
172,124,60357,1,0,0:0:0:0:
304,104,60438,1,8,0:0:0:0:
220,144,60600,1,8,0:0:0:0:
224,144,60762,1,0,0:0:0:0:
176,132,60924,1,8,0:0:0:0:
292,112,61086,1,8,0:0:0:0:
292,112,61167,1,0,0:0:0:0:
292,112,61248,1,8,0:0:0:0:
224,120,61411,1,8,0:0:0:0:
220,124,61573,1,8,0:0:0:0:
288,240,61654,1,8,0:0:0:0:
220,124,61735,1,0,0:0:0:0:
224,120,61897,1,8,0:0:0:0:
224,120,61978,1,8,0:0:0:0:
224,120,62059,1,8,0:0:0:0:
224,120,62140,1,8,0:0:0:0:
224,120,62221,1,0,0:0:0:0:
220,160,63194,1,8,0:0:0:0:
268,132,63519,5,0,0:0:0:0:
216,124,63681,1,0,0:0:0:0:
216,148,63843,1,8,0:0:0:0:
216,144,64167,1,0,0:0:0:0:
212,144,64248,1,0,0:0:0:0:
192,104,64330,1,0,0:0:0:0:
188,112,64492,1,8,0:0:0:0:
188,112,64654,1,0,0:0:0:0:
192,124,64816,1,0,0:0:0:0:
216,104,65140,1,8,0:0:0:0:
84,164,65303,1,8,0:0:0:0:
192,124,65465,1,0,0:0:0:0:
172,148,65627,1,0,0:0:0:0:
200,140,65789,1,8,0:0:0:0:
200,140,65870,1,8,0:0:0:0:
200,140,65951,1,8,0:0:0:0:
200,140,66032,1,8,0:0:0:0:
200,140,66113,1,0,0:0:0:0:
224,116,66276,1,0,0:0:0:0:
224,116,66438,1,8,0:0:0:0:
224,116,66762,1,0,0:0:0:0:
224,116,66843,1,0,0:0:0:0:
184,168,66924,1,0,0:0:0:0:
184,168,67086,1,8,0:0:0:0:
184,168,67248,1,0,0:0:0:0:
216,116,67411,1,0,0:0:0:0:
240,128,67735,1,8,0:0:0:0:
232,132,67897,1,8,0:0:0:0:
216,116,68059,1,0,0:0:0:0:
224,128,68221,1,0,0:0:0:0:
200,144,68384,1,0,0:0:0:0:
200,144,68465,1,8,0:0:0:0:
200,144,68546,1,8,0:0:0:0:
200,144,68627,1,8,0:0:0:0:
200,144,68708,1,0,0:0:0:0:
216,120,68870,1,0,0:0:0:0:
216,120,69032,1,8,0:0:0:0:
216,120,69357,1,0,0:0:0:0:
216,120,69438,1,0,0:0:0:0:
100,160,69519,1,0,0:0:0:0:
176,164,69681,1,8,0:0:0:0:
172,156,69843,1,0,0:0:0:0:
208,116,70005,1,0,0:0:0:0:
184,148,70330,1,8,0:0:0:0:
184,148,70492,1,8,0:0:0:0:
216,128,70654,1,0,0:0:0:0:
184,152,70816,1,0,0:0:0:0:
192,144,70978,1,8,0:0:0:0:
192,144,71059,1,8,0:0:0:0:
192,144,71140,1,8,0:0:0:0:
192,144,71221,1,8,0:0:0:0:
192,144,71303,1,0,0:0:0:0:
160,144,71465,1,0,0:0:0:0:
160,144,71627,1,8,0:0:0:0:
160,144,71951,1,0,0:0:0:0:
236,96,72113,5,0,0:0:0:0:
192,144,72276,1,0,0:0:0:0:
192,144,72357,1,8,0:0:0:0:
192,144,72438,1,8,0:0:0:0:
192,144,72519,1,8,0:0:0:0:
188,148,72600,1,0,0:0:0:0:
248,100,73897,1,4,0:0:0:0:
156,144,74221,1,0,0:0:0:0:
156,152,74546,1,8,0:0:0:0:
248,156,74870,1,0,0:0:0:0:
264,172,75032,1,8,0:0:0:0:
244,100,75194,1,4,0:0:0:0:
256,172,75519,1,0,0:0:0:0:
256,172,75843,1,8,0:0:0:0:
256,172,76167,1,0,0:0:0:0:
256,172,76330,1,8,0:0:0:0:
248,116,76492,1,4,0:0:0:0:
232,216,76654,1,8,0:0:0:0:
228,224,76816,1,0,0:0:0:0:
228,224,76978,1,8,0:0:0:0:
228,224,77140,1,4,0:0:0:0:
228,224,77303,1,8,0:0:0:0:
244,184,77465,1,0,0:0:0:0:
168,128,77627,1,8,0:0:0:0:
168,128,77789,1,4,0:0:0:0:
184,132,77951,1,8,0:0:0:0:
180,132,78032,1,8,0:0:0:0:
180,132,78113,1,0,0:0:0:0:
180,132,78276,1,8,0:0:0:0:
180,132,78357,1,8,0:0:0:0:
180,132,78438,1,0,0:0:0:0:
180,132,78600,1,8,0:0:0:0:
180,132,78681,1,8,0:0:0:0:
180,132,78762,1,0,0:0:0:0:
184,132,78924,1,8,0:0:0:0:
180,132,79005,1,8,0:0:0:0:
256,172,79086,1,0,0:0:0:0:
256,192,79248,12,0,81519,0:0:0:0:
240,172,81681,5,0,0:0:0:0:
244,176,82005,1,8,0:0:0:0:
244,176,82167,1,0,0:0:0:0:
244,176,82248,1,8,0:0:0:0:
244,176,82330,1,0,0:0:0:0:
252,240,82492,1,0,0:0:0:0:
252,248,82654,1,8,0:0:0:0:
252,248,82816,1,0,0:0:0:0:
252,248,82978,1,6,0:0:0:0:
252,252,83140,1,2,0:0:0:0:
252,252,83303,1,2,0:0:0:0:
252,252,83465,1,2,0:0:0:0:
252,252,83627,1,6,0:0:0:0:
256,248,83951,1,8,0:0:0:0:
256,248,84276,1,4,0:0:0:0:
240,240,85248,1,0,0:0:0:0:
240,240,85411,1,8,0:0:0:0:
180,176,85735,1,8,0:0:0:0:
176,184,85897,1,8,0:0:0:0:
176,184,86059,1,0,0:0:0:0:
176,184,86221,1,0,0:0:0:0:
236,236,86546,1,8,0:0:0:0:
260,116,86870,1,4,0:0:0:0:
260,116,87032,1,8,0:0:0:0:
264,104,87113,1,8,0:0:0:0:
256,140,87194,1,8,0:0:0:0:
264,104,87357,1,8,0:0:0:0:
264,104,87519,1,0,0:0:0:0:
216,84,87600,1,0,0:0:0:0:
216,84,87681,1,8,0:0:0:0:
216,84,87762,1,8,0:0:0:0:
216,84,87843,1,0,0:0:0:0:
228,188,88005,1,0,0:0:0:0:
228,188,88167,1,8,0:0:0:0:
224,84,88330,1,8,0:0:0:0:
224,88,88411,1,8,0:0:0:0:
224,88,88492,1,0,0:0:0:0:
228,84,88654,1,8,0:0:0:0:
228,84,88816,1,8,0:0:0:0:
228,84,88897,1,0,0:0:0:0:
228,84,88978,1,8,0:0:0:0:
228,80,89059,1,8,0:0:0:0:
232,84,89140,1,0,0:0:0:0:
232,88,89303,1,8,0:0:0:0:
232,88,89465,1,0,0:0:0:0:
200,212,89789,1,8,0:0:0:0:
200,212,89952,1,0,0:0:0:0:
204,212,90114,1,0,0:0:0:0:
208,216,90195,1,0,0:0:0:0:
208,216,90276,1,0,0:0:0:0:
208,216,90438,1,8,0:0:0:0:
208,216,90600,1,0,0:0:0:0:
184,180,90925,1,0,0:0:0:0:
184,180,91087,1,8,0:0:0:0:
184,180,91249,1,0,0:0:0:0:
184,180,91330,1,8,0:0:0:0:
184,180,91411,1,0,0:0:0:0:
184,180,91573,1,0,0:0:0:0:
184,180,91735,1,8,0:0:0:0:
184,180,91897,1,8,0:0:0:0:
184,180,92059,1,0,0:0:0:0:
184,180,92222,1,8,0:0:0:0:
184,180,92303,1,8,0:0:0:0:
184,180,92384,5,0,0:0:0:0:
184,180,92546,1,8,0:0:0:0:
184,180,92708,1,0,0:0:0:0:
184,188,92870,1,0,0:0:0:0:
184,188,93033,1,0,0:0:0:0:
184,188,93114,1,0,0:0:0:0:
184,188,93195,1,8,0:0:0:0:
184,188,93276,1,8,0:0:0:0:
184,188,93357,1,0,0:0:0:0:
244,144,93519,1,8,0:0:0:0:
244,144,93600,1,8,0:0:0:0:
244,144,93681,1,0,0:0:0:0:
248,140,93843,1,8,0:0:0:0:
148,160,93925,1,8,0:0:0:0:
148,160,94006,1,0,0:0:0:0:
156,160,94330,5,8,0:0:0:0:
292,148,94492,1,0,0:0:0:0:
292,148,94573,1,0,0:0:0:0:
292,148,94654,1,8,0:0:0:0:
192,112,94979,1,8,0:0:0:0:
252,104,95141,1,0,0:0:0:0:
252,104,95303,1,8,0:0:0:0:
252,108,95465,1,0,0:0:0:0:
252,108,95546,1,0,0:0:0:0:
252,108,95627,1,8,0:0:0:0:
220,140,95789,1,8,0:0:0:0:
188,84,96114,1,8,0:0:0:0:
192,92,96276,1,0,0:0:0:0:
188,160,96438,1,8,0:0:0:0:
192,160,96519,1,0,0:0:0:0:
188,160,96600,1,8,0:0:0:0:
196,88,96762,1,0,0:0:0:0:
196,92,96925,1,8,0:0:0:0:
200,92,97087,1,8,0:0:0:0:
256,176,97249,1,0,0:0:0:0:
256,176,97411,1,8,0:0:0:0:
256,176,97492,1,8,0:0:0:0:
256,176,97573,1,8,0:0:0:0:
256,176,97735,1,8,0:0:0:0:
268,160,97897,1,0,0:0:0:0:
316,136,98222,1,0,0:0:0:0:
220,172,98384,1,8,0:0:0:0:
220,172,98546,1,8,0:0:0:0:
224,172,98708,1,8,0:0:0:0:
224,176,98789,1,8,0:0:0:0:
224,176,98870,1,0,0:0:0:0:
156,200,99032,1,8,0:0:0:0:
228,176,99195,1,0,0:0:0:0:
300,180,99357,1,0,0:0:0:0:
300,180,99519,1,8,0:0:0:0:
300,180,99600,1,8,0:0:0:0:
300,180,99681,1,0,0:0:0:0:
300,180,99843,1,8,0:0:0:0:
316,192,100168,1,8,0:0:0:0:
348,192,100492,1,8,0:0:0:0:
348,200,100654,1,0,0:0:0:0:
264,128,100979,1,8,0:0:0:0:
268,132,101303,1,0,0:0:0:0:
268,132,101465,1,8,0:0:0:0:
268,132,101627,1,8,0:0:0:0:
268,132,101789,1,0,0:0:0:0:
272,128,101952,1,0,0:0:0:0:
272,128,102114,1,12,0:0:0:0:
208,116,102438,1,0,0:0:0:0:
128,148,102600,1,8,0:0:0:0:
132,156,102681,1,8,0:0:0:0:
132,156,102762,1,0,0:0:0:0:
132,164,102925,1,8,0:0:0:0:
132,164,103087,1,0,0:0:0:0:
132,164,103249,1,0,0:0:0:0:
132,168,103411,1,0,0:0:0:0:
140,168,103492,1,0,0:0:0:0:
140,168,103573,1,8,0:0:0:0:
140,168,103654,1,8,0:0:0:0:
140,168,103735,1,0,0:0:0:0:
228,124,103897,1,8,0:0:0:0:
228,128,103979,1,8,0:0:0:0:
228,128,104060,1,0,0:0:0:0:
224,128,104222,1,8,0:0:0:0:
224,128,104303,1,8,0:0:0:0:
224,128,104384,1,0,0:0:0:0:
256,168,104708,1,8,0:0:0:0:
256,168,105032,1,4,0:0:0:0:
