osu file format v14

[General]
AudioFilename: audio.mp3
AudioLeadIn: 0
PreviewTime: 41951
Countdown: 0
SampleSet: Normal
StackLeniency: 0.7
Mode: 1
LetterboxInBreaks: 0
WidescreenStoryboard: 0

[Editor]
Bookmarks: 11627,22086,32384,42762,57032,63519,73897,81600,86870
DistanceSpacing: 1.1
BeatDivisor: 2
GridSize: 4
TimelineZoom: 0.5999999

[Metadata]
Title:YELLOW SPLASH!!
TitleUnicode:YELLOW SPLASH!!
Artist:P*Light
ArtistUnicode:P*Light
Creator:Volta
Version:KANTAN!!
Source:REFLEC BEAT groovin'!!
Tags:pending cup konami bemani plus MUSIC PACK 67
BeatmapID:991563
BeatmapSetID:461767

[Difficulty]
HPDrainRate:7
CircleSize:6
OverallDifficulty:4
ApproachRate:6
SliderMultiplier:1.4
SliderTickRate:1

[Events]
//Background and Video events
0,0,"hot splash.jpg",0,40
//Break Periods
//Storyboard Layer 0 (Background)
//Storyboard Layer 1 (Fail)
//Storyboard Layer 2 (Pass)
//Storyboard Layer 3 (Foreground)
//Storyboard Sound Samples

[TimingPoints]
1249,324.324324324324,4,1,0,90,1,0
11627,-100,4,1,0,90,0,1
32384,-100,4,1,0,90,0,0
86870,-100,4,1,0,90,0,1
105032,-100,4,1,0,90,0,0

[HitObjects]
252,152,1249,5,4,0:0:0:0:
196,192,3843,1,0,0:0:0:0:
200,188,6438,1,4,0:0:0:0:
204,188,7735,1,4,0:0:0:0:
232,140,8384,1,4,0:0:0:0:
232,140,9032,1,12,0:0:0:0:
296,104,10330,1,0,0:0:0:0:
152,168,10654,1,0,0:0:0:0:
296,104,10978,1,0,0:0:0:0:
208,152,11627,1,4,0:0:0:0:
192,144,12924,1,0,0:0:0:0:
192,144,13573,1,0,0:0:0:0:
192,144,14221,1,8,0:0:0:0:
192,140,14546,1,8,0:0:0:0:
192,144,14870,1,0,0:0:0:0:
196,140,15519,1,8,0:0:0:0:
144,192,15843,1,0,0:0:0:0:
196,140,16167,1,8,0:0:0:0:
196,140,16816,1,4,0:0:0:0:
340,168,17465,1,8,0:0:0:0:
192,140,18113,1,0,0:0:0:0:
168,120,18762,1,8,0:0:0:0:
192,212,19086,1,8,0:0:0:0:
192,212,19411,1,0,0:0:0:0:
168,120,20059,1,0,0:0:0:0:
336,176,20384,1,0,0:0:0:0:
168,120,20708,1,8,0:0:0:0:
176,188,21032,1,8,0:0:0:0:
168,120,21357,1,8,0:0:0:0:
208,108,22005,1,4,0:0:0:0:
344,116,23303,1,0,0:0:0:0:
288,116,23951,1,0,0:0:0:0:
288,116,24600,1,8,0:0:0:0:
288,116,24924,1,8,0:0:0:0:
288,116,25248,1,0,0:0:0:0:
176,136,25897,1,8,0:0:0:0:
160,216,26221,1,0,0:0:0:0:
244,156,26546,1,8,0:0:0:0:
244,156,27194,1,0,0:0:0:0:
224,144,28330,1,8,0:0:0:0:
224,144,29140,1,0,0:0:0:0:
224,144,29465,1,8,0:0:0:0:
224,144,29789,1,0,0:0:0:0:
224,144,30438,1,0,0:0:0:0:
244,116,31086,1,8,0:0:0:0:
244,116,31411,1,8,0:0:0:0:
244,116,31735,1,8,0:0:0:0:
244,116,32384,1,0,0:0:0:0:
244,120,33681,1,0,0:0:0:0:
240,120,34978,1,0,0:0:0:0:
244,120,35627,1,8,0:0:0:0:
244,124,36276,1,0,0:0:0:0:
244,124,36600,1,0,0:0:0:0:
244,124,36924,1,0,0:0:0:0:
244,124,37573,1,0,0:0:0:0:
320,64,38870,1,0,0:0:0:0:
240,120,39519,1,0,0:0:0:0:
244,124,40167,1,0,0:0:0:0:
144,88,40492,1,0,0:0:0:0:
144,88,40816,1,8,0:0:0:0:
144,88,41140,1,8,0:0:0:0:
144,88,41465,1,0,0:0:0:0:
252,160,42762,1,4,0:0:0:0:
252,160,44059,1,0,0:0:0:0:
248,168,44708,1,8,0:0:0:0:
248,168,45357,1,0,0:0:0:0:
248,168,45681,1,0,0:0:0:0:
252,160,46005,1,8,0:0:0:0:
248,168,46654,1,0,0:0:0:0:
248,168,47303,1,8,0:0:0:0:
248,168,47627,1,8,0:0:0:0:
248,168,47951,1,0,0:0:0:0:
140,120,49248,1,0,0:0:0:0:
140,136,49897,1,8,0:0:0:0:
140,136,50546,1,0,0:0:0:0:
140,136,50870,1,0,0:0:0:0:
248,168,51194,1,8,0:0:0:0:
232,148,51519,1,8,0:0:0:0:
140,136,51843,1,0,0:0:0:0:
140,136,53140,1,0,0:0:0:0:
140,136,53789,1,8,0:0:0:0:
140,136,54438,1,0,0:0:0:0:
140,136,54762,1,0,0:0:0:0:
140,136,55086,1,8,0:0:0:0:
140,136,55735,1,0,0:0:0:0:
220,160,56384,1,8,0:0:0:0:
144,168,56708,1,8,0:0:0:0:
148,176,57032,1,0,0:0:0:0:
176,188,57681,1,0,0:0:0:0:
176,188,58330,1,8,0:0:0:0:
176,188,59627,1,8,0:0:0:0:
176,188,60276,1,0,0:0:0:0:
176,188,60924,1,8,0:0:0:0:
176,188,61248,1,8,0:0:0:0:
176,188,61573,1,8,0:0:0:0:
176,188,61897,1,8,0:0:0:0:
176,188,62221,1,0,0:0:0:0:
176,188,63519,1,0,0:0:0:0:
96,144,64816,1,0,0:0:0:0:
96,144,65465,1,8,0:0:0:0:
96,144,66113,1,0,0:0:0:0:
96,144,67411,1,0,0:0:0:0:
96,144,68059,1,0,0:0:0:0:
96,144,68708,1,0,0:0:0:0:
96,148,70005,1,0,0:0:0:0:
96,148,70654,1,8,0:0:0:0:
96,148,71303,1,0,0:0:0:0:
184,140,71951,1,8,0:0:0:0:
96,148,72600,1,0,0:0:0:0:
96,148,73897,1,4,0:0:0:0:
176,136,75194,1,4,0:0:0:0:
176,136,76492,1,4,0:0:0:0:
176,136,77140,1,4,0:0:0:0:
176,136,77789,1,4,0:0:0:0:
176,136,78113,1,4,0:0:0:0:
192,132,78438,1,4,0:0:0:0:
192,132,79086,1,6,0:0:0:0:
256,192,79411,12,0,81357,0:0:0:0:
188,164,81681,5,0,0:0:0:0:
396,224,82330,1,8,0:0:0:0:
124,212,82978,1,8,0:0:0:0:
124,212,83303,1,8,0:0:0:0:
124,212,83627,1,8,0:0:0:0:
124,212,84276,1,4,0:0:0:0:
284,72,85248,1,0,0:0:0:0:
244,168,86546,1,8,0:0:0:0:
240,148,86870,1,4,0:0:0:0:
240,148,87519,1,0,0:0:0:0:
112,136,88167,1,8,0:0:0:0:
112,136,88492,1,0,0:0:0:0:
112,136,88816,1,8,0:0:0:0:
112,136,89140,1,8,0:0:0:0:
112,140,89465,1,0,0:0:0:0:
148,152,90113,1,8,0:0:0:0:
152,208,90762,1,0,0:0:0:0:
148,152,91411,1,8,0:0:0:0:
148,152,91735,1,8,0:0:0:0:
148,152,92059,1,0,0:0:0:0:
176,168,92708,1,0,0:0:0:0:
176,168,93032,1,0,0:0:0:0:
176,168,93357,1,8,0:0:0:0:
176,168,93681,5,8,0:0:0:0:
176,168,94005,1,8,0:0:0:0:
208,108,94654,5,4,0:0:0:0:
344,116,95952,1,0,0:0:0:0:
288,116,96600,1,0,0:0:0:0:
288,116,97249,1,8,0:0:0:0:
288,116,97573,1,8,0:0:0:0:
288,116,97897,1,0,0:0:0:0:
176,136,98546,1,8,0:0:0:0:
184,44,98870,1,0,0:0:0:0:
244,156,99195,1,8,0:0:0:0:
244,156,99843,1,0,0:0:0:0:
224,144,100979,1,8,0:0:0:0:
224,144,101789,1,0,0:0:0:0:
224,144,102114,1,8,0:0:0:0:
224,144,102438,1,0,0:0:0:0:
224,144,103087,1,0,0:0:0:0:
224,152,103411,1,0,0:0:0:0:
244,116,103735,1,8,0:0:0:0:
244,116,104060,1,8,0:0:0:0:
244,116,104384,1,8,0:0:0:0:
244,116,105033,1,4,0:0:0:0:
