osu file format v14

[General]
AudioFilename: audio.mp3
AudioLeadIn: 0
PreviewTime: 41951
Countdown: 0
SampleSet: Normal
StackLeniency: 0.7
Mode: 1
LetterboxInBreaks: 0
WidescreenStoryboard: 0

[Editor]
Bookmarks: 11627,22086,32384,42762,57032,63519,73897,81600,86870,94573
DistanceSpacing: 1.1
BeatDivisor: 4
GridSize: 4
TimelineZoom: 1.8

[Metadata]
Title:YELLOW SPLASH!!
TitleUnicode:YELLOW SPLASH!!
Artist:P*Light
ArtistUnicode:P*Light
Creator:Volta
Version:INNER ONI!!
Source:REFLEC BEAT groovin'!!
Tags:pending cup konami bemani plus MUSIC PACK 67
BeatmapID:988877
BeatmapSetID:461767

[Difficulty]
HPDrainRate:6
CircleSize:6
OverallDifficulty:6
ApproachRate:6
SliderMultiplier:1.4
SliderTickRate:1

[Events]
//Background and Video events
0,0,"hot splash.jpg",0,40
//Break Periods
//Storyboard Layer 0 (Background)
//Storyboard Layer 1 (Fail)
//Storyboard Layer 2 (Pass)
//Storyboard Layer 3 (Foreground)
//Storyboard Sound Samples

[TimingPoints]
1249,324.324324324324,4,1,0,90,1,0
11627,-100,4,1,0,90,0,1
31843,-100,4,1,0,70,0,1
32384,-100,4,1,0,90,0,0
32978,-100,4,1,0,70,0,0
33627,-100,4,1,0,90,0,0
34276,-100,4,1,0,70,0,0
34924,-100,4,1,0,90,0,0
37194,-100,4,1,0,70,0,0
37519,-100,4,1,0,90,0,0
41573,-100,4,1,0,70,0,0
42113,-100,4,1,0,90,0,0
79194,-100,4,1,0,70,0,0
81627,-100,4,1,0,90,0,0
86870,-100,4,1,0,90,0,1
105032,-100,4,1,0,90,0,0

[HitObjects]
272,164,1249,5,4,0:0:0:0:
352,148,1573,1,2,0:0:0:0:
352,148,1897,1,2,0:0:0:0:
304,148,2140,1,0,0:0:0:0:
256,128,2384,1,2,0:0:0:0:
256,128,2708,1,2,0:0:0:0:
176,64,3032,1,2,0:0:0:0:
312,208,3194,1,2,0:0:0:0:
312,104,3357,1,2,0:0:0:0:
144,116,3519,1,2,0:0:0:0:
176,172,3843,1,0,0:0:0:0:
232,92,4167,1,2,0:0:0:0:
232,92,4492,1,2,0:0:0:0:
232,92,4735,1,0,0:0:0:0:
232,92,4978,1,2,0:0:0:0:
232,92,5303,1,2,0:0:0:0:
328,152,5465,1,2,0:0:0:0:
304,88,5627,1,2,0:0:0:0:
208,168,5789,1,2,0:0:0:0:
432,200,6032,1,0,0:0:0:0:
296,208,6113,1,2,0:0:0:0:
484,232,6276,1,0,0:0:0:0:
248,116,6438,1,4,0:0:0:0:
368,96,6762,1,2,0:0:0:0:
152,144,6924,1,0,0:0:0:0:
360,100,7086,1,2,0:0:0:0:
120,176,7248,1,0,0:0:0:0:
360,100,7330,1,2,0:0:0:0:
196,168,7411,1,0,0:0:0:0:
360,100,7573,1,2,0:0:0:0:
256,140,7735,1,4,0:0:0:0:
384,172,7897,1,2,0:0:0:0:
472,176,8221,1,2,0:0:0:0:
248,168,8384,1,4,0:0:0:0:
408,208,8546,1,2,0:0:0:0:
160,88,8708,1,4,0:0:0:0:
448,204,8870,1,2,0:0:0:0:
124,72,9032,1,12,0:0:0:0:
376,88,9194,1,0,0:0:0:0:
388,104,9276,1,0,0:0:0:0:
256,152,9357,1,8,0:0:0:0:
380,104,9519,1,8,0:0:0:0:
380,104,9600,1,0,0:0:0:0:
188,96,9681,1,8,0:0:0:0:
184,100,9762,1,8,0:0:0:0:
184,104,9843,1,0,0:0:0:0:
184,104,9924,1,0,0:0:0:0:
256,152,10005,1,8,0:0:0:0:
76,120,10167,1,0,0:0:0:0:
76,120,10248,1,8,0:0:0:0:
76,120,10330,1,0,0:0:0:0:
76,120,10411,1,0,0:0:0:0:
76,124,10492,1,0,0:0:0:0:
76,124,10573,1,0,0:0:0:0:
72,128,10654,1,8,0:0:0:0:
72,128,10735,1,8,0:0:0:0:
68,120,10816,1,8,0:0:0:0:
68,124,10897,1,8,0:0:0:0:
68,124,10978,1,0,0:0:0:0:
204,160,11140,1,0,0:0:0:0:
204,160,11221,1,0,0:0:0:0:
200,164,11303,1,8,0:0:0:0:
172,168,11465,1,0,0:0:0:0:
172,168,11519,1,0,0:0:0:0:
172,168,11573,1,0,0:0:0:0:
216,96,11627,1,8,0:0:0:0:
172,156,11789,1,0,0:0:0:0:
264,188,11951,1,8,0:0:0:0:
116,144,12113,1,0,0:0:0:0:
116,144,12194,1,0,0:0:0:0:
116,144,12276,1,8,0:0:0:0:
116,144,12357,1,8,0:0:0:0:
116,148,12438,1,0,0:0:0:0:
380,160,12600,1,8,0:0:0:0:
120,144,12762,1,0,0:0:0:0:
120,144,12843,1,8,0:0:0:0:
136,144,12924,1,0,0:0:0:0:
136,144,13086,1,8,0:0:0:0:
108,104,13167,1,0,0:0:0:0:
312,148,13248,1,8,0:0:0:0:
348,228,13330,1,8,0:0:0:0:
216,80,13411,1,0,0:0:0:0:
200,228,13492,1,0,0:0:0:0:
184,152,13573,1,8,0:0:0:0:
248,112,13735,1,0,0:0:0:0:
232,164,13816,1,0,0:0:0:0:
248,116,13897,1,8,0:0:0:0:
196,168,13978,1,0,0:0:0:0:
248,120,14059,1,8,0:0:0:0:
248,120,14221,1,0,0:0:0:0:
248,120,14384,1,8,0:0:0:0:
248,120,14465,1,8,0:0:0:0:
248,120,14546,1,0,0:0:0:0:
216,136,14708,1,8,0:0:0:0:
324,160,14870,1,0,0:0:0:0:
212,168,15032,1,0,0:0:0:0:
200,176,15113,1,0,0:0:0:0:
324,160,15194,1,8,0:0:0:0:
152,172,15357,1,0,0:0:0:0:
152,172,15519,1,8,0:0:0:0:
228,104,15681,1,8,0:0:0:0:
52,160,15762,1,8,0:0:0:0:
100,104,15843,1,0,0:0:0:0:
228,104,16005,1,8,0:0:0:0:
204,152,16086,1,8,0:0:0:0:
76,148,16167,1,0,0:0:0:0:
204,152,16248,1,0,0:0:0:0:
228,104,16330,1,8,0:0:0:0:
292,176,16411,1,0,0:0:0:0:
228,104,16492,1,8,0:0:0:0:
228,104,16654,1,8,0:0:0:0:
228,104,16816,1,4,0:0:0:0:
184,176,16978,1,0,0:0:0:0:
228,104,17140,5,8,0:0:0:0:
184,184,17303,1,0,0:0:0:0:
184,184,17384,1,0,0:0:0:0:
376,184,17465,1,8,0:0:0:0:
104,64,17546,1,8,0:0:0:0:
256,208,17627,1,0,0:0:0:0:
228,104,17789,1,8,0:0:0:0:
256,208,17951,1,0,0:0:0:0:
200,148,18032,1,8,0:0:0:0:
224,104,18113,5,0,0:0:0:0:
352,188,18276,1,8,0:0:0:0:
28,164,18357,1,0,0:0:0:0:
172,172,18438,1,8,0:0:0:0:
256,208,18519,1,8,0:0:0:0:
320,200,18600,1,0,0:0:0:0:
84,136,18681,1,0,0:0:0:0:
320,92,18762,1,8,0:0:0:0:
228,172,18924,1,0,0:0:0:0:
256,208,19005,1,0,0:0:0:0:
228,172,19086,1,8,0:0:0:0:
24,140,19167,1,0,0:0:0:0:
228,172,19248,1,8,0:0:0:0:
444,128,19411,5,0,0:0:0:0:
444,132,19492,1,0,0:0:0:0:
328,216,19573,5,8,0:0:0:0:
328,216,19654,1,8,0:0:0:0:
328,216,19735,1,8,0:0:0:0:
328,216,19816,1,0,0:0:0:0:
328,216,19897,1,8,0:0:0:0:
464,96,19978,1,0,0:0:0:0:
168,108,20059,5,8,0:0:0:0:
168,108,20140,1,8,0:0:0:0:
168,108,20221,1,0,0:0:0:0:
168,108,20303,1,0,0:0:0:0:
248,184,20384,5,8,0:0:0:0:
328,128,20438,1,8,0:0:0:0:
328,128,20492,1,8,0:0:0:0:
328,128,20546,1,8,0:0:0:0:
200,96,20627,1,8,0:0:0:0:
200,96,20708,1,0,0:0:0:0:
192,104,20870,1,8,0:0:0:0:
192,104,20951,1,8,0:0:0:0:
192,104,21032,1,0,0:0:0:0:
152,152,21194,1,8,0:0:0:0:
152,152,21276,1,8,0:0:0:0:
152,152,21357,1,0,0:0:0:0:
64,188,21519,1,0,0:0:0:0:
76,196,21600,1,0,0:0:0:0:
388,128,21681,1,8,0:0:0:0:
232,192,21843,1,0,0:0:0:0:
232,200,21897,1,0,0:0:0:0:
232,208,21951,1,0,0:0:0:0:
320,180,22005,1,8,0:0:0:0:
188,168,22167,1,0,0:0:0:0:
188,168,22330,1,8,0:0:0:0:
232,152,22492,1,0,0:0:0:0:
232,152,22654,1,8,0:0:0:0:
232,152,22735,1,8,0:0:0:0:
232,152,22816,1,0,0:0:0:0:
232,152,22897,1,0,0:0:0:0:
232,152,22978,1,8,0:0:0:0:
232,152,23140,1,8,0:0:0:0:
232,152,23303,1,0,0:0:0:0:
232,152,23465,1,8,0:0:0:0:
232,152,23627,1,8,0:0:0:0:
156,176,23789,1,0,0:0:0:0:
156,176,23870,1,8,0:0:0:0:
136,176,23951,1,0,0:0:0:0:
108,140,24113,1,0,0:0:0:0:
128,176,24194,1,0,0:0:0:0:
108,140,24276,1,8,0:0:0:0:
200,120,24438,1,0,0:0:0:0:
200,120,24600,1,8,0:0:0:0:
200,120,24762,1,8,0:0:0:0:
200,124,24843,1,8,0:0:0:0:
200,124,24924,1,8,0:0:0:0:
264,160,25086,1,0,0:0:0:0:
264,160,25248,1,8,0:0:0:0:
244,160,25411,1,0,0:0:0:0:
92,148,25492,1,0,0:0:0:0:
152,108,25573,1,8,0:0:0:0:
152,108,25654,1,8,0:0:0:0:
152,108,25735,1,0,0:0:0:0:
152,108,25897,1,8,0:0:0:0:
256,172,26059,1,0,0:0:0:0:
256,172,26140,1,0,0:0:0:0:
256,172,26221,1,8,0:0:0:0:
256,172,26384,1,8,0:0:0:0:
256,172,26465,1,8,0:0:0:0:
256,172,26546,1,0,0:0:0:0:
256,172,26708,1,0,0:0:0:0:
248,176,26870,1,8,0:0:0:0:
248,176,27032,1,8,0:0:0:0:
248,176,27113,1,8,0:0:0:0:
248,176,27194,1,0,0:0:0:0:
123,215,27357,1,0,0:0:0:0:
163,240,27519,1,8,0:0:0:0:
248,176,27681,1,0,0:0:0:0:
368,132,27735,1,0,0:0:0:0:
368,132,27789,1,0,0:0:0:0:
336,232,27843,5,8,0:0:0:0:
336,232,28005,1,0,0:0:0:0:
272,180,28330,1,8,0:0:0:0:
208,160,28654,1,8,0:0:0:0:
208,160,28816,1,0,0:0:0:0:
300,148,28870,1,0,0:0:0:0:
300,148,28924,1,0,0:0:0:0:
208,160,28978,1,8,0:0:0:0:
208,160,29140,1,0,0:0:0:0:
208,160,29303,1,0,0:0:0:0:
484,200,29465,5,12,0:0:0:0:
300,192,29789,5,8,0:0:0:0:
300,192,29870,1,0,0:0:0:0:
288,184,29951,1,8,0:0:0:0:
288,184,30032,1,8,0:0:0:0:
288,188,30113,1,8,0:0:0:0:
288,188,30194,1,0,0:0:0:0:
288,188,30276,1,8,0:0:0:0:
288,188,30357,1,0,0:0:0:0:
288,188,30438,1,8,0:0:0:0:
224,180,30519,1,8,0:0:0:0:
84,184,30600,1,0,0:0:0:0:
280,128,30681,1,0,0:0:0:0:
272,120,30762,1,8,0:0:0:0:
272,120,30843,1,8,0:0:0:0:
272,120,30924,1,8,0:0:0:0:
272,120,31005,1,8,0:0:0:0:
272,120,31086,1,0,0:0:0:0:
272,120,31248,1,8,0:0:0:0:
272,120,31330,1,8,0:0:0:0:
272,120,31411,1,0,0:0:0:0:
272,120,31573,1,8,0:0:0:0:
272,120,31654,1,8,0:0:0:0:
272,120,31735,1,0,0:0:0:0:
272,120,31897,1,0,0:0:0:0:
272,120,31978,1,0,0:0:0:0:
172,184,32059,1,0,0:0:0:0:
360,120,32384,1,8,0:0:0:0:
252,192,32546,1,0,0:0:0:0:
260,116,32627,1,0,0:0:0:0:
252,192,32708,1,8,0:0:0:0:
252,192,32870,1,0,0:0:0:0:
332,236,33032,1,2,0:0:0:0:
200,164,33113,1,2,0:0:0:0:
200,164,33194,1,2,0:0:0:0:
200,164,33276,1,2,0:0:0:0:
200,164,33357,1,0,0:0:0:0:
200,164,33519,1,2,0:0:0:0:
220,112,33681,1,8,0:0:0:0:
352,244,33843,1,0,0:0:0:0:
344,244,33924,1,0,0:0:0:0:
344,244,34005,1,8,0:0:0:0:
340,240,34167,1,0,0:0:0:0:
336,240,34330,1,2,0:0:0:0:
340,240,34411,1,0,0:0:0:0:
128,172,34492,1,2,0:0:0:0:
128,172,34573,1,2,0:0:0:0:
128,172,34654,1,0,0:0:0:0:
208,136,34816,1,2,0:0:0:0:
96,136,34978,1,8,0:0:0:0:
300,176,35140,1,0,0:0:0:0:
300,176,35221,1,0,0:0:0:0:
300,176,35303,1,8,0:0:0:0:
288,172,35465,1,0,0:0:0:0:
288,172,35627,1,8,0:0:0:0:
288,172,35708,1,0,0:0:0:0:
288,172,35789,1,8,0:0:0:0:
288,172,35951,1,8,0:0:0:0:
204,144,36032,1,0,0:0:0:0:
224,92,36113,1,8,0:0:0:0:
288,172,36194,1,8,0:0:0:0:
288,172,36276,1,0,0:0:0:0:
288,172,36438,1,8,0:0:0:0:
288,172,36519,1,8,0:0:0:0:
288,172,36600,1,0,0:0:0:0:
288,172,36762,1,8,0:0:0:0:
288,172,36843,1,8,0:0:0:0:
288,172,36924,1,0,0:0:0:0:
164,184,37248,1,2,0:0:0:0:
164,184,37330,1,2,0:0:0:0:
164,192,37411,1,2,0:0:0:0:
164,192,37492,1,2,0:0:0:0:
164,192,37573,1,0,0:0:0:0:
200,184,37735,1,0,0:0:0:0:
200,184,37816,1,0,0:0:0:0:
328,140,37897,1,8,0:0:0:0:
236,180,37978,1,0,0:0:0:0:
236,180,38059,1,8,0:0:0:0:
236,180,38140,1,8,0:0:0:0:
328,140,38221,1,0,0:0:0:0:
136,168,38303,1,0,0:0:0:0:
276,136,38384,1,8,0:0:0:0:
220,120,38546,1,0,0:0:0:0:
272,144,38708,1,8,0:0:0:0:
272,144,38789,1,8,0:0:0:0:
328,140,38870,1,0,0:0:0:0:
272,144,38951,1,8,0:0:0:0:
272,144,39032,1,0,0:0:0:0:
272,144,39113,1,0,0:0:0:0:
328,140,39194,1,8,0:0:0:0:
272,148,39276,1,0,0:0:0:0:
272,148,39357,1,8,0:0:0:0:
272,148,39438,1,0,0:0:0:0:
328,140,39519,1,8,0:0:0:0:
192,84,39600,1,8,0:0:0:0:
176,144,39681,1,0,0:0:0:0:
176,144,39843,1,8,0:0:0:0:
172,156,40005,1,0,0:0:0:0:
172,156,40086,1,0,0:0:0:0:
328,140,40167,1,8,0:0:0:0:
168,160,40248,1,0,0:0:0:0:
168,160,40330,1,8,0:0:0:0:
168,160,40411,1,8,0:0:0:0:
328,140,40492,1,8,0:0:0:0:
168,160,40573,1,0,0:0:0:0:
168,160,40654,1,8,0:0:0:0:
168,160,40735,1,0,0:0:0:0:
328,140,40816,1,8,0:0:0:0:
168,160,40897,1,8,0:0:0:0:
168,160,40978,1,0,0:0:0:0:
168,160,41059,1,0,0:0:0:0:
196,208,41140,1,8,0:0:0:0:
196,208,41194,1,8,0:0:0:0:
196,208,41248,1,8,0:0:0:0:
196,208,41303,1,8,0:0:0:0:
276,152,41357,1,8,0:0:0:0:
276,152,41411,1,8,0:0:0:0:
196,208,41465,1,0,0:0:0:0:
120,124,41627,1,0,0:0:0:0:
120,124,41708,1,0,0:0:0:0:
120,124,41789,1,0,0:0:0:0:
120,124,41870,1,0,0:0:0:0:
208,176,42276,1,0,0:0:0:0:
208,184,42357,1,0,0:0:0:0:
208,184,42438,1,8,0:0:0:0:
456,132,42600,1,0,0:0:0:0:
360,244,42762,1,4,0:0:0:0:
144,132,42924,1,0,0:0:0:0:
144,136,43086,1,8,0:0:0:0:
300,160,43248,1,0,0:0:0:0:
284,160,43330,1,8,0:0:0:0:
284,160,43411,1,0,0:0:0:0:
232,132,43573,1,0,0:0:0:0:
240,148,43735,1,8,0:0:0:0:
240,148,43897,1,0,0:0:0:0:
220,104,43978,1,0,0:0:0:0:
236,148,44059,1,8,0:0:0:0:
236,148,44140,1,8,0:0:0:0:
236,148,44221,1,0,0:0:0:0:
236,148,44384,1,8,0:0:0:0:
112,176,44546,1,8,0:0:0:0:
112,176,44627,1,8,0:0:0:0:
112,176,44708,1,0,0:0:0:0:
236,160,44870,1,8,0:0:0:0:
204,136,45032,1,8,0:0:0:0:
204,136,45194,1,8,0:0:0:0:
352,100,45357,1,0,0:0:0:0:
312,216,45519,1,8,0:0:0:0:
96,144,45600,1,8,0:0:0:0:
96,144,45681,1,0,0:0:0:0:
128,144,45843,1,8,0:0:0:0:
128,144,46005,1,0,0:0:0:0:
128,144,46167,1,0,0:0:0:0:
128,144,46248,1,8,0:0:0:0:
128,144,46330,1,0,0:0:0:0:
140,144,46492,1,8,0:0:0:0:
140,144,46654,1,0,0:0:0:0:
204,136,46816,1,8,0:0:0:0:
272,128,46897,1,8,0:0:0:0:
112,172,46978,1,0,0:0:0:0:
112,172,47059,1,0,0:0:0:0:
204,136,47140,1,8,0:0:0:0:
184,132,47303,1,0,0:0:0:0:
204,136,47465,1,8,0:0:0:0:
204,136,47627,1,8,0:0:0:0:
204,136,47789,1,8,0:0:0:0:
244,112,47951,1,4,0:0:0:0:
160,120,48113,1,0,0:0:0:0:
160,120,48276,1,8,0:0:0:0:
152,124,48438,1,0,0:0:0:0:
152,124,48519,1,8,0:0:0:0:
144,128,48600,1,0,0:0:0:0:
144,128,48762,1,0,0:0:0:0:
144,128,48924,1,8,0:0:0:0:
144,128,49086,1,0,0:0:0:0:
144,128,49248,1,8,0:0:0:0:
144,128,49330,1,0,0:0:0:0:
144,128,49411,1,8,0:0:0:0:
144,128,49492,1,8,0:0:0:0:
256,112,49573,1,0,0:0:0:0:
256,112,49735,1,8,0:0:0:0:
248,112,49897,1,0,0:0:0:0:
200,152,50059,1,8,0:0:0:0:
200,152,50221,1,8,0:0:0:0:
200,152,50384,1,8,0:0:0:0:
200,152,50546,1,0,0:0:0:0:
200,152,50708,1,8,0:0:0:0:
200,132,50789,1,8,0:0:0:0:
200,152,50870,1,0,0:0:0:0:
200,152,51032,1,8,0:0:0:0:
200,152,51194,1,0,0:0:0:0:
200,152,51357,1,0,0:0:0:0:
324,184,51519,1,8,0:0:0:0:
324,184,51573,1,8,0:0:0:0:
324,184,51627,1,8,0:0:0:0:
400,232,51681,1,8,0:0:0:0:
400,232,51762,1,8,0:0:0:0:
400,232,51843,1,0,0:0:0:0:
312,164,52167,1,2,0:0:0:0:
280,208,52330,1,0,0:0:0:0:
280,208,52411,1,2,0:0:0:0:
280,208,52573,1,2,0:0:0:0:
280,208,52654,1,0,0:0:0:0:
228,120,52735,1,0,0:0:0:0:
280,208,52816,1,2,0:0:0:0:
280,208,52978,1,2,0:0:0:0:
280,208,53059,1,2,0:0:0:0:
360,244,53140,1,0,0:0:0:0:
200,84,53303,1,0,0:0:0:0:
272,200,53465,1,8,0:0:0:0:
136,156,53627,1,0,0:0:0:0:
248,176,53708,1,0,0:0:0:0:
240,192,53789,1,8,0:0:0:0:
136,156,53870,1,0,0:0:0:0:
240,192,53951,1,8,0:0:0:0:
240,192,54113,1,8,0:0:0:0:
136,156,54276,1,0,0:0:0:0:
136,156,54438,1,0,0:0:0:0:
240,192,54600,1,8,0:0:0:0:
240,192,54762,1,0,0:0:0:0:
240,192,54843,1,8,0:0:0:0:
240,192,54924,1,0,0:0:0:0:
240,192,55005,1,0,0:0:0:0:
240,192,55086,1,8,0:0:0:0:
240,192,55248,1,8,0:0:0:0:
364,176,55330,1,0,0:0:0:0:
240,192,55411,1,8,0:0:0:0:
240,192,55492,1,8,0:0:0:0:
240,192,55573,1,0,0:0:0:0:
240,192,55735,1,8,0:0:0:0:
192,104,55897,1,0,0:0:0:0:
240,192,56059,1,8,0:0:0:0:
192,104,56221,1,0,0:0:0:0:
348,176,56303,1,0,0:0:0:0:
240,192,56384,1,8,0:0:0:0:
192,108,56465,1,0,0:0:0:0:
240,192,56546,1,8,0:0:0:0:
240,192,56708,1,8,0:0:0:0:
192,108,56870,1,0,0:0:0:0:
264,80,57032,1,0,0:0:0:0:
264,80,57194,1,8,0:0:0:0:
264,80,57357,1,0,0:0:0:0:
160,164,57438,1,8,0:0:0:0:
264,80,57519,1,0,0:0:0:0:
264,80,57600,1,0,0:0:0:0:
264,80,57681,1,8,0:0:0:0:
264,80,57843,1,8,0:0:0:0:
280,192,57924,1,0,0:0:0:0:
264,80,58005,1,8,0:0:0:0:
264,80,58086,1,8,0:0:0:0:
396,184,58167,5,0,0:0:0:0:
328,144,58330,5,8,0:0:0:0:
328,144,58411,1,0,0:0:0:0:
324,144,58492,1,8,0:0:0:0:
324,148,58573,1,8,0:0:0:0:
320,148,58654,1,0,0:0:0:0:
320,148,58735,1,8,0:0:0:0:
320,148,58816,1,0,0:0:0:0:
320,148,58897,1,0,0:0:0:0:
160,168,58978,5,8,0:0:0:0:
320,148,59059,1,0,0:0:0:0:
164,176,59140,1,8,0:0:0:0:
320,148,59221,1,0,0:0:0:0:
164,176,59303,1,8,0:0:0:0:
320,152,59465,1,0,0:0:0:0:
320,148,59627,1,8,0:0:0:0:
192,184,59708,1,0,0:0:0:0:
192,184,59789,1,8,0:0:0:0:
192,184,59870,1,8,0:0:0:0:
204,212,59951,1,0,0:0:0:0:
204,212,60032,1,8,0:0:0:0:
204,212,60113,1,0,0:0:0:0:
204,212,60194,1,0,0:0:0:0:
196,116,60276,5,8,0:0:0:0:
196,120,60357,1,0,0:0:0:0:
196,120,60438,1,8,0:0:0:0:
200,120,60519,1,0,0:0:0:0:
200,124,60600,1,8,0:0:0:0:
200,124,60762,1,0,0:0:0:0:
160,168,60924,5,8,0:0:0:0:
128,144,61005,1,0,0:0:0:0:
128,144,61086,1,8,0:0:0:0:
128,144,61167,1,8,0:0:0:0:
360,120,61248,1,0,0:0:0:0:
128,144,61330,1,0,0:0:0:0:
128,144,61411,1,8,0:0:0:0:
128,144,61492,1,0,0:0:0:0:
360,120,61573,1,8,0:0:0:0:
384,112,61654,1,8,0:0:0:0:
268,160,61735,1,0,0:0:0:0:
428,112,61816,1,0,0:0:0:0:
200,76,61897,1,8,0:0:0:0:
204,96,61951,1,8,0:0:0:0:
204,100,62005,1,8,0:0:0:0:
156,192,62059,1,8,0:0:0:0:
156,192,62140,1,8,0:0:0:0:
204,104,62221,1,0,0:0:0:0:
272,196,63194,1,8,0:0:0:0:
336,180,63519,1,4,0:0:0:0:
168,200,63681,1,0,0:0:0:0:
168,200,63843,1,2,0:0:0:0:
168,200,63924,1,0,0:0:0:0:
168,200,64086,1,0,0:0:0:0:
236,216,64167,1,2,0:0:0:0:
168,200,64330,1,0,0:0:0:0:
344,156,64492,1,2,0:0:0:0:
172,120,64654,1,2,0:0:0:0:
272,120,64735,1,2,0:0:0:0:
172,120,64816,1,0,0:0:0:0:
172,124,64978,1,2,0:0:0:0:
168,124,65140,1,0,0:0:0:0:
168,200,65303,1,2,0:0:0:0:
168,200,65384,1,0,0:0:0:0:
168,200,65465,1,0,0:0:0:0:
168,200,65627,1,0,0:0:0:0:
248,216,65789,1,8,0:0:0:0:
248,216,65870,1,8,0:0:0:0:
248,216,65951,1,8,0:0:0:0:
248,216,66032,1,8,0:0:0:0:
248,216,66113,1,0,0:0:0:0:
152,128,66276,1,0,0:0:0:0:
160,136,66438,1,2,0:0:0:0:
160,136,66519,1,0,0:0:0:0:
160,136,66681,1,0,0:0:0:0:
160,136,66762,1,2,0:0:0:0:
160,136,66924,1,0,0:0:0:0:
180,128,67086,1,2,0:0:0:0:
180,128,67248,1,2,0:0:0:0:
180,128,67330,1,2,0:0:0:0:
180,128,67411,1,0,0:0:0:0:
136,152,67573,1,2,0:0:0:0:
252,104,67735,1,0,0:0:0:0:
252,104,67897,1,2,0:0:0:0:
252,104,67978,1,0,0:0:0:0:
252,104,68059,1,0,0:0:0:0:
252,104,68221,1,0,0:0:0:0:
304,224,68384,1,0,0:0:0:0:
304,224,68465,1,8,0:0:0:0:
304,224,68546,1,8,0:0:0:0:
304,224,68627,1,8,0:0:0:0:
304,224,68708,1,0,0:0:0:0:
216,204,68870,1,0,0:0:0:0:
216,204,69032,1,2,0:0:0:0:
216,204,69113,1,0,0:0:0:0:
216,204,69276,1,0,0:0:0:0:
216,204,69357,1,2,0:0:0:0:
216,204,69519,1,0,0:0:0:0:
216,204,69681,1,2,0:0:0:0:
216,204,69843,1,2,0:0:0:0:
216,204,69924,1,2,0:0:0:0:
216,204,70005,1,0,0:0:0:0:
216,204,70167,1,2,0:0:0:0:
216,204,70330,1,0,0:0:0:0:
216,204,70492,1,2,0:0:0:0:
216,204,70573,1,0,0:0:0:0:
216,204,70654,1,0,0:0:0:0:
216,204,70816,1,0,0:0:0:0:
324,224,70978,5,8,0:0:0:0:
324,224,71059,1,8,0:0:0:0:
324,224,71140,1,8,0:0:0:0:
324,224,71221,1,8,0:0:0:0:
324,224,71303,1,0,0:0:0:0:
188,144,71465,1,0,0:0:0:0:
188,152,71627,1,2,0:0:0:0:
188,152,71708,1,0,0:0:0:0:
188,152,71870,1,0,0:0:0:0:
216,108,71951,1,2,0:0:0:0:
216,108,72113,1,0,0:0:0:0:
308,168,72276,1,0,0:0:0:0:
308,168,72357,1,8,0:0:0:0:
308,168,72438,1,8,0:0:0:0:
308,168,72519,1,8,0:0:0:0:
308,168,72600,1,0,0:0:0:0:
288,180,73573,1,2,0:0:0:0:
288,180,73654,1,2,0:0:0:0:
288,180,73735,1,2,0:0:0:0:
288,180,73816,1,2,0:0:0:0:
252,188,73897,5,4,0:0:0:0:
152,148,74221,1,0,0:0:0:0:
224,184,74546,1,8,0:0:0:0:
104,128,74870,1,0,0:0:0:0:
296,96,75032,1,8,0:0:0:0:
184,116,75194,1,4,0:0:0:0:
128,116,75519,1,0,0:0:0:0:
124,116,75843,1,8,0:0:0:0:
128,116,76005,1,0,0:0:0:0:
268,172,76167,1,0,0:0:0:0:
176,116,76330,1,8,0:0:0:0:
208,120,76492,1,4,0:0:0:0:
140,168,76654,1,0,0:0:0:0:
140,188,76735,1,8,0:0:0:0:
140,188,76816,1,0,0:0:0:0:
136,188,76978,1,0,0:0:0:0:
136,188,77059,1,8,0:0:0:0:
144,192,77140,1,0,0:0:0:0:
144,192,77303,1,0,0:0:0:0:
144,192,77384,1,8,0:0:0:0:
144,192,77465,1,0,0:0:0:0:
144,192,77546,1,0,0:0:0:0:
144,192,77627,1,0,0:0:0:0:
316,108,77708,1,8,0:0:0:0:
380,184,77789,1,0,0:0:0:0:
380,188,77870,1,0,0:0:0:0:
272,164,77951,1,8,0:0:0:0:
272,164,78005,1,8,0:0:0:0:
272,164,78059,1,8,0:0:0:0:
272,164,78113,1,0,0:0:0:0:
244,104,78194,1,0,0:0:0:0:
272,164,78276,1,8,0:0:0:0:
272,164,78330,1,8,0:0:0:0:
272,164,78384,1,8,0:0:0:0:
264,168,78438,1,0,0:0:0:0:
244,104,78519,1,0,0:0:0:0:
264,168,78600,1,8,0:0:0:0:
264,168,78654,1,8,0:0:0:0:
264,168,78708,1,8,0:0:0:0:
264,168,78762,1,0,0:0:0:0:
244,104,78843,1,0,0:0:0:0:
264,168,78924,1,8,0:0:0:0:
264,168,78978,1,8,0:0:0:0:
264,168,79032,1,8,0:0:0:0:
264,168,79086,1,0,0:0:0:0:
256,192,79248,12,0,81519,0:0:0:0:
224,124,81681,5,0,0:0:0:0:
364,176,81843,5,0,0:0:0:0:
364,176,81924,1,0,0:0:0:0:
364,176,82005,1,8,0:0:0:0:
340,168,82167,1,8,0:0:0:0:
340,168,82248,1,0,0:0:0:0:
340,168,82330,1,8,0:0:0:0:
304,160,82411,1,8,0:0:0:0:
340,168,82492,1,0,0:0:0:0:
340,168,82573,1,0,0:0:0:0:
340,168,82654,1,8,0:0:0:0:
304,160,82816,1,0,0:0:0:0:
304,160,82978,1,12,0:0:0:0:
304,160,83140,1,8,0:0:0:0:
204,148,83303,1,8,0:0:0:0:
204,148,83465,1,8,0:0:0:0:
204,148,83627,1,12,0:0:0:0:
204,148,83789,1,0,0:0:0:0:
204,148,83870,1,0,0:0:0:0:
204,148,83951,1,8,0:0:0:0:
376,220,84276,1,4,0:0:0:0:
284,180,85248,1,0,0:0:0:0:
220,184,85411,1,8,0:0:0:0:
220,184,85735,1,8,0:0:0:0:
220,184,85897,1,8,0:0:0:0:
220,184,86059,1,0,0:0:0:0:
220,184,86221,1,0,0:0:0:0:
220,184,86546,1,14,0:0:0:0:
316,168,86708,1,0,0:0:0:0:
316,168,86762,1,0,0:0:0:0:
316,168,86816,1,0,0:0:0:0:
316,168,86870,1,8,0:0:0:0:
376,124,87032,1,8,0:0:0:0:
324,148,87113,1,8,0:0:0:0:
336,156,87194,1,8,0:0:0:0:
332,160,87276,1,0,0:0:0:0:
332,160,87357,1,8,0:0:0:0:
328,160,87519,1,8,0:0:0:0:
296,216,87600,1,8,0:0:0:0:
192,156,87681,1,0,0:0:0:0:
192,156,87843,1,8,0:0:0:0:
404,144,87924,1,8,0:0:0:0:
208,148,88005,1,0,0:0:0:0:
208,152,88086,1,0,0:0:0:0:
204,160,88167,1,8,0:0:0:0:
244,232,88248,1,0,0:0:0:0:
244,232,88330,1,8,0:0:0:0:
244,232,88411,1,8,0:0:0:0:
244,232,88492,1,0,0:0:0:0:
316,148,88654,1,8,0:0:0:0:
432,236,88735,1,0,0:0:0:0:
432,240,88816,1,8,0:0:0:0:
420,240,88897,1,8,0:0:0:0:
420,240,88978,1,0,0:0:0:0:
420,240,89059,1,0,0:0:0:0:
420,240,89140,1,8,0:0:0:0:
388,192,89303,1,8,0:0:0:0:
244,184,89357,1,8,0:0:0:0:
224,152,89411,1,8,0:0:0:0:
388,192,89465,1,0,0:0:0:0:
200,168,89627,1,0,0:0:0:0:
200,172,89789,1,8,0:0:0:0:
184,108,89951,1,0,0:0:0:0:
276,176,90032,1,0,0:0:0:0:
276,176,90113,1,0,0:0:0:0:
261,120,90194,1,8,0:0:0:0:
304,208,90276,1,0,0:0:0:0:
280,104,90438,1,8,0:0:0:0:
184,168,90600,1,8,0:0:0:0:
320,224,90681,1,8,0:0:0:0:
280,104,90762,1,0,0:0:0:0:
320,224,90924,1,8,0:0:0:0:
143,169,91005,1,0,0:0:0:0:
130,159,91086,1,8,0:0:0:0:
130,159,91167,1,8,0:0:0:0:
130,159,91248,1,8,0:0:0:0:
198,93,91330,1,0,0:0:0:0:
280,104,91411,1,0,0:0:0:0:
292,164,91573,1,8,0:0:0:0:
288,168,91735,1,8,0:0:0:0:
200,120,91816,1,0,0:0:0:0:
288,172,91897,1,8,0:0:0:0:
288,188,92059,1,0,0:0:0:0:
268,160,92140,1,0,0:0:0:0:
264,160,92221,1,8,0:0:0:0:
264,160,92303,1,8,0:0:0:0:
264,160,92384,1,8,0:0:0:0:
168,144,92465,1,0,0:0:0:0:
168,144,92546,1,8,0:0:0:0:
168,144,92627,1,0,0:0:0:0:
168,144,92708,1,8,0:0:0:0:
168,144,92789,1,8,0:0:0:0:
168,144,92870,1,0,0:0:0:0:
212,140,92951,1,0,0:0:0:0:
224,180,93032,1,8,0:0:0:0:
232,128,93086,1,8,0:0:0:0:
232,128,93140,1,8,0:0:0:0:
232,128,93194,1,8,0:0:0:0:
232,128,93276,1,8,0:0:0:0:
232,128,93357,1,0,0:0:0:0:
320,160,93519,1,8,0:0:0:0:
320,160,93600,1,8,0:0:0:0:
320,160,93681,1,0,0:0:0:0:
320,160,93843,1,8,0:0:0:0:
320,160,93924,1,8,0:0:0:0:
320,160,94005,1,0,0:0:0:0:
264,180,94167,1,0,0:0:0:0:
264,180,94248,1,0,0:0:0:0:
264,180,94330,1,8,0:0:0:0:
192,116,94492,1,0,0:0:0:0:
192,116,94546,1,0,0:0:0:0:
192,116,94600,1,0,0:0:0:0:
192,116,94654,1,8,0:0:0:0:
188,168,94816,1,0,0:0:0:0:
188,168,94979,1,8,0:0:0:0:
232,152,95141,1,0,0:0:0:0:
232,152,95303,1,8,0:0:0:0:
232,152,95384,1,8,0:0:0:0:
232,152,95465,1,0,0:0:0:0:
232,152,95546,1,0,0:0:0:0:
232,152,95627,1,8,0:0:0:0:
320,176,95708,1,0,0:0:0:0:
232,152,95789,1,8,0:0:0:0:
232,152,95952,1,0,0:0:0:0:
232,152,96114,1,8,0:0:0:0:
384,72,96194,1,0,0:0:0:0:
232,152,96276,1,8,0:0:0:0:
156,176,96438,1,0,0:0:0:0:
156,176,96519,1,0,0:0:0:0:
136,176,96600,1,8,0:0:0:0:
108,140,96762,1,8,0:0:0:0:
256,224,96843,1,0,0:0:0:0:
108,140,96925,1,8,0:0:0:0:
160,84,97005,1,8,0:0:0:0:
200,120,97087,1,0,0:0:0:0:
200,120,97248,1,8,0:0:0:0:
200,120,97411,1,8,0:0:0:0:
200,124,97492,1,8,0:0:0:0:
200,124,97573,1,8,0:0:0:0:
264,160,97735,1,0,0:0:0:0:
264,160,97897,1,8,0:0:0:0:
244,160,98060,1,0,0:0:0:0:
208,164,98140,1,0,0:0:0:0:
152,108,98222,1,8,0:0:0:0:
152,108,98303,1,8,0:0:0:0:
152,108,98384,1,0,0:0:0:0:
152,108,98546,1,8,0:0:0:0:
256,172,98708,1,0,0:0:0:0:
256,172,98789,1,0,0:0:0:0:
256,172,98870,1,8,0:0:0:0:
176,112,98951,1,0,0:0:0:0:
256,172,99033,1,8,0:0:0:0:
256,172,99114,1,8,0:0:0:0:
256,172,99195,1,0,0:0:0:0:
256,172,99357,1,0,0:0:0:0:
248,176,99519,1,0,0:0:0:0:
132,112,99600,1,0,0:0:0:0:
248,176,99681,1,8,0:0:0:0:
248,176,99762,1,8,0:0:0:0:
248,176,99843,1,0,0:0:0:0:
123,215,100006,1,0,0:0:0:0:
163,240,100168,5,8,0:0:0:0:
248,176,100330,1,0,0:0:0:0:
368,132,100384,1,0,0:0:0:0:
368,132,100438,1,0,0:0:0:0:
336,232,100492,5,8,0:0:0:0:
336,232,100654,1,0,0:0:0:0:
216,135,100978,1,8,0:0:0:0:
324,216,101303,5,8,0:0:0:0:
324,216,101465,1,0,0:0:0:0:
39,177,101519,1,0,0:0:0:0:
92,182,101573,1,0,0:0:0:0:
95,188,101627,1,8,0:0:0:0:
320,220,101789,1,0,0:0:0:0:
320,224,101951,1,0,0:0:0:0:
320,224,102113,1,12,0:0:0:0:
236,144,102438,5,8,0:0:0:0:
236,144,102519,1,0,0:0:0:0:
236,144,102600,1,8,0:0:0:0:
236,144,102681,1,8,0:0:0:0:
236,144,102762,1,8,0:0:0:0:
236,144,102843,1,0,0:0:0:0:
236,144,102924,1,8,0:0:0:0:
236,144,103005,1,0,0:0:0:0:
236,144,103086,1,8,0:0:0:0:
240,136,103167,1,8,0:0:0:0:
240,140,103248,1,0,0:0:0:0:
368,172,103330,1,0,0:0:0:0:
368,172,103411,1,8,0:0:0:0:
368,172,103492,1,8,0:0:0:0:
368,172,103573,1,8,0:0:0:0:
368,172,103654,1,8,0:0:0:0:
368,172,103735,1,0,0:0:0:0:
280,176,103897,1,8,0:0:0:0:
280,176,103978,1,8,0:0:0:0:
280,176,104059,1,0,0:0:0:0:
280,176,104221,1,8,0:0:0:0:
280,176,104303,1,8,0:0:0:0:
280,176,104384,1,0,0:0:0:0:
280,176,104546,1,0,0:0:0:0:
280,176,104627,1,0,0:0:0:0:
280,184,104708,1,8,0:0:0:0:
280,184,105032,1,4,0:0:0:0:
