osu file format v14

[General]
AudioFilename: audio.mp3
AudioLeadIn: 0
PreviewTime: 41951
Countdown: 0
SampleSet: Normal
StackLeniency: 0.7
Mode: 1
LetterboxInBreaks: 0
WidescreenStoryboard: 0

[Editor]
Bookmarks: 11627,22086,32384,42762,57032,63519,73897,81600,86870
DistanceSpacing: 1.1
BeatDivisor: 4
GridSize: 4
TimelineZoom: 0.9

[Metadata]
Title:YELLOW SPLASH!!
TitleUnicode:YELLOW SPLASH!!
Artist:P*Light
ArtistUnicode:P*Light
Creator:Volta
Version:FUTSUU!!
Source:REFLEC BEAT groovin'!!
Tags:pending cup konami bemani plus MUSIC PACK 67
BeatmapID:991597
BeatmapSetID:461767

[Difficulty]
HPDrainRate:6
CircleSize:6
OverallDifficulty:4
ApproachRate:6
SliderMultiplier:1.4
SliderTickRate:1

[Events]
//Background and Video events
0,0,"hot splash.jpg",0,40
//Break Periods
//Storyboard Layer 0 (Background)
//Storyboard Layer 1 (Fail)
//Storyboard Layer 2 (Pass)
//Storyboard Layer 3 (Foreground)
//Storyboard Sound Samples

[TimingPoints]
1249,324.324324324324,4,1,0,90,1,0
11627,-100,4,1,0,90,0,1
32384,-100,4,1,0,90,0,0
86870,-100,4,1,0,90,0,1
105032,-100,4,1,0,90,0,0

[HitObjects]
252,152,1249,5,4,0:0:0:0:
220,128,2546,1,8,0:0:0:0:
288,156,3194,1,8,0:0:0:0:
196,192,3843,1,0,0:0:0:0:
208,172,5140,1,8,0:0:0:0:
292,160,5789,1,8,0:0:0:0:
200,188,6438,1,4,0:0:0:0:
184,144,7086,1,8,0:0:0:0:
204,188,7735,1,4,0:0:0:0:
232,140,8384,1,4,0:0:0:0:
232,140,8708,1,4,0:0:0:0:
232,140,9032,1,12,0:0:0:0:
128,148,9681,1,8,0:0:0:0:
136,160,10005,1,8,0:0:0:0:
296,104,10330,1,0,0:0:0:0:
208,148,10492,1,0,0:0:0:0:
208,144,10654,1,0,0:0:0:0:
296,104,10978,1,0,0:0:0:0:
208,152,11627,1,4,0:0:0:0:
140,168,12276,1,0,0:0:0:0:
216,160,12600,1,8,0:0:0:0:
192,144,12924,1,0,0:0:0:0:
232,176,13248,1,8,0:0:0:0:
192,144,13573,1,8,0:0:0:0:
232,184,13735,1,8,0:0:0:0:
232,184,13897,1,8,0:0:0:0:
192,144,14221,1,0,0:0:0:0:
192,140,14546,1,8,0:0:0:0:
192,144,14870,1,0,0:0:0:0:
196,140,15519,1,8,0:0:0:0:
272,152,15843,1,8,0:0:0:0:
272,152,16167,1,0,0:0:0:0:
272,152,16330,1,0,0:0:0:0:
272,160,16492,1,8,0:0:0:0:
196,140,16816,1,4,0:0:0:0:
208,168,17465,1,0,0:0:0:0:
212,176,17789,1,8,0:0:0:0:
192,140,18113,1,0,0:0:0:0:
240,144,18438,1,8,0:0:0:0:
168,120,18762,1,8,0:0:0:0:
240,144,18924,1,8,0:0:0:0:
240,144,19086,1,8,0:0:0:0:
168,120,19411,1,0,0:0:0:0:
168,120,19735,1,8,0:0:0:0:
168,120,20059,1,0,0:0:0:0:
168,120,20384,1,8,0:0:0:0:
244,156,20546,1,8,0:0:0:0:
168,120,20708,1,0,0:0:0:0:
148,132,21032,1,0,0:0:0:0:
168,120,21357,1,0,0:0:0:0:
208,108,22005,1,4,0:0:0:0:
312,120,22654,1,0,0:0:0:0:
136,216,22978,1,8,0:0:0:0:
344,116,23303,1,0,0:0:0:0:
156,168,23627,1,8,0:0:0:0:
288,116,23951,1,8,0:0:0:0:
232,112,24113,1,8,0:0:0:0:
200,44,24276,1,8,0:0:0:0:
288,116,24600,1,0,0:0:0:0:
288,116,24924,1,8,0:0:0:0:
288,116,25248,1,0,0:0:0:0:
176,136,25897,1,8,0:0:0:0:
84,132,26221,1,8,0:0:0:0:
88,136,26384,1,8,0:0:0:0:
244,156,26546,1,0,0:0:0:0:
88,136,26870,1,0,0:0:0:0:
244,156,27194,1,8,0:0:0:0:
44,148,27843,1,0,0:0:0:0:
224,144,28330,1,8,0:0:0:0:
120,168,28654,1,8,0:0:0:0:
216,144,28978,1,0,0:0:0:0:
224,144,29140,1,0,0:0:0:0:
224,144,29465,1,8,0:0:0:0:
224,144,29789,1,0,0:0:0:0:
224,144,30438,1,0,0:0:0:0:
224,152,30762,1,0,0:0:0:0:
148,168,30924,1,0,0:0:0:0:
244,116,31086,1,8,0:0:0:0:
244,116,31411,1,8,0:0:0:0:
244,116,31735,1,8,0:0:0:0:
244,116,32384,1,0,0:0:0:0:
136,152,32708,1,8,0:0:0:0:
136,156,33032,1,0,0:0:0:0:
244,120,33681,1,0,0:0:0:0:
136,156,34005,1,8,0:0:0:0:
272,168,34167,1,8,0:0:0:0:
136,156,34330,1,0,0:0:0:0:
240,120,34978,1,0,0:0:0:0:
136,156,35303,1,0,0:0:0:0:
244,120,35627,1,8,0:0:0:0:
136,156,35789,1,0,0:0:0:0:
136,156,35951,1,8,0:0:0:0:
244,124,36276,1,0,0:0:0:0:
244,124,36600,1,0,0:0:0:0:
244,124,36924,1,0,0:0:0:0:
244,124,37573,1,0,0:0:0:0:
216,108,37897,1,8,0:0:0:0:
216,108,38221,1,0,0:0:0:0:
240,128,38546,1,8,0:0:0:0:
320,64,38870,1,0,0:0:0:0:
216,108,39194,1,8,0:0:0:0:
220,120,39357,1,8,0:0:0:0:
220,120,39519,1,0,0:0:0:0:
244,124,40167,1,0,0:0:0:0:
144,88,40492,1,8,0:0:0:0:
144,88,40816,1,0,0:0:0:0:
248,160,40978,1,0,0:0:0:0:
144,88,41140,1,8,0:0:0:0:
248,160,41303,1,8,0:0:0:0:
144,88,41465,1,0,0:0:0:0:
228,200,42438,1,8,0:0:0:0:
224,148,42762,1,4,0:0:0:0:
112,160,43411,1,0,0:0:0:0:
144,148,43735,1,8,0:0:0:0:
144,152,44059,1,0,0:0:0:0:
176,112,44221,1,8,0:0:0:0:
148,152,44384,1,0,0:0:0:0:
152,152,44708,1,8,0:0:0:0:
216,148,45032,1,8,0:0:0:0:
216,152,45194,1,8,0:0:0:0:
216,156,45357,1,0,0:0:0:0:
184,120,45681,1,8,0:0:0:0:
184,120,46005,1,0,0:0:0:0:
184,120,46654,1,0,0:0:0:0:
232,72,46978,1,8,0:0:0:0:
232,84,47303,1,8,0:0:0:0:
232,76,47465,1,0,0:0:0:0:
176,184,47627,1,8,0:0:0:0:
168,180,47951,1,0,0:0:0:0:
112,160,48600,1,0,0:0:0:0:
144,148,48924,1,8,0:0:0:0:
144,152,49248,1,0,0:0:0:0:
176,112,49410,1,8,0:0:0:0:
148,152,49573,1,0,0:0:0:0:
152,152,49897,1,8,0:0:0:0:
216,148,50221,1,8,0:0:0:0:
216,152,50383,1,8,0:0:0:0:
216,156,50546,1,0,0:0:0:0:
184,120,50870,1,8,0:0:0:0:
184,120,51194,1,0,0:0:0:0:
220,140,51519,1,0,0:0:0:0:
220,140,51843,1,8,0:0:0:0:
168,148,52492,1,0,0:0:0:0:
156,152,53140,1,8,0:0:0:0:
156,152,53465,1,8,0:0:0:0:
156,152,53789,1,8,0:0:0:0:
156,152,53951,1,0,0:0:0:0:
156,152,54113,1,8,0:0:0:0:
156,152,54438,1,0,0:0:0:0:
156,152,55086,1,0,0:0:0:0:
156,152,55248,1,8,0:0:0:0:
156,152,55411,1,0,0:0:0:0:
156,152,55735,1,8,0:0:0:0:
240,176,56059,1,8,0:0:0:0:
208,152,56384,1,8,0:0:0:0:
208,156,56546,1,0,0:0:0:0:
208,156,56708,1,8,0:0:0:0:
264,176,57032,1,0,0:0:0:0:
224,168,57681,1,0,0:0:0:0:
224,168,57843,1,8,0:0:0:0:
224,168,58005,1,0,0:0:0:0:
224,168,58330,1,8,0:0:0:0:
224,168,58654,1,8,0:0:0:0:
224,168,58978,1,8,0:0:0:0:
224,168,59140,1,0,0:0:0:0:
224,168,59303,1,8,0:0:0:0:
144,172,59627,1,0,0:0:0:0:
260,144,59951,1,8,0:0:0:0:
260,144,60276,1,8,0:0:0:0:
256,144,60438,1,0,0:0:0:0:
256,144,60600,1,8,0:0:0:0:
256,144,60924,1,8,0:0:0:0:
176,144,61086,1,8,0:0:0:0:
180,156,61248,1,8,0:0:0:0:
180,156,61411,1,8,0:0:0:0:
180,156,61573,1,8,0:0:0:0:
180,156,61897,1,8,0:0:0:0:
180,156,62221,1,0,0:0:0:0:
144,192,63194,1,8,0:0:0:0:
332,236,63519,1,0,0:0:0:0:
236,184,64167,1,0,0:0:0:0:
236,184,64816,1,0,0:0:0:0:
236,184,65140,1,8,0:0:0:0:
160,128,65465,1,0,0:0:0:0:
236,184,65789,1,8,0:0:0:0:
160,152,65951,1,8,0:0:0:0:
236,184,66113,1,0,0:0:0:0:
236,184,66762,1,0,0:0:0:0:
156,128,67411,1,0,0:0:0:0:
236,184,67735,1,8,0:0:0:0:
156,128,68059,1,0,0:0:0:0:
156,128,68384,1,0,0:0:0:0:
240,168,68546,1,8,0:0:0:0:
156,128,68708,1,0,0:0:0:0:
160,136,69357,1,0,0:0:0:0:
160,136,70005,1,0,0:0:0:0:
156,128,70330,1,8,0:0:0:0:
160,136,70654,1,0,0:0:0:0:
160,136,70978,1,8,0:0:0:0:
236,172,71140,1,8,0:0:0:0:
160,136,71303,1,0,0:0:0:0:
160,136,71627,1,8,0:0:0:0:
160,136,71951,1,0,0:0:0:0:
104,160,72276,1,0,0:0:0:0:
296,180,72438,1,8,0:0:0:0:
104,160,72600,1,0,0:0:0:0:
104,160,73897,1,4,0:0:0:0:
84,164,74546,1,8,0:0:0:0:
192,120,75194,1,4,0:0:0:0:
136,144,75843,1,8,0:0:0:0:
248,160,76492,1,4,0:0:0:0:
200,220,76816,1,8,0:0:0:0:
256,160,77140,1,4,0:0:0:0:
200,220,77465,1,8,0:0:0:0:
256,160,77789,1,4,0:0:0:0:
208,192,78113,1,4,0:0:0:0:
208,192,78438,1,4,0:0:0:0:
156,180,78762,1,4,0:0:0:0:
248,156,79086,1,12,0:0:0:0:
256,192,79411,12,0,81357,0:0:0:0:
232,140,81681,5,0,0:0:0:0:
128,148,82330,1,8,0:0:0:0:
136,160,82654,1,0,0:0:0:0:
296,104,82979,1,6,0:0:0:0:
208,144,83303,1,2,0:0:0:0:
176,160,83627,1,6,0:0:0:0:
136,156,83951,1,8,0:0:0:0:
176,160,84276,1,4,0:0:0:0:
220,168,85248,1,0,0:0:0:0:
144,156,85897,1,0,0:0:0:0:
144,156,86221,1,0,0:0:0:0:
132,160,86546,1,8,0:0:0:0:
112,168,86870,1,4,0:0:0:0:
116,168,87194,1,0,0:0:0:0:
116,168,87357,1,8,0:0:0:0:
116,172,87519,1,0,0:0:0:0:
116,172,87843,1,0,0:0:0:0:
116,168,88167,1,8,0:0:0:0:
124,136,88330,1,8,0:0:0:0:
192,80,88492,1,0,0:0:0:0:
192,80,88654,1,8,0:0:0:0:
192,80,88816,1,0,0:0:0:0:
192,80,89140,1,8,0:0:0:0:
196,140,89465,5,0,0:0:0:0:
208,168,90114,1,0,0:0:0:0:
212,176,90438,1,8,0:0:0:0:
192,140,90762,1,0,0:0:0:0:
240,144,91087,1,8,0:0:0:0:
168,120,91411,1,8,0:0:0:0:
240,144,91573,1,8,0:0:0:0:
240,144,91735,1,8,0:0:0:0:
168,120,92060,1,0,0:0:0:0:
168,120,92384,1,8,0:0:0:0:
168,120,92708,1,0,0:0:0:0:
168,120,93033,1,8,0:0:0:0:
244,156,93195,1,8,0:0:0:0:
168,120,93357,1,0,0:0:0:0:
148,132,93681,1,0,0:0:0:0:
168,120,94006,1,0,0:0:0:0:
208,108,94654,1,4,0:0:0:0:
312,120,95303,1,0,0:0:0:0:
136,216,95627,1,8,0:0:0:0:
344,116,95952,1,0,0:0:0:0:
156,168,96276,1,8,0:0:0:0:
288,116,96600,1,8,0:0:0:0:
200,44,96762,1,8,0:0:0:0:
156,168,96925,1,8,0:0:0:0:
288,116,97249,1,0,0:0:0:0:
288,116,97573,1,8,0:0:0:0:
288,116,97897,1,0,0:0:0:0:
176,136,98546,1,8,0:0:0:0:
84,132,98870,1,8,0:0:0:0:
88,136,99033,1,8,0:0:0:0:
244,156,99195,1,0,0:0:0:0:
88,136,99519,1,0,0:0:0:0:
244,156,99843,1,8,0:0:0:0:
44,148,100492,1,0,0:0:0:0:
224,144,100979,1,8,0:0:0:0:
120,168,101303,1,8,0:0:0:0:
116,172,101627,1,0,0:0:0:0:
224,144,101789,1,0,0:0:0:0:
224,144,102114,1,8,0:0:0:0:
224,144,102438,1,0,0:0:0:0:
224,144,103087,1,0,0:0:0:0:
224,152,103411,1,0,0:0:0:0:
148,168,103573,1,0,0:0:0:0:
244,116,103735,1,8,0:0:0:0:
244,116,104059,1,8,0:0:0:0:
244,116,104384,1,8,0:0:0:0:
244,116,105033,1,4,0:0:0:0:
