osu file format v14

[General]
AudioFilename: audio.mp3
AudioLeadIn: 0
PreviewTime: 109979
Countdown: 1
SampleSet: Normal
StackLeniency: 0.2
Mode: 0
LetterboxInBreaks: 0
WidescreenStoryboard: 0

[Editor]
Bookmarks: 9779,19379,28979,33779,36179,37379,38579,48179,57779,67379,76679,79379,81779,91379,96179,100979,110579,120179,121379,124979,132179,141779,151379,160979,163379,164279,165779,169379,170579,180179,189779,208979
DistanceSpacing: 4.3
BeatDivisor: 8
GridSize: 8
TimelineZoom: 3.1

[Metadata]
Title:TRIGGERHAPPY (Hommarju Remix)
TitleUnicode:TRIGGER★HAPPY (Hommarju Remix)
Artist:P*Light
ArtistUnicode:P*Light
Creator:nitsuga5124
Version:PA PARRA PA PAAAAAAAAAAAAAA
Source:The deep web
Tags:omg this is a collab, also hi OmniMorphix125, but this is not a collab, and idk why
BeatmapID:1844587
BeatmapSetID:882306

[Difficulty]
HPDrainRate:5
CircleSize:4
OverallDifficulty:8
ApproachRate:9.7
SliderMultiplier:3.59999990463257
SliderTickRate:2

[Events]
//Background and Video events
0,0,"hyperdimension_neptunia_iris_heart_wallpaper_by_jessymoonn-d9uvlxt.jpg",0,0
//Break Periods
2,57979,76184
2,81679,100484
2,101179,109679
2,122460,127034
2,141979,160484
//Storyboard Layer 0 (Background)
//Storyboard Layer 1 (Fail)
//Storyboard Layer 2 (Pass)
//Storyboard Layer 3 (Foreground)
//Storyboard Sound Samples

[TimingPoints]
179,300,4,1,0,60,1,0
2279,-200,4,1,0,60,0,0
2579,-100,4,1,0,60,0,0
4379,-20000,4,1,0,60,0,0
4979,-100,4,1,0,60,0,0
7079,-20000,4,1,0,60,0,0
7379,-100,4,1,0,60,0,0
9779,-45.4545454545455,4,1,0,60,0,0
13979,-270.27027027027,4,1,0,60,0,0
14579,-45.4545454545455,4,1,0,60,0,0
19079,-57.1428571428571,4,1,0,60,0,0
19379,-100,4,1,0,60,0,0
32579,-25,4,1,0,60,0,0
33179,-1000,4,1,0,60,0,0
33779,-100,4,1,0,60,0,0
38279,-66.6666666666667,4,1,0,60,0,0
43079,-66.6666666666667,4,1,0,60,0,0
47579,-1000,4,1,0,60,0,0
48179,-66.6666666666667,4,1,0,60,0,0
78029,-500,4,1,0,60,0,0
79379,-100,4,1,0,60,0,0
80579,-66.6666666666667,4,1,0,60,0,0
110579,-153.846153846154,4,1,0,60,0,0
112529,-303.030303030303,4,1,0,60,0,0
112829,-153.846153846154,4,1,0,60,0,0
114479,-102.040816326531,4,1,0,60,0,0
114629,-153.846153846154,4,1,0,60,0,0
114779,-100,4,1,0,60,0,0
117179,-100,4,1,0,60,0,0
117629,-50,4,1,0,60,0,0
117779,-100,4,1,0,60,0,0
121079,-1000,4,1,0,60,0,0
121379,-100,4,1,0,60,0,0
131541,-50,4,1,0,5,0,0
131579,-50,4,1,0,60,0,0
132179,-500.846153846154,4,1,0,60,0,0

[Colours]
Combo1 : 196,0,103
Combo2 : 128,0,255
Combo3 : 0,128,255
Combo4 : 255,128,192
Combo5 : 49,0,98

[HitObjects]
144,112,179,5,0,0:0:0:0:
144,112,629,1,0,0:0:0:0:
143,111,1079,1,0,0:0:0:0:
26,194,1229,5,0,0:0:0:0:
94,215,1304,1,0,0:0:0:0:
163,237,1379,1,0,0:0:0:0:
163,241,1829,5,0,0:0:0:0:
26,194,1979,1,0,0:0:0:0:
73,57,2129,1,0,0:0:0:0:
209,105,2279,2,0,L|63:53,1,134.999996423721
15,31,2579,5,0,0:0:0:0:
419,183,3029,1,0,0:0:0:0:
419,183,3479,5,0,0:0:0:0:
281,224,3629,5,0,0:0:0:0:
349,203,3704,1,0,0:0:0:0:
418,181,3779,5,0,0:0:0:0:
202,181,3929,1,0,0:0:0:0:
418,181,4079,1,0,0:0:0:0:
159,181,4229,1,0,0:0:0:0:
163,212,4379,6,0,L|163:181,1,26.9999992847443
159,345,4679,2,0,L|159:375,1,26.9999992847443
163,212,4979,5,0,0:0:0:0:
160,345,5429,1,0,0:0:0:0:
163,212,5879,1,0,0:0:0:0:
160,32,6029,5,0,0:0:0:0:
161,121,6104,1,0,0:0:0:0:
159,211,6179,1,0,0:0:0:0:
163,212,6629,5,0,0:0:0:0:
322,212,6779,1,0,0:0:0:0:
163,53,6929,5,0,0:0:0:0:
163,212,7079,2,0,L|162:244,1,26.9999992847443
163,53,7379,5,0,0:0:0:0:
349,331,7829,1,0,0:0:0:0:
349,331,8279,5,0,0:0:0:0:
347,63,8429,5,0,0:0:0:0:
348,152,8504,1,0,0:0:0:0:
349,241,8579,1,0,0:0:0:0:
349,241,8729,1,0,0:0:0:0:
163,241,8879,5,0,0:0:0:0:
163,241,9029,1,0,0:0:0:0:
64,90,9179,5,0,0:0:0:0:
99,84,9254,1,0,0:0:0:0:
135,79,9329,1,0,0:0:0:0:
170,73,9404,1,0,0:0:0:0:
184,112,9479,5,0,0:0:0:0:
219,118,9554,1,0,0:0:0:0:
255,122,9629,1,0,0:0:0:0:
290,126,9704,1,0,0:0:0:0:
336,80,9779,6,0,L|432:105,1,99.0000003986359
336,80,10229,2,0,L|432:105,1,99.0000003986359
326,209,10679,5,0,0:0:0:0:
111,257,10829,5,0,0:0:0:0:
218,311,10904,1,0,0:0:0:0:
336,304,10979,2,0,L|432:279,1,99.0000003986359
336,304,11429,2,0,L|432:279,1,99.0000003986359
431,279,11579,5,0,0:0:0:0:
226,34,11729,1,0,0:0:0:0:
217,313,11879,5,0,0:0:0:0:
422,67,12029,1,0,0:0:0:0:
217,313,12179,6,0,L|313:288,1,99.0000003986359
217,313,12629,6,0,L|313:288,1,99.0000003986359
313,288,13079,6,0,L|217:313,1,99.0000003986359
217,312,13229,1,0,0:0:0:0:
230,188,13304,1,0,0:0:0:0:
242,63,13379,6,0,L|146:88,1,99.0000003986359
50,112,13529,2,0,L|146:87,1,99.0000003986359
259,128,13679,6,0,L|163:153,1,99.0000003986359
67,177,13829,2,0,L|163:152,1,99.0000003986359
276,191,13979,6,0,L|178:217,1,99.8999997925187
84,242,14279,2,0,L|181:216,1,99.8999997925187
276,191,14579,6,0,L|178:217,1,99.8999997925187
179,216,14879,5,0,0:0:0:0:
179,216,15029,2,0,L|81:242,1,99.8999997925187
82,241,15329,1,0,0:0:0:0:
82,241,15629,5,0,0:0:0:0:
56,329,15704,1,0,0:0:0:0:
56,329,15929,2,0,L|154:303,1,99.8999997925187
152,303,16229,6,0,L|250:277,4,99.0000003986359
247,277,16604,2,0,L|151:302,2,99.0000003986359
152,303,16829,2,0,L|250:277,3,99.0000003986359
152,303,16979,6,0,L|250:277,31,99.0000003986359
371,63,18179,5,0,0:0:0:0:
197,327,18479,1,0,0:0:0:0:
371,63,18779,1,0,0:0:0:0:
256,160,19079,6,0,B|328:80|216:0|128:64|160:144|200:168|200:168|200:168|256:192|256:344,1,472.499991989136
256,360,19379,5,0,0:0:0:0:
60,143,19529,1,0,0:0:0:0:
256,360,19679,5,0,0:0:0:0:
60,143,19754,1,0,0:0:0:0:
60,143,19979,5,0,0:0:0:0:
490,133,20129,5,0,0:0:0:0:
490,133,20279,1,0,0:0:0:0:
490,133,20429,1,0,0:0:0:0:
278,115,20579,5,0,0:0:0:0:
278,115,20729,1,0,0:0:0:0:
82,332,20879,5,0,0:0:0:0:
278,115,20954,1,0,0:0:0:0:
82,332,21179,5,0,0:0:0:0:
82,332,21329,5,0,0:0:0:0:
171,347,21404,1,0,0:0:0:0:
252,309,21479,1,0,0:0:0:0:
292,229,21554,1,0,0:0:0:0:
279,142,21629,1,0,0:0:0:0:
279,142,21779,5,0,0:0:0:0:
315,384,21929,1,0,0:0:0:0:
315,384,22079,5,0,0:0:0:0:
279,142,22154,1,0,0:0:0:0:
260,13,22304,5,0,0:0:0:0:
315,384,22529,5,0,0:0:0:0:
315,384,22679,1,0,0:0:0:0:
315,384,22829,1,0,0:0:0:0:
69,99,22979,5,0,0:0:0:0:
119,149,23054,1,0,0:0:0:0:
190,154,23129,1,0,0:0:0:0:
249,113,23204,1,0,0:0:0:0:
268,43,23279,5,0,0:0:0:0:
200,68,23354,1,0,0:0:0:0:
189,139,23429,1,0,0:0:0:0:
234,194,23504,1,0,0:0:0:0:
304,208,23579,5,0,0:0:0:0:
253,156,23654,1,0,0:0:0:0:
182,170,23729,1,0,0:0:0:0:
143,231,23804,1,0,0:0:0:0:
144,302,23879,6,0,B|121:217|167:141|259:130|301:207,1,269.999992847443
55,293,24179,5,0,0:0:0:0:
218,89,24329,1,0,0:0:0:0:
55,293,24479,5,0,0:0:0:0:
218,89,24554,1,0,0:0:0:0:
512,384,24704,5,0,0:0:0:0:
55,169,24929,5,0,0:0:0:0:
55,169,25079,1,0,0:0:0:0:
55,169,25229,1,0,0:0:0:0:
389,98,25379,5,0,0:0:0:0:
256,331,25529,1,0,0:0:0:0:
423,39,25679,5,0,0:0:0:0:
256,331,25754,1,0,0:0:0:0:
8,67,25904,5,0,0:0:0:0:
256,331,26129,5,0,0:0:0:0:
194,265,26204,1,0,0:0:0:0:
132,199,26279,1,0,0:0:0:0:
70,133,26354,1,0,0:0:0:0:
8,67,26429,1,0,0:0:0:0:
457,336,26579,5,0,0:0:0:0:
96,227,26729,1,0,0:3:0:0:
133,384,26879,5,0,0:3:0:0:
46,16,26954,1,0,0:3:0:0:
457,336,27104,5,0,0:0:0:0:
46,16,27179,5,0,0:3:0:0:
46,16,27329,1,0,0:3:0:0:
46,16,27479,1,0,0:3:0:0:
46,16,27629,1,0,0:3:0:0:
46,16,27779,5,0,0:3:0:0:
512,384,27929,1,0,0:3:0:0:
35,80,28079,5,0,0:3:0:0:
512,384,28229,1,0,0:3:0:0:
27,135,28379,6,0,B|173:240|173:240|140:119,1,269.999992847443
148,352,28679,6,0,L|134:303,6,44.9999988079071
97,101,28979,6,0,B|175:119|175:119|340:246,1,269.999992847443
190,123,29279,2,0,B|261:158|261:158|394:318,1,269.999992847443
56,351,29579,6,0,B|74:273|74:273|189:122,1,269.999992847443
77,258,29881,2,0,B|112:186|112:186|258:65,1,269.999992847443
256,339,30179,6,0,B|238:206|238:206|292:348,1,269.999992847443
372,295,30479,2,0,B|296:182|296:182|344:308,1,269.999992847443
46,106,30779,6,0,P|96:148|46:102,1,269.999992847443
465,97,31079,2,0,P|377:106|466:105,1,269.999992847443
157,293,31379,6,0,B|93:262|93:262|212:304|212:304|138:247,1,269.999992847443
151,226,31679,2,0,B|208:270|208:270|89:228|89:228|153:259,1,269.999992847443
264,72,31979,6,0,B|305:177|305:177|242:17,1,269.999992847443
247,30,32279,2,0,B|305:177|305:177|264:72,1,269.999992847443
27,27,32579,6,0,B|308:254|308:254|27:27|27:27|308:254,1,1079.99997138977
487,31,32879,2,0,B|202:253|202:253|487:31|487:31|205:250,1,1079.99997138977
0,357,33179,6,0,L|0:384,1,26.9999992847443
256,191,33329,1,0,0:0:0:0:
512,26,33479,2,0,L|512:0,1,26.9999992847443
74,61,33779,5,0,0:0:0:0:
159,328,33929,1,0,0:0:0:0:
283,38,34079,5,0,0:0:0:0:
70,220,34229,1,0,0:0:0:0:
476,315,34379,5,0,0:0:0:0:
224,190,34529,1,0,0:0:0:0:
201,0,34679,5,0,0:0:0:0:
170,278,34829,1,0,0:0:0:0:
0,384,34979,5,0,0:0:0:0:
260,280,35129,1,0,0:0:0:0:
312,117,35279,5,0,0:0:0:0:
227,384,35429,1,0,0:0:0:0:
399,384,35579,5,0,0:0:0:0:
314,117,35729,1,0,0:0:0:0:
91,0,35879,5,0,0:0:0:0:
2,265,36029,1,0,0:0:0:0:
341,33,36179,5,0,0:0:0:0:
413,86,36254,1,0,0:0:0:0:
437,172,36329,1,0,0:0:0:0:
424,261,36404,1,0,0:0:0:0:
358,322,36479,1,0,0:0:0:0:
269,335,36554,1,0,0:0:0:0:
190,290,36629,1,0,0:0:0:0:
160,205,36704,1,0,0:0:0:0:
200,124,36779,5,0,0:0:0:0:
289,115,36854,1,0,0:0:0:0:
330,195,36929,1,0,0:0:0:0:
279,269,37004,1,0,0:0:0:0:
190,290,37079,1,0,0:0:0:0:
105,258,37154,1,0,0:0:0:0:
65,177,37229,1,0,0:0:0:0:
79,88,37304,1,0,0:0:0:0:
150,32,37379,5,4,0:0:0:0:
374,88,37529,2,0,L|352:140,1,44.9999988079071
277,320,37679,5,0,0:0:0:0:
374,88,37829,6,0,L|352:140,1,44.9999988079071
277,320,37979,2,0,L|255:372,1,44.9999988079071
512,0,38129,5,0,0:0:0:0:
84,255,38279,6,0,P|125:114|43:230,1,405.000004720688
256,36,38579,5,0,0:0:0:0:
256,347,38729,1,0,0:0:0:0:
256,36,38879,5,0,0:0:0:0:
256,347,38954,1,0,0:0:0:0:
256,36,39104,5,0,0:0:0:0:
78,16,39329,5,0,0:0:0:0:
380,166,39479,1,0,0:0:0:0:
256,36,39629,1,0,0:0:0:0:
256,36,39779,5,0,0:0:0:0:
256,347,39929,1,0,0:0:0:0:
412,192,40079,5,0,0:0:0:0:
101,192,40154,1,0,0:0:0:0:
256,347,40304,5,0,0:0:0:0:
103,197,40529,5,0,0:0:0:0:
98,107,40604,1,0,0:0:0:0:
150,33,40679,1,0,0:0:0:0:
234,0,40754,1,0,0:0:0:0:
321,19,40829,1,0,0:0:0:0:
388,77,40979,5,0,0:0:0:0:
103,197,41129,1,0,0:0:0:0:
103,311,41279,5,0,0:0:0:0:
103,0,41354,1,0,0:0:0:0:
103,311,41504,5,0,0:0:0:0:
103,311,41729,5,0,0:0:0:0:
353,166,41879,1,0,0:0:0:0:
353,166,42029,1,0,0:0:0:0:
282,348,42179,5,0,0:0:0:0:
339,304,42254,1,0,0:0:0:0:
367,237,42329,1,0,0:0:0:0:
353,166,42404,1,0,0:0:0:0:
249,59,42479,5,0,0:0:0:0:
211,121,42554,1,0,0:0:0:0:
223,192,42629,1,0,0:0:0:0:
273,243,42704,1,0,0:0:0:0:
441,341,42779,5,0,0:0:0:0:
446,269,42854,1,0,0:0:0:0:
415,203,42929,1,0,0:0:0:0:
353,166,43004,1,0,0:0:0:0:
273,171,43079,6,0,P|192:270|410:267,1,472.50000550747
0,0,43379,5,0,0:0:0:0:
268,166,43529,1,0,0:0:0:0:
241,88,43679,5,0,0:0:0:0:
344,384,43754,1,0,0:0:0:0:
0,0,43904,5,0,0:0:0:0:
241,88,44129,5,0,0:0:0:0:
18,262,44279,1,0,0:0:0:0:
74,220,44429,1,0,0:0:0:0:
304,43,44579,5,0,0:0:0:0:
181,342,44729,1,0,0:0:0:0:
377,22,44879,5,0,0:0:0:0:
181,342,44954,1,0,0:0:0:0:
231,26,45104,5,0,0:0:0:0:
314,59,45329,5,0,0:0:0:0:
231,26,45404,1,0,0:0:0:0:
142,46,45479,1,0,0:0:0:0:
79,111,45554,1,0,0:0:0:0:
70,200,45629,1,0,0:0:0:0:
79,111,45779,5,0,0:0:0:0:
314,59,45929,1,0,0:0:0:0:
196,0,46079,5,0,0:0:0:0:
426,269,46154,1,0,0:0:0:0:
0,21,46304,5,0,0:0:0:0:
404,68,46379,5,0,0:0:0:0:
138,187,46529,1,0,0:0:0:0:
390,194,46679,5,0,0:0:0:0:
119,84,46829,1,0,0:0:0:0:
421,308,46979,5,0,0:0:0:0:
185,13,47129,1,0,0:0:0:0:
245,384,47279,5,0,0:0:0:0:
299,10,47429,1,0,0:0:0:0:
41,185,47579,6,0,L|62:210,1,31.499999165535
61,209,47879,6,0,L|66:215,6,4.49999988079071
416,223,48179,5,0,0:0:0:0:
76,93,48329,1,0,0:0:0:0:
76,93,48479,5,0,0:0:0:0:
416,223,48554,1,0,0:0:0:0:
237,159,48704,5,0,0:0:0:0:
441,126,48929,5,0,0:0:0:0:
237,159,49079,1,0,0:0:0:0:
237,159,49229,1,0,0:0:0:0:
416,223,49379,5,0,0:0:0:0:
416,223,49529,1,0,0:0:0:0:
256,36,49679,5,0,0:0:0:0:
416,223,49754,1,0,0:0:0:0:
512,0,49904,5,0,0:0:0:0:
100,270,50129,5,0,0:0:0:0:
188,262,50204,1,0,0:0:0:0:
259,206,50279,1,0,0:0:0:0:
287,120,50354,1,0,0:0:0:0:
256,36,50429,1,0,0:0:0:0:
256,36,50579,5,0,0:0:0:0:
100,270,50729,1,0,0:0:0:0:
417,277,50879,5,0,0:0:0:0:
160,30,50954,1,0,0:0:0:0:
256,36,51104,5,0,0:0:0:0:
417,277,51329,5,0,0:0:0:0:
100,270,51479,1,0,0:0:0:0:
256,36,51629,1,0,0:0:0:0:
417,277,51779,5,0,0:0:0:0:
398,207,51854,1,0,0:0:0:0:
348,155,51929,1,0,0:0:0:0:
277,140,52004,1,0,0:0:0:0:
138,194,52079,5,0,0:0:0:0:
180,253,52154,1,0,0:0:0:0:
250,270,52229,1,0,0:0:0:0:
316,244,52304,1,0,0:0:0:0:
219,183,52379,5,0,0:0:0:0:
277,140,52454,1,0,0:0:0:0:
350,138,52529,1,0,0:0:0:0:
414,170,52604,1,0,0:0:0:0:
451,236,52679,6,0,P|355:53|198:185,1,472.50000550747
324,52,52979,5,0,0:0:0:0:
449,359,53129,1,0,0:0:0:0:
198,185,53279,5,0,0:0:0:0:
324,52,53354,1,0,0:0:0:0:
449,359,53504,5,0,0:0:0:0:
212,341,53729,5,0,0:0:0:0:
0,384,53879,1,0,0:0:0:0:
0,177,54029,1,0,0:0:0:0:
0,0,54179,5,0,0:0:0:0:
113,384,54329,1,0,0:0:0:0:
0,104,54479,5,0,0:0:0:0:
314,0,54554,1,0,0:0:0:0:
0,199,54704,5,0,0:0:0:0:
0,199,54779,5,0,0:0:0:0:
51,264,54929,5,0,0:0:0:0:
124,314,55004,1,0,0:0:0:0:
214,315,55079,1,0,0:0:0:0:
290,265,55154,1,0,0:0:0:0:
319,180,55229,1,0,0:0:0:0:
385,316,55379,5,0,0:0:0:0:
417,108,55529,2,0,L|429:44,1,44.9999988079071
337,298,55679,5,0,0:0:0:0:
292,92,55829,2,0,L|280:27,1,44.9999988079071
285,298,55979,5,0,0:0:0:0:
169,122,56129,2,0,L|135:66,1,44.9999988079071
285,298,56279,5,0,0:0:0:0:
77,147,56429,1,0,0:0:0:0:
90,311,56579,5,0,0:0:0:0:
303,158,56729,5,0,0:0:0:0:
266,184,56804,1,0,0:0:0:0:
230,211,56879,1,0,0:0:0:0:
370,111,57029,5,0,0:0:0:0:
90,311,57179,1,0,0:0:0:0:
112,81,57329,5,0,0:0:0:0:
392,281,57479,2,0,L|329:236,10,44.9999988079071
275,200,57779,5,0,0:0:0:0:
382,133,76679,6,0,L|398:105,22,22.4999994039536
447,26,76979,1,0,0:0:0:0:
288,298,77279,5,0,0:0:0:0:
447,26,77429,1,0,0:0:0:0:
288,298,77729,5,0,0:0:0:0:
288,298,78029,2,0,L|468:-12,1,314.99999165535
140,122,79379,5,0,0:0:0:0:
431,190,79529,1,0,0:0:0:0:
62,168,79679,5,0,0:0:0:0:
68,114,79754,1,0,0:0:0:0:
74,60,79829,1,0,0:0:0:0:
52,219,79979,5,0,0:0:0:0:
46,273,80054,1,0,0:0:0:0:
40,327,80129,1,0,0:0:0:0:
35,380,80204,1,0,0:0:0:0:
79,350,80279,1,0,0:0:0:0:
257,26,80579,6,0,B|346:20|350:122|292:144|254:125|254:125|331:170|312:248|250:285|187:277|168:208,1,405.000004720688
458,101,80879,2,0,B|568:134|517:305|397:211|397:211|415:253|411:388|413:430,1,405.000004720688
136,347,81179,2,0,B|125:245|24:96|24:96|194:214,1,472.50000550747
507,378,81479,5,4,0:0:0:0:
176,216,100979,5,0,0:0:0:0:
207,115,110579,6,0,B|223:172|256:218|312:256|312:256|314:217|299:187|271:168,1,263.249980975629
207,115,111029,5,0,0:0:0:0:
97,97,111179,5,0,0:0:0:0:
99,107,111254,1,0,0:0:0:0:
102,115,111329,1,0,0:0:0:0:
105,122,111404,6,0,B|132:157|145:187|138:236|138:236|168:205|198:194|255:203|255:203|236:172,1,263.249980975629
191,131,111779,2,0,B|279:111|279:111|349:118|349:118|354:176|338:243|338:243|291:252|256:304,1,380.249972520353
41,96,112379,6,0,L|67:194,1,87.749993658543
151,181,112529,6,0,L|128:275,1,89.0999973677445
52,273,112829,6,0,L|78:371,1,87.749993658543
74,357,112979,2,0,B|52:271|52:271|103:232|185:273|198:341|198:341|284:298,1,350.999974634172
60,140,113579,5,0,0:0:0:0:
126,198,113654,1,0,0:0:0:0:
196,249,113729,1,0,0:0:0:0:
262,308,113804,1,0,0:0:0:0:
332,358,113879,2,0,P|415:313|414:212,1,204.749985203267
335,250,114179,6,0,B|306:111|306:111|346:125,1,175.499987317086
337,122,114479,6,0,B|306:111|306:111|335:250,1,175.499987317086
113,279,114779,6,0,L|57:145,1,89.9999976158143
185,51,114929,2,0,L|150:134,1,89.9999976158143
255,384,115079,2,0,L|128:80,1,269.999992847443
143,347,115379,6,0,P|299:202|168:362,1,629.9999833107
214,263,115979,5,0,0:0:0:0:
245,188,116054,1,0,0:0:0:0:
307,136,116129,1,0,0:0:0:0:
383,128,116204,1,0,0:0:0:0:
455,165,116279,6,0,P|301:139|227:258,1,269.999992847443
391,305,116579,6,0,B|309:308|309:308|385:268|385:268|301:261|301:261|398:237|398:237|295:223|295:223|412:199|412:199|294:329,1,719.999980926514
165,124,116879,5,0,0:0:0:0:
272,196,117179,6,0,L|165:192,1,89.9999976158143
224,301,117329,2,0,L|496:312,1,269.999992847443
494,311,117629,6,0,L|151:300,1,179.999995231629
225,301,117779,6,0,B|212:242|89:195|89:195|227:248|292:202|302:86,1,449.999988079071
174,113,118229,2,0,P|181:105|173:117,1,89.9999976158143
479,338,118379,5,0,0:0:0:0:
420,281,118454,1,0,0:0:0:0:
409,200,118529,1,0,0:0:0:0:
440,125,118604,1,0,0:0:0:0:
501,72,118679,2,0,L|223:72,1,269.999992847443
70,117,118979,5,0,0:0:0:0:
477,194,119129,1,0,0:0:0:0:
63,301,119279,5,0,0:0:0:0:
470,304,119429,1,0,0:0:0:0:
33,302,119579,5,0,0:0:0:0:
39,167,119654,1,0,0:0:0:0:
41,32,119729,1,0,0:0:0:0:
133,353,119879,6,0,P|151:227|172:351,1,359.999990463257
174,350,120179,6,0,P|144:138|133:353,1,629.9999833107
111,24,120779,5,0,0:0:0:0:
210,114,120854,1,0,0:0:0:0:
309,204,120929,1,0,0:0:0:0:
408,294,121004,1,0,0:0:0:0:
510,379,121079,6,0,L|485:358,1,26.9999992847443
177,132,121379,6,0,P|189:153|191:151,7,22.4999994039536
258,279,121529,2,0,P|260:268|252:259,7,22.4999994039536
82,245,121679,6,0,P|89:253|87:264,7,22.4999994039536
1,136,121829,2,0,P|-1:125|6:116,7,22.4999994039536
243,363,121979,2,0,P|250:371|248:382,15,22.4999994039536
32,64,127529,6,0,L|40:104,1,29.249997886181
152,48,127754,6,0,L|150:88,1,29.249997886181
272,59,127979,6,0,L|261:98,1,29.249997886181
386,96,128204,6,0,L|367:132,1,29.249997886181
488,157,128429,6,0,L|461:187,1,29.249997886181
32,320,128729,6,0,L|40:280,1,29.249997886181
152,336,128954,6,0,L|150:295,1,29.249997886181
272,325,129179,6,0,L|261:285,1,29.249997886181
386,288,129404,6,0,L|367:251,1,29.249997886181
488,227,129629,6,0,L|461:196,1,29.249997886181
488,227,129779,1,0,0:0:0:0:
256,192,129891,12,0,131541,0:0:0:0:
280,128,131579,6,0,B|314:148|336:88|312:80|288:24|213:31|168:128|248:160|264:160|264:160|208:224|208:224|304:232|304:232|312:296|312:296|240:328|240:328|176:304|176:304|112:256|112:256|96:144|96:144|144:80,1,899.999976158143
144,88,132179,6,0,L|158:127,1,35.939178392073
270,180,132479,2,0,L|256:219,1,35.939178392073
200,336,132779,5,0,0:0:0:0:
270,180,132929,5,0,0:0:0:0:
255,212,133004,1,0,0:0:0:0:
340,24,133154,5,0,0:0:0:0:
325,56,133229,1,0,0:0:0:0:
255,212,133379,5,0,0:0:0:0:
255,102,133529,5,0,0:0:0:0:
255,212,133604,1,0,0:0:0:0:
255,321,133679,1,0,0:0:0:0:
255,102,133829,5,0,0:0:0:0:
255,211,133979,1,0,0:0:0:0:
475,211,134129,5,0,0:0:0:0:
365,211,134204,1,0,0:0:0:0:
255,211,134279,1,0,0:0:0:0:
365,211,134429,5,0,0:0:0:0:
255,211,134504,1,0,0:0:0:0:
145,211,134579,5,0,0:0:0:0:
144,95,134729,1,0,0:0:0:0:
146,327,134879,5,0,0:0:0:0:
144,95,135029,1,0,0:0:0:0:
144,95,135179,5,0,0:0:0:0:
146,210,135329,5,0,0:0:0:0:
144,112,135404,1,0,0:0:0:0:
360,112,135554,5,0,0:0:0:0:
361,210,135629,1,0,0:0:0:0:
361,110,135779,5,0,0:0:0:0:
361,210,135929,1,0,0:0:0:0:
361,310,136079,1,0,0:0:0:0:
361,335,136229,1,0,0:0:0:0:
361,210,136379,5,0,0:0:0:0:
360,48,136529,5,0,0:0:0:0:
360,72,136604,1,0,0:0:0:0:
360,96,136679,1,0,0:0:0:0:
288,336,136829,5,0,0:0:0:0:
288,296,136904,1,0,0:0:0:0:
288,256,136979,1,0,0:0:0:0:
288,384,137129,5,0,0:0:0:0:
288,104,137279,1,0,0:0:0:0:
8,136,137429,5,0,0:0:0:0:
288,136,137579,1,0,0:0:0:0:
48,136,137729,5,0,0:0:0:0:
32,136,137804,1,0,0:0:0:0:
248,136,137954,5,0,0:0:0:0:
216,136,138029,1,0,0:0:0:0:
432,136,138179,5,0,0:0:0:0:
320,216,138329,5,0,0:0:0:0:
280,240,138404,1,0,0:0:0:0:
248,264,138479,1,0,0:0:0:0:
432,136,138629,5,0,0:0:0:0:
224,280,138779,1,0,0:0:0:0:
336,64,138929,5,0,0:0:0:0:
280,112,139004,1,0,0:0:0:0:
224,160,139079,1,0,0:0:0:0:
48,312,139229,5,0,0:0:0:0:
104,264,139304,1,0,0:0:0:0:
160,216,139379,1,0,0:0:0:0:
280,112,139529,5,0,0:0:0:0:
160,216,139679,1,0,0:0:0:0:
336,64,139829,5,0,0:0:0:0:
104,264,139979,1,0,0:0:0:0:
312,88,140129,5,0,0:0:0:0:
288,112,140204,1,0,0:0:0:0:
104,240,140354,5,0,0:0:0:0:
104,216,140429,1,0,0:0:0:0:
104,88,140579,5,0,0:0:0:0:
104,152,140729,1,0,0:0:0:0:
104,216,140879,1,0,0:0:0:0:
104,280,141029,1,0,0:0:0:0:
104,344,141179,1,0,0:0:0:0:
288,88,141329,5,0,0:0:0:0:
288,216,141404,1,0,0:0:0:0:
288,344,141479,1,0,0:0:0:0:
224,80,141629,5,0,0:0:0:0:
201,206,141704,1,0,0:0:0:0:
179,332,141779,1,0,0:0:0:0:
45,29,160979,5,0,0:0:0:0:
356,322,161129,1,0,0:0:0:0:
320,21,161279,5,0,0:0:0:0:
9,314,161354,1,0,0:0:0:0:
45,29,161504,5,0,0:0:0:0:
442,38,161579,5,0,0:0:0:0:
403,1,161729,1,0,0:0:0:0:
407,39,161879,5,0,0:0:0:0:
446,2,161954,1,0,0:0:0:0:
442,38,162104,5,0,0:0:0:0:
396,15,162179,5,0,0:0:0:0:
432,300,162329,1,0,0:0:0:0:
121,7,162479,5,0,0:0:0:0:
85,308,162554,1,0,0:0:0:0:
432,300,162704,5,0,0:0:0:0:
439,187,162779,5,0,0:0:0:0:
510,189,162929,1,0,0:0:0:0:
446,249,163079,5,0,0:0:0:0:
502,248,163154,1,0,0:0:0:0:
510,189,163304,5,0,0:0:0:0:
0,51,163379,5,0,0:0:0:0:
386,384,163529,1,0,0:0:0:0:
404,0,163679,5,0,0:0:0:0:
0,384,163829,1,0,0:0:0:0:
512,287,163979,5,0,0:0:0:0:
0,137,164129,1,0,0:0:0:0:
498,80,164279,6,0,L|494:85,15,4.49239729900912
125,0,164579,5,0,0:0:0:0:
512,332,164729,1,0,0:0:0:0:
125,0,164879,5,0,0:0:0:0:
512,332,164954,1,0,0:0:0:0:
0,322,165104,5,0,0:0:0:0:
49,216,165179,5,0,0:0:0:0:
126,222,165254,1,0,0:0:0:0:
193,184,165329,1,0,0:0:0:0:
265,209,165404,1,0,0:0:0:0:
294,137,165479,1,0,0:0:0:0:
369,121,165554,1,0,0:0:0:0:
440,149,165629,1,0,0:0:0:0:
479,82,165704,1,0,0:0:0:0:
261,260,165779,5,0,0:0:0:0:
7,9,165929,5,0,0:0:0:0:
90,180,166004,1,0,0:0:0:0:
175,354,166079,1,0,0:0:0:0:
437,342,166229,5,0,0:0:0:0:
261,260,166304,1,0,0:0:0:0:
90,180,166379,1,0,0:0:0:0:
0,312,166529,5,0,0:0:0:0:
182,263,166604,1,0,0:0:0:0:
369,213,166679,1,0,0:0:0:0:
512,178,166754,5,0,0:0:0:0:
325,228,166829,1,0,0:0:0:0:
143,277,166904,1,0,0:0:0:0:
1,321,166979,5,0,0:0:0:0:
262,0,167129,1,0,0:0:0:0:
1,321,167279,5,0,0:0:0:0:
262,0,167429,1,0,0:0:0:0:
1,321,167579,5,0,0:0:0:0:
137,158,167654,1,0,0:0:0:0:
262,0,167729,1,0,0:0:0:0:
137,158,167804,1,0,0:0:0:0:
1,321,167879,6,0,L|7:322,15,4.49239729900912
137,158,168179,5,0,0:0:0:0:
201,201,168254,1,0,0:0:0:0:
278,198,168329,1,0,0:0:0:0:
336,147,168404,1,0,0:0:0:0:
321,71,168479,1,0,0:0:0:0:
244,57,168554,1,0,0:0:0:0:
192,114,168629,1,0,0:0:0:0:
188,191,168704,1,0,0:0:0:0:
249,237,168779,5,0,0:0:0:0:
251,314,168854,1,0,0:0:0:0:
324,338,168929,1,0,0:0:0:0:
259,381,169004,1,0,0:0:0:0:
190,344,169079,1,0,0:0:0:0:
121,380,169154,1,0,0:0:0:0:
72,319,169229,1,0,0:0:0:0:
123,261,169304,1,0,0:0:0:0:
55,223,169379,1,0,0:0:0:0:
