osu file format v14

[General]
AudioFilename: PxLight - Storm Buster.mp3
AudioLeadIn: 0
PreviewTime: 39172
Countdown: 0
SampleSet: Soft
StackLeniency: 0.7
Mode: 3
LetterboxInBreaks: 0
SpecialStyle: 0
WidescreenStoryboard: 0

[Editor]
Bookmarks: 20519,30467,40415,50363,60312,70260,81452
DistanceSpacing: 0.8
BeatDivisor: 4
GridSize: 32
TimelineZoom: 2.9

[Metadata]
Title:Storm Buster
TitleUnicode:Storm Buster
Artist:P*Light
ArtistUnicode:P*Light
Creator:Takane6
Version:9K Another
Source:
Tags:
BeatmapID:886608
BeatmapSetID:404125

[Difficulty]
HPDrainRate:8
CircleSize:9
OverallDifficulty:8
ApproachRate:5
SliderMultiplier:1.4
SliderTickRate:1

[Events]
//Background and Video events
0,0,"storm.jpg",0,0
//Break Periods
//Storyboard Layer 0 (Background)
//Storyboard Layer 1 (Fail)
//Storyboard Layer 2 (Pass)
//Storyboard Layer 3 (Foreground)
//Storyboard Layer 4 (Overlay)
//Storyboard Sound Samples

[TimingPoints]
623,310.880829015544,4,2,1,30,1,0
40415,-100,4,2,1,30,0,1
60312,-100,4,2,1,30,0,0
81452,-100,4,2,1,30,0,1
101348,-100,4,2,1,30,0,0

[HitObjects]
28,192,623,5,2,0:0:0:0:
199,192,623,1,4,0:0:0:0:
483,192,623,1,8,0:0:0:0:
28,192,778,1,2,0:0:0:0:
199,192,778,1,4,0:0:0:0:
483,192,778,1,8,0:0:0:0:
85,192,933,1,8,0:0:0:0:
426,192,933,1,0,0:0:0:0:
256,192,1089,1,0,0:0:0:0:
369,192,1167,1,0,0:0:0:0:
199,192,1244,1,0,0:0:0:0:
312,192,1322,1,0,0:0:0:0:
142,192,1400,1,0,0:0:0:0:
256,192,1477,1,0,0:0:0:0:
85,192,1555,1,8,0:0:0:0:
369,192,1555,1,0,0:0:0:0:
199,192,1711,1,0,0:0:0:0:
312,192,1788,1,0,0:0:0:0:
28,192,1866,1,4,0:0:0:0:
426,192,1866,1,8,0:0:0:0:
483,192,1866,1,2,0:0:0:0:
28,192,2021,1,4,0:0:0:0:
426,192,2021,1,8,0:0:0:0:
483,192,2021,1,2,0:0:0:0:
142,192,2177,1,8,0:0:0:0:
312,192,2177,1,0,0:0:0:0:
28,192,2332,1,2,0:0:0:0:
256,192,2332,1,8,0:0:0:0:
483,192,2332,1,4,0:0:0:0:
142,192,2410,1,0,0:0:0:0:
369,192,2488,1,0,0:0:0:0:
256,192,2566,1,0,0:0:0:0:
28,192,2643,1,2,0:0:0:0:
142,192,2643,1,8,0:0:0:0:
483,192,2643,1,4,0:0:0:0:
28,192,2799,1,4,0:0:0:0:
142,192,2799,1,8,0:0:0:0:
483,192,2799,1,2,0:0:0:0:
85,192,2954,1,4,0:0:0:0:
312,192,2954,1,8,0:0:0:0:
426,192,2954,1,2,0:0:0:0:
85,192,3110,1,2,0:0:0:0:
312,192,3110,1,8,0:0:0:0:
426,192,3110,1,4,0:0:0:0:
256,192,3265,1,0,0:0:0:0:
142,192,3420,1,8,0:0:0:0:
369,192,3420,1,0,0:0:0:0:
256,192,3576,1,0,0:0:0:0:
142,192,3654,1,0,0:0:0:0:
312,192,3731,1,0,0:0:0:0:
199,192,3809,1,0,0:0:0:0:
369,192,3887,1,0,0:0:0:0:
256,192,3964,1,0,0:0:0:0:
142,192,4042,1,8,0:0:0:0:
426,192,4042,1,0,0:0:0:0:
312,192,4198,1,0,0:0:0:0:
199,192,4275,1,0,0:0:0:0:
28,192,4353,1,2,0:0:0:0:
85,192,4353,1,4,0:0:0:0:
483,192,4353,1,8,0:0:0:0:
28,192,4509,1,2,0:0:0:0:
85,192,4509,1,8,0:0:0:0:
483,192,4509,1,4,0:0:0:0:
142,192,4664,1,8,0:0:0:0:
312,192,4664,1,0,0:0:0:0:
28,192,4819,1,2,0:0:0:0:
256,192,4819,1,8,0:0:0:0:
483,192,4819,1,4,0:0:0:0:
85,192,5130,1,2,0:0:0:0:
369,192,5130,1,8,0:0:0:0:
426,192,5130,1,4,0:0:0:0:
85,192,5286,1,4,0:0:0:0:
369,192,5286,1,2,0:0:0:0:
426,192,5286,1,8,0:0:0:0:
28,192,5441,1,2,0:0:0:0:
199,192,5441,1,8,0:0:0:0:
483,192,5441,1,4,0:0:0:0:
28,192,5597,1,4,0:0:0:0:
199,192,5597,1,8,0:0:0:0:
483,192,5597,1,2,0:0:0:0:
142,192,5752,1,8,0:0:0:0:
426,192,5752,1,0,0:0:0:0:
85,192,5907,1,8,0:0:0:0:
312,192,5907,1,0,0:0:0:0:
142,192,6063,1,8,0:0:0:0:
256,192,6063,1,0,0:0:0:0:
28,192,6218,1,2,0:0:0:0:
312,192,6218,1,8,0:0:0:0:
483,192,6218,1,4,0:0:0:0:
85,192,6374,1,8,0:0:0:0:
199,192,6374,1,0,0:0:0:0:
312,192,6529,1,8,0:0:0:0:
426,192,6529,1,0,0:0:0:0:
28,192,6685,1,8,0:0:0:0:
199,192,6685,1,0,0:0:0:0:
85,192,6840,1,2,0:0:0:0:
369,192,6840,1,8,0:0:0:0:
483,192,6840,1,4,0:0:0:0:
256,192,6996,1,8,0:0:0:0:
312,192,6996,1,0,0:0:0:0:
28,192,7151,1,8,0:0:0:0:
142,192,7151,1,0,0:0:0:0:
256,192,7306,1,8,0:0:0:0:
426,192,7306,1,0,0:0:0:0:
85,192,7462,1,2,0:0:0:0:
199,192,7462,1,8,0:0:0:0:
483,192,7462,1,4,0:0:0:0:
312,192,7617,1,8,0:0:0:0:
426,192,7617,1,0,0:0:0:0:
85,192,7773,1,8,0:0:0:0:
199,192,7773,1,0,0:0:0:0:
312,192,7928,1,8,0:0:0:0:
426,192,7928,1,0,0:0:0:0:
28,192,8084,1,8,0:0:0:0:
199,192,8084,1,2,0:0:0:0:
483,192,8084,1,4,0:0:0:0:
142,192,8239,1,8,0:0:0:0:
426,192,8239,1,2,0:0:0:0:
85,192,8395,1,2,0:0:0:0:
256,192,8395,1,8,0:0:0:0:
369,192,8395,1,4,0:0:0:0:
142,192,8550,1,8,0:0:0:0:
426,192,8550,1,2,0:0:0:0:
28,192,8705,1,4,0:0:0:0:
256,192,8705,1,8,0:0:0:0:
483,192,8705,1,2,0:0:0:0:
312,192,8783,1,8,0:0:0:0:
142,192,8861,1,8,0:0:0:0:
369,192,8861,1,0,0:0:0:0:
199,192,8939,1,8,0:0:0:0:
28,192,9016,1,2,0:0:0:0:
256,192,9016,1,4,0:0:0:0:
483,192,9016,1,0,0:0:0:0:
312,192,9094,1,2,0:0:0:0:
142,192,9172,1,2,0:0:0:0:
369,192,9172,1,0,0:0:0:0:
199,192,9249,1,2,0:0:0:0:
28,192,9327,1,2,0:0:0:0:
256,192,9327,1,0,0:0:0:0:
85,192,9638,1,2,0:0:0:0:
369,192,9638,1,0,0:0:0:0:
199,192,9949,1,2,0:0:0:0:
483,192,9949,1,0,0:0:0:0:
85,192,10260,1,2,0:0:0:0:
256,192,10260,1,8,0:0:0:0:
369,192,10260,1,0,0:0:0:0:
28,192,10571,1,4,0:0:0:0:
142,192,10571,1,2,0:0:0:0:
312,192,10571,1,8,0:0:0:0:
199,192,10726,1,0,0:0:0:0:
256,192,10882,1,2,0:0:0:0:
426,192,10882,1,0,0:0:0:0:
369,192,11037,1,0,0:0:0:0:
85,192,11192,1,2,0:0:0:0:
312,192,11192,1,0,0:0:0:0:
199,192,11348,1,0,0:0:0:0:
312,192,11426,1,0,0:0:0:0:
28,192,11503,1,2,0:0:0:0:
426,192,11503,1,0,0:0:0:0:
142,192,11581,1,0,0:0:0:0:
256,192,11659,1,0,0:0:0:0:
369,192,11736,1,0,0:0:0:0:
28,192,11814,1,2,0:0:0:0:
199,192,11814,1,0,0:0:0:0:
483,192,11814,1,0,0:0:0:0:
312,192,11970,1,0,0:0:0:0:
142,192,12125,1,2,0:0:0:0:
426,192,12125,1,0,0:0:0:0:
199,192,12281,1,0,0:0:0:0:
256,192,12436,1,2,0:0:0:0:
483,192,12436,1,0,0:0:0:0:
199,192,12591,1,0,0:0:0:0:
142,192,12669,1,0,0:0:0:0:
85,192,12747,1,2,0:0:0:0:
312,192,12747,1,0,0:0:0:0:
256,192,12825,1,0,0:0:0:0:
199,192,12902,1,2,0:0:0:0:
426,192,12902,1,0,0:0:0:0:
369,192,12980,1,0,0:0:0:0:
28,192,13058,1,2,0:0:0:0:
312,192,13058,1,0,0:0:0:0:
483,192,13058,1,0,0:0:0:0:
85,192,13213,1,0,0:0:0:0:
142,192,13369,1,2,0:0:0:0:
426,192,13369,1,0,0:0:0:0:
312,192,13524,1,0,0:0:0:0:
85,192,13679,1,2,0:0:0:0:
369,192,13679,1,0,0:0:0:0:
312,192,13835,1,0,0:0:0:0:
199,192,13913,1,0,0:0:0:0:
85,192,13990,1,2,0:0:0:0:
426,192,13990,1,0,0:0:0:0:
369,192,14068,1,0,0:0:0:0:
312,192,14146,1,0,0:0:0:0:
256,192,14224,1,0,0:0:0:0:
28,192,14301,1,2,0:0:0:0:
199,192,14301,1,8,0:0:0:0:
85,192,14379,1,0,0:0:0:0:
142,192,14457,1,0,0:0:0:0:
199,192,14534,1,0,0:0:0:0:
85,192,14612,1,8,0:0:0:0:
256,192,14612,1,2,0:0:0:0:
142,192,14690,1,0,0:0:0:0:
199,192,14768,1,0,0:0:0:0:
256,192,14845,1,0,0:0:0:0:
199,192,14923,1,2,0:0:0:0:
369,192,14923,1,8,0:0:0:0:
256,192,15001,1,0,0:0:0:0:
312,192,15078,1,0,0:0:0:0:
369,192,15156,1,0,0:0:0:0:
256,192,15234,1,2,0:0:0:0:
426,192,15234,1,8,0:0:0:0:
312,192,15312,1,0,0:0:0:0:
369,192,15389,1,0,0:0:0:0:
426,192,15467,1,0,0:0:0:0:
28,192,15545,1,2,0:0:0:0:
199,192,15545,1,8,0:0:0:0:
483,192,15545,1,4,0:0:0:0:
142,192,15700,1,0,0:0:0:0:
256,192,15856,1,2,0:0:0:0:
426,192,15856,1,0,0:0:0:0:
369,192,16011,1,0,0:0:0:0:
142,192,16167,1,2,0:0:0:0:
483,192,16167,1,0,0:0:0:0:
312,192,16322,1,0,0:0:0:0:
199,192,16400,1,0,0:0:0:0:
85,192,16477,1,2,0:0:0:0:
483,192,16477,1,0,0:0:0:0:
369,192,16555,1,0,0:0:0:0:
256,192,16633,1,0,0:0:0:0:
142,192,16711,1,0,0:0:0:0:
28,192,16788,1,2,0:0:0:0:
312,192,16788,1,0,0:0:0:0:
426,192,16788,1,0,0:0:0:0:
199,192,16944,1,0,0:0:0:0:
85,192,17099,1,2,0:0:0:0:
369,192,17099,1,0,0:0:0:0:
312,192,17255,1,0,0:0:0:0:
256,192,17410,1,2,0:0:0:0:
483,192,17410,1,0,0:0:0:0:
142,192,17566,1,0,0:0:0:0:
199,192,17643,1,0,0:0:0:0:
256,192,17721,1,2,0:0:0:0:
426,192,17721,1,0,0:0:0:0:
312,192,17799,1,0,0:0:0:0:
85,192,17876,1,2,0:0:0:0:
369,192,17876,1,0,0:0:0:0:
142,192,17954,1,0,0:0:0:0:
28,192,18032,1,2,0:0:0:0:
199,192,18032,1,0,0:0:0:0:
483,192,18032,1,0,0:0:0:0:
426,192,18187,1,0,0:0:0:0:
85,192,18343,1,2,0:0:0:0:
369,192,18343,1,0,0:0:0:0:
199,192,18498,1,0,0:0:0:0:
142,192,18654,1,2,0:0:0:0:
483,192,18654,1,0,0:0:0:0:
256,192,18809,1,0,0:0:0:0:
199,192,18887,1,0,0:0:0:0:
28,192,18964,1,2,0:0:0:0:
142,192,18964,1,0,0:0:0:0:
256,192,19042,1,0,0:0:0:0:
369,192,19120,1,0,0:0:0:0:
483,192,19198,1,0,0:0:0:0:
85,192,19275,1,2,0:0:0:0:
256,192,19275,1,0,0:0:0:0:
199,192,19431,1,0,0:0:0:0:
369,192,19431,1,0,0:0:0:0:
142,192,19586,1,2,0:0:0:0:
312,192,19586,1,0,0:0:0:0:
85,192,19742,1,0,0:0:0:0:
256,192,19742,1,0,0:0:0:0:
199,192,19897,1,8,0:0:0:0:
369,192,19897,1,0,0:0:0:0:
142,192,20053,1,8,0:0:0:0:
312,192,20053,1,0,0:0:0:0:
85,192,20208,1,2,0:0:0:0:
256,192,20208,1,8,0:0:0:0:
426,192,20208,1,0,0:0:0:0:
312,192,20286,1,0,0:0:0:0:
369,192,20363,1,0,0:0:0:0:
426,192,20441,1,0,0:0:0:0:
85,192,20519,1,4,0:0:0:0:
256,192,20519,1,8,0:0:0:0:
483,192,20519,1,2,0:0:0:0:
142,192,20597,1,0,0:0:0:0:
199,192,20674,1,0,0:0:0:0:
256,192,20830,1,2,0:0:0:0:
426,192,20830,1,8,0:0:0:0:
369,192,20907,1,0,0:0:0:0:
312,192,20985,1,0,0:0:0:0:
85,192,21141,1,2,0:0:0:0:
483,192,21141,1,0,0:0:0:0:
199,192,21296,1,0,0:0:0:0:
256,192,21374,1,0,0:0:0:0:
85,192,21452,1,2,0:0:0:0:
312,192,21452,1,8,0:0:0:0:
142,192,21529,1,0,0:0:0:0:
199,192,21607,1,0,0:0:0:0:
369,192,21607,1,0,0:0:0:0:
426,192,21685,1,0,0:0:0:0:
28,192,21762,1,2,0:0:0:0:
256,192,21762,1,0,0:0:0:0:
483,192,21762,1,0,0:0:0:0:
312,192,21840,1,0,0:0:0:0:
369,192,21918,1,0,0:0:0:0:
28,192,22073,1,2,0:0:0:0:
256,192,22073,1,8,0:0:0:0:
199,192,22151,1,0,0:0:0:0:
142,192,22229,1,0,0:0:0:0:
199,192,22384,1,2,0:0:0:0:
483,192,22384,1,0,0:0:0:0:
369,192,22540,1,0,0:0:0:0:
312,192,22617,1,0,0:0:0:0:
28,192,22695,1,2,0:0:0:0:
256,192,22695,1,8,0:0:0:0:
85,192,22773,1,0,0:0:0:0:
142,192,22850,1,2,0:0:0:0:
199,192,22928,1,0,0:0:0:0:
28,192,23006,1,2,0:0:0:0:
256,192,23006,1,0,0:0:0:0:
483,192,23006,1,0,0:0:0:0:
426,192,23084,1,0,0:0:0:0:
369,192,23161,1,0,0:0:0:0:
85,192,23317,1,8,0:0:0:0:
426,192,23317,1,2,0:0:0:0:
142,192,23395,1,0,0:0:0:0:
199,192,23472,1,0,0:0:0:0:
28,192,23628,1,2,0:0:0:0:
312,192,23628,1,0,0:0:0:0:
483,192,23783,1,0,0:0:0:0:
426,192,23861,1,0,0:0:0:0:
142,192,23939,1,2,0:0:0:0:
369,192,23939,1,8,0:0:0:0:
199,192,24016,1,0,0:0:0:0:
256,192,24094,1,0,0:0:0:0:
312,192,24172,1,0,0:0:0:0:
28,192,24249,1,2,0:0:0:0:
369,192,24249,1,8,0:0:0:0:
85,192,24327,1,0,0:0:0:0:
142,192,24405,1,0,0:0:0:0:
199,192,24483,1,0,0:0:0:0:
256,192,24560,1,8,0:0:0:0:
426,192,24560,1,2,0:0:0:0:
369,192,24638,1,0,0:0:0:0:
312,192,24716,1,0,0:0:0:0:
256,192,24793,1,0,0:0:0:0:
199,192,24871,1,8,0:0:0:0:
483,192,24871,1,2,0:0:0:0:
426,192,24949,1,0,0:0:0:0:
369,192,25027,1,0,0:0:0:0:
312,192,25104,1,0,0:0:0:0:
85,192,25182,1,2,0:0:0:0:
256,192,25182,1,8,0:0:0:0:
142,192,25260,1,0,0:0:0:0:
199,192,25338,1,0,0:0:0:0:
256,192,25415,1,0,0:0:0:0:
85,192,25493,1,4,0:0:0:0:
312,192,25493,1,8,0:0:0:0:
483,192,25493,1,2,0:0:0:0:
142,192,25571,1,0,0:0:0:0:
199,192,25648,1,0,0:0:0:0:
28,192,25804,1,2,0:0:0:0:
256,192,25804,1,8,0:0:0:0:
312,192,25882,1,0,0:0:0:0:
369,192,25959,1,0,0:0:0:0:
256,192,26115,1,4,0:0:0:0:
426,192,26115,1,2,0:0:0:0:
199,192,26270,1,2,0:0:0:0:
369,192,26270,1,4,0:0:0:0:
256,192,26348,1,0,0:0:0:0:
142,192,26426,1,10,0:0:0:0:
312,192,26426,1,4,0:0:0:0:
199,192,26503,1,0,0:0:0:0:
85,192,26581,1,2,0:0:0:0:
256,192,26581,1,0,0:0:0:0:
142,192,26659,1,0,0:0:0:0:
28,192,26736,1,2,0:0:0:0:
199,192,26736,1,8,0:0:0:0:
426,192,26736,1,4,0:0:0:0:
369,192,26814,1,0,0:0:0:0:
312,192,26892,1,0,0:0:0:0:
199,192,27047,1,8,0:0:0:0:
483,192,27047,1,2,0:0:0:0:
142,192,27125,1,0,0:0:0:0:
85,192,27203,1,0,0:0:0:0:
369,192,27203,1,0,0:0:0:0:
28,192,27358,1,2,0:0:0:0:
256,192,27358,1,4,0:0:0:0:
483,192,27358,1,0,0:0:0:0:
142,192,27514,1,2,0:0:0:0:
312,192,27514,1,4,0:0:0:0:
256,192,27591,1,0,0:0:0:0:
199,192,27669,1,2,0:0:0:0:
369,192,27669,1,8,0:0:0:0:
312,192,27747,1,0,0:0:0:0:
256,192,27825,1,2,0:0:0:0:
426,192,27825,1,0,0:0:0:0:
369,192,27902,1,0,0:0:0:0:
28,192,27980,1,2,0:0:0:0:
312,192,27980,1,8,0:0:0:0:
483,192,27980,1,4,0:0:0:0:
85,192,28058,1,0,0:0:0:0:
142,192,28135,1,2,0:0:0:0:
426,192,28135,1,0,0:0:0:0:
199,192,28213,1,0,0:0:0:0:
28,192,28291,1,4,0:0:0:0:
256,192,28291,1,8,0:0:0:0:
483,192,28291,1,2,0:0:0:0:
426,192,28369,1,0,0:0:0:0:
142,192,28446,1,2,0:0:0:0:
369,192,28446,1,0,0:0:0:0:
312,192,28524,1,0,0:0:0:0:
28,192,28602,1,2,0:0:0:0:
256,192,28602,1,8,0:0:0:0:
483,192,28602,1,4,0:0:0:0:
85,192,28679,1,2,0:0:0:0:
142,192,28757,1,2,0:0:0:0:
369,192,28757,1,0,0:0:0:0:
312,192,28835,1,2,0:0:0:0:
28,192,28913,1,2,0:0:0:0:
256,192,28913,1,4,0:0:0:0:
483,192,28913,1,8,0:0:0:0:
426,192,28990,1,2,0:0:0:0:
142,192,29068,1,2,0:0:0:0:
369,192,29068,1,0,0:0:0:0:
199,192,29146,1,2,0:0:0:0:
28,192,29224,1,2,0:0:0:0:
256,192,29224,1,0,0:0:0:0:
28,192,30156,1,8,0:0:0:0:
256,192,30156,1,0,0:0:0:0:
483,192,30156,1,0,0:0:0:0:
142,192,30467,1,2,0:0:0:0:
312,192,30467,1,0,0:0:0:0:
369,192,30467,1,0,0:0:0:0:
199,192,31089,1,8,0:0:0:0:
483,192,31089,1,0,0:0:0:0:
199,192,31244,1,0,0:0:0:0:
199,192,31400,1,0,0:0:0:0:
199,192,31555,1,0,0:0:0:0:
85,192,31711,1,2,0:0:0:0:
369,192,31711,1,0,0:0:0:0:
85,192,32177,1,2,0:0:0:0:
369,192,32177,1,0,0:0:0:0:
28,192,32332,1,8,0:0:0:0:
426,192,32332,1,0,0:0:0:0:
483,192,32332,1,0,0:0:0:0:
142,192,32488,1,2,0:0:0:0:
312,192,32488,1,0,0:0:0:0:
199,192,32799,1,2,0:0:0:0:
369,192,32799,1,0,0:0:0:0:
28,192,32954,1,2,0:0:0:0:
483,192,32954,1,8,0:0:0:0:
142,192,33265,1,2,0:0:0:0:
256,192,33265,1,0,0:0:0:0:
85,192,33576,1,8,0:0:0:0:
312,192,33576,1,0,0:0:0:0:
483,192,33576,1,0,0:0:0:0:
142,192,33887,1,2,0:0:0:0:
256,192,33887,1,0,0:0:0:0:
312,192,34198,1,2,0:0:0:0:
483,192,34198,1,0,0:0:0:0:
312,192,34353,1,2,0:0:0:0:
483,192,34353,1,0,0:0:0:0:
85,192,34664,1,2,0:0:0:0:
142,192,34664,1,0,0:0:0:0:
256,192,34819,1,8,0:0:0:0:
426,192,34819,1,0,0:0:0:0:
28,192,34975,1,2,0:0:0:0:
85,192,34975,1,0,0:0:0:0:
199,192,35130,1,8,0:0:0:0:
369,192,35130,1,0,0:0:0:0:
28,192,35441,1,4,0:0:0:0:
85,192,35441,1,2,0:0:0:0:
483,192,35441,1,0,0:0:0:0:
312,192,35752,1,2,0:0:0:0:
426,192,35752,1,8,0:0:0:0:
85,192,36063,1,2,0:0:0:0:
312,192,36063,1,4,0:0:0:0:
483,192,36063,1,0,0:0:0:0:
312,192,36218,1,0,0:0:0:0:
142,192,36374,1,2,0:0:0:0:
312,192,36374,1,8,0:0:0:0:
312,192,36529,1,0,0:0:0:0:
28,192,36685,1,4,0:0:0:0:
199,192,36685,1,2,0:0:0:0:
426,192,36685,1,0,0:0:0:0:
85,192,36996,1,2,0:0:0:0:
312,192,36996,1,8,0:0:0:0:
142,192,37306,1,2,0:0:0:0:
426,192,37306,1,4,0:0:0:0:
483,192,37306,1,0,0:0:0:0:
85,192,37462,1,8,0:0:0:0:
369,192,37462,1,0,0:0:0:0:
256,192,37617,1,2,0:0:0:0:
483,192,37617,1,0,0:0:0:0:
199,192,37773,1,8,0:0:0:0:
426,192,37773,1,0,0:0:0:0:
28,192,37928,1,2,0:0:0:0:
85,192,37928,1,4,0:0:0:0:
312,192,37928,1,0,0:0:0:0:
199,192,38084,1,2,0:0:0:0:
85,192,38239,1,2,0:0:0:0:
142,192,38239,1,4,0:0:0:0:
369,192,38239,1,0,0:0:0:0:
256,192,38395,1,2,0:0:0:0:
142,192,38550,1,2,0:0:0:0:
199,192,38550,1,4,0:0:0:0:
426,192,38550,1,0,0:0:0:0:
85,192,38705,1,2,0:0:0:0:
312,192,38705,1,0,0:0:0:0:
28,192,38861,1,2,0:0:0:0:
256,192,38861,1,4,0:0:0:0:
483,192,38861,1,0,0:0:0:0:
426,192,38939,1,8,0:0:0:0:
142,192,39016,1,2,0:0:0:0:
369,192,39016,1,0,0:0:0:0:
85,192,39094,1,8,0:0:0:0:
28,192,39172,1,2,0:0:0:0:
256,192,39172,1,4,0:0:0:0:
483,192,39172,1,0,0:0:0:0:
142,192,40104,1,8,0:0:0:0:
256,192,40104,1,0,0:0:0:0:
369,192,40104,1,0,0:0:0:0:
28,192,40415,1,2,0:0:0:0:
199,192,40415,1,4,0:0:0:0:
369,192,40415,1,0,0:0:0:0:
85,192,40571,1,0,0:0:0:0:
256,192,40571,1,0,0:0:0:0:
142,192,40726,1,2,0:0:0:0:
312,192,40726,1,8,0:0:0:0:
199,192,40882,1,0,0:0:0:0:
256,192,41037,1,2,0:0:0:0:
483,192,41037,1,0,0:0:0:0:
426,192,41192,1,0,0:0:0:0:
369,192,41270,1,0,0:0:0:0:
28,192,41348,1,2,0:0:0:0:
312,192,41348,1,8,0:0:0:0:
85,192,41426,1,0,0:0:0:0:
142,192,41503,1,0,0:0:0:0:
199,192,41581,1,0,0:0:0:0:
256,192,41659,1,2,0:0:0:0:
483,192,41659,1,0,0:0:0:0:
142,192,41970,1,2,0:0:0:0:
312,192,41970,1,8,0:0:0:0:
199,192,42125,1,0,0:0:0:0:
256,192,42281,1,2,0:0:0:0:
426,192,42281,1,0,0:0:0:0:
85,192,42591,1,2,0:0:0:0:
312,192,42591,1,8,0:0:0:0:
369,192,42747,1,2,0:0:0:0:
199,192,42902,1,2,0:0:0:0:
426,192,42902,1,0,0:0:0:0:
256,192,43058,1,0,0:0:0:0:
28,192,43213,1,2,0:0:0:0:
312,192,43213,1,8,0:0:0:0:
85,192,43369,1,0,0:0:0:0:
142,192,43524,1,2,0:0:0:0:
483,192,43524,1,0,0:0:0:0:
312,192,43679,1,0,0:0:0:0:
199,192,43757,1,0,0:0:0:0:
85,192,43835,1,2,0:0:0:0:
426,192,43835,1,8,0:0:0:0:
369,192,43913,1,0,0:0:0:0:
312,192,43990,1,0,0:0:0:0:
256,192,44068,1,0,0:0:0:0:
28,192,44146,1,2,0:0:0:0:
199,192,44146,1,0,0:0:0:0:
369,192,44301,1,0,0:0:0:0:
85,192,44457,1,2,0:0:0:0:
312,192,44457,1,8,0:0:0:0:
426,192,44612,1,0,0:0:0:0:
142,192,44768,1,2,0:0:0:0:
369,192,44768,1,0,0:0:0:0:
199,192,44923,1,2,0:0:0:0:
312,192,44923,1,0,0:0:0:0:
28,192,45078,1,2,0:0:0:0:
256,192,45078,1,8,0:0:0:0:
483,192,45078,1,0,0:0:0:0:
199,192,45389,1,2,0:0:0:0:
369,192,45389,1,4,0:0:0:0:
426,192,45389,1,0,0:0:0:0:
312,192,45545,1,0,0:0:0:0:
85,192,45700,1,2,0:0:0:0:
483,192,45700,1,8,0:0:0:0:
199,192,45856,1,0,0:0:0:0:
312,192,46011,1,2,0:0:0:0:
426,192,46011,1,0,0:0:0:0:
256,192,46167,1,0,0:0:0:0:
369,192,46244,1,0,0:0:0:0:
28,192,46322,1,2,0:0:0:0:
483,192,46322,1,8,0:0:0:0:
85,192,46400,1,0,0:0:0:0:
142,192,46477,1,0,0:0:0:0:
199,192,46555,1,0,0:0:0:0:
256,192,46633,1,2,0:0:0:0:
426,192,46633,1,0,0:0:0:0:
142,192,46944,1,2,0:0:0:0:
369,192,46944,1,8,0:0:0:0:
312,192,47099,1,0,0:0:0:0:
256,192,47255,1,2,0:0:0:0:
483,192,47255,1,0,0:0:0:0:
85,192,47410,1,2,0:0:0:0:
483,192,47410,1,0,0:0:0:0:
199,192,47566,1,2,0:0:0:0:
483,192,47566,1,8,0:0:0:0:
28,192,47721,1,2,0:0:0:0:
483,192,47721,1,0,0:0:0:0:
142,192,47876,1,2,0:0:0:0:
483,192,47876,1,0,0:0:0:0:
256,192,48032,1,0,0:0:0:0:
28,192,48187,1,8,0:0:0:0:
369,192,48187,1,2,0:0:0:0:
199,192,48343,1,0,0:0:0:0:
85,192,48498,1,2,0:0:0:0:
312,192,48498,1,0,0:0:0:0:
426,192,48654,1,0,0:0:0:0:
369,192,48731,1,0,0:0:0:0:
85,192,48809,1,8,0:0:0:0:
312,192,48809,1,2,0:0:0:0:
142,192,48887,1,0,0:0:0:0:
199,192,48964,1,0,0:0:0:0:
256,192,49042,1,0,0:0:0:0:
312,192,49120,1,2,0:0:0:0:
483,192,49120,1,8,0:0:0:0:
85,192,49327,1,0,0:0:0:0:
85,192,49431,1,0,0:0:0:0:
369,192,49638,1,0,0:0:0:0:
199,192,49742,1,2,0:0:0:0:
369,192,49742,1,8,0:0:0:0:
312,192,49949,1,2,0:0:0:0:
483,192,49949,1,8,0:0:0:0:
28,192,50053,1,8,0:0:0:0:
199,192,50053,1,2,0:0:0:0:
85,192,50363,1,2,0:0:0:0:
426,192,50363,1,8,0:0:0:0:
483,192,50363,1,0,0:0:0:0:
256,192,50571,1,0,0:0:0:0:
199,192,50674,1,8,0:0:0:0:
369,192,50674,1,2,0:0:0:0:
312,192,50882,1,0,0:0:0:0:
256,192,50985,1,2,0:0:0:0:
426,192,50985,1,8,0:0:0:0:
312,192,51192,1,8,0:0:0:0:
483,192,51192,1,2,0:0:0:0:
312,192,51296,1,2,0:0:0:0:
483,192,51296,1,8,0:0:0:0:
256,192,51400,1,0,0:0:0:0:
199,192,51503,1,0,0:0:0:0:
142,192,51607,1,2,0:0:0:0:
483,192,51607,1,8,0:0:0:0:
28,192,51711,1,2,0:0:0:0:
369,192,51711,1,8,0:0:0:0:
85,192,51814,1,8,0:0:0:0:
426,192,51814,1,2,0:0:0:0:
142,192,51918,1,2,0:0:0:0:
483,192,51918,1,8,0:0:0:0:
199,192,52125,1,8,0:0:0:0:
369,192,52125,1,2,0:0:0:0:
256,192,52229,1,2,0:0:0:0:
426,192,52229,1,8,0:0:0:0:
142,192,52436,1,2,0:0:0:0:
312,192,52436,1,8,0:0:0:0:
28,192,52540,1,8,0:0:0:0:
199,192,52540,1,0,0:0:0:0:
369,192,52643,1,0,0:0:0:0:
312,192,52747,1,0,0:0:0:0:
85,192,52850,1,8,0:0:0:0:
256,192,52850,1,2,0:0:0:0:
426,192,52850,1,0,0:0:0:0:
142,192,53058,1,0,0:0:0:0:
256,192,53161,1,8,0:0:0:0:
426,192,53161,1,2,0:0:0:0:
85,192,53369,1,0,0:0:0:0:
312,192,53472,1,2,0:0:0:0:
483,192,53472,1,8,0:0:0:0:
28,192,53679,1,8,0:0:0:0:
199,192,53679,1,2,0:0:0:0:
312,192,53783,1,2,0:0:0:0:
426,192,53783,1,8,0:0:0:0:
199,192,53887,1,0,0:0:0:0:
142,192,53990,1,0,0:0:0:0:
28,192,54094,1,2,0:0:0:0:
483,192,54094,1,8,0:0:0:0:
85,192,54198,1,2,0:0:0:0:
369,192,54198,1,8,0:0:0:0:
142,192,54301,1,8,0:0:0:0:
426,192,54301,1,2,0:0:0:0:
28,192,54405,1,2,0:0:0:0:
483,192,54405,1,8,0:0:0:0:
142,192,54716,1,2,0:0:0:0:
312,192,54716,1,8,0:0:0:0:
199,192,54923,1,2,0:0:0:0:
369,192,54923,1,8,0:0:0:0:
142,192,55027,1,8,0:0:0:0:
312,192,55027,1,0,0:0:0:0:
28,192,55338,1,4,0:0:0:0:
256,192,55338,1,8,0:0:0:0:
426,192,55338,1,2,0:0:0:0:
369,192,55415,1,0,0:0:0:0:
312,192,55493,1,0,0:0:0:0:
256,192,55648,1,2,0:0:0:0:
483,192,55648,1,8,0:0:0:0:
199,192,55726,1,0,0:0:0:0:
142,192,55804,1,0,0:0:0:0:
28,192,55959,1,4,0:0:0:0:
312,192,55959,1,2,0:0:0:0:
85,192,56115,1,2,0:0:0:0:
369,192,56115,1,4,0:0:0:0:
142,192,56270,1,10,0:0:0:0:
426,192,56270,1,4,0:0:0:0:
199,192,56426,1,2,0:0:0:0:
483,192,56426,1,0,0:0:0:0:
28,192,56581,1,2,0:0:0:0:
85,192,56581,1,8,0:0:0:0:
256,192,56581,1,4,0:0:0:0:
142,192,56659,1,0,0:0:0:0:
199,192,56736,1,0,0:0:0:0:
85,192,56892,1,8,0:0:0:0:
256,192,56892,1,2,0:0:0:0:
312,192,56970,1,0,0:0:0:0:
142,192,57047,1,0,0:0:0:0:
369,192,57047,1,0,0:0:0:0:
256,192,57203,1,2,0:0:0:0:
426,192,57203,1,4,0:0:0:0:
483,192,57203,1,0,0:0:0:0:
199,192,57358,1,2,0:0:0:0:
369,192,57358,1,4,0:0:0:0:
142,192,57514,1,2,0:0:0:0:
312,192,57514,1,8,0:0:0:0:
85,192,57669,1,2,0:0:0:0:
256,192,57669,1,0,0:0:0:0:
28,192,57825,1,2,0:0:0:0:
199,192,57825,1,8,0:0:0:0:
483,192,57825,1,4,0:0:0:0:
426,192,57902,1,2,0:0:0:0:
142,192,57980,1,2,0:0:0:0:
369,192,57980,1,0,0:0:0:0:
312,192,58058,1,2,0:0:0:0:
28,192,58135,1,4,0:0:0:0:
256,192,58135,1,8,0:0:0:0:
483,192,58135,1,2,0:0:0:0:
85,192,58213,1,2,0:0:0:0:
142,192,58291,1,2,0:0:0:0:
369,192,58291,1,0,0:0:0:0:
199,192,58369,1,2,0:0:0:0:
28,192,58446,1,2,0:0:0:0:
256,192,58446,1,8,0:0:0:0:
483,192,58446,1,4,0:0:0:0:
426,192,58524,1,2,0:0:0:0:
142,192,58602,1,2,0:0:0:0:
369,192,58602,1,0,0:0:0:0:
312,192,58679,1,2,0:0:0:0:
28,192,58757,1,2,0:0:0:0:
256,192,58757,1,4,0:0:0:0:
483,192,58757,1,8,0:0:0:0:
85,192,58835,1,2,0:0:0:0:
142,192,58913,1,2,0:0:0:0:
369,192,58913,1,0,0:0:0:0:
199,192,58990,1,2,0:0:0:0:
28,192,59068,1,2,0:0:0:0:
256,192,59068,1,0,0:0:0:0:
483,192,59068,1,0,0:0:0:0:
426,192,59146,1,2,0:0:0:0:
85,192,59224,1,2,0:0:0:0:
142,192,59262,1,2,0:0:0:0:
199,192,59301,1,2,0:0:0:0:
256,192,59340,1,2,0:0:0:0:
312,192,59379,1,2,0:0:0:0:
483,192,59379,1,0,0:0:0:0:
85,192,59457,1,2,0:0:0:0:
426,192,59534,1,2,0:0:0:0:
369,192,59573,1,2,0:0:0:0:
312,192,59612,1,2,0:0:0:0:
256,192,59651,1,2,0:0:0:0:
28,192,59690,1,2,0:0:0:0:
199,192,59690,1,0,0:0:0:0:
426,192,59768,1,2,0:0:0:0:
85,192,59845,1,2,0:0:0:0:
142,192,59884,1,2,0:0:0:0:
199,192,59923,1,2,0:0:0:0:
256,192,59962,1,2,0:0:0:0:
312,192,60001,1,2,0:0:0:0:
483,192,60001,1,0,0:0:0:0:
85,192,60078,1,2,0:0:0:0:
426,192,60156,1,2,0:0:0:0:
369,192,60195,1,2,0:0:0:0:
312,192,60234,1,2,0:0:0:0:
256,192,60273,1,2,0:0:0:0:
28,192,60312,1,2,0:0:0:0:
199,192,60312,1,4,0:0:0:0:
312,192,61555,1,0,0:0:0:0:
369,192,61555,1,0,0:0:0:0:
142,192,62799,1,0,0:0:0:0:
199,192,62799,1,0,0:0:0:0:
28,192,64042,1,0,0:0:0:0:
85,192,64042,1,0,0:0:0:0:
369,192,65286,1,0,0:0:0:0:
426,192,65286,1,0,0:0:0:0:
256,192,66529,1,0,0:0:0:0:
312,192,66529,1,0,0:0:0:0:
85,192,67773,1,0,0:0:0:0:
142,192,67773,1,0,0:0:0:0:
199,192,69016,1,0,0:0:0:0:
256,192,69016,1,0,0:0:0:0:
28,192,69949,1,0,0:0:0:0:
85,192,70104,1,0,0:0:0:0:
142,192,70260,1,0,0:0:0:0:
483,192,70260,1,0,0:0:0:0:
312,192,70260,1,0,0:0:0:0:
28,192,70571,1,8,0:0:0:0:
483,192,70571,1,0,0:0:0:0:
85,192,70726,1,0,0:0:0:0:
142,192,70882,1,8,0:0:0:0:
483,192,70882,1,0,0:0:0:0:
28,192,71192,1,8,0:0:0:0:
483,192,71192,1,0,0:0:0:0:
85,192,71348,1,0,0:0:0:0:
142,192,71503,1,8,0:0:0:0:
483,192,71503,1,0,0:0:0:0:
256,192,71659,1,0,0:0:0:0:
369,192,71814,1,8,0:0:0:0:
483,192,71814,1,0,0:0:0:0:
199,192,71892,1,0,0:0:0:0:
28,192,71970,1,0,0:0:0:0:
142,192,72125,1,8,0:0:0:0:
483,192,72125,1,0,0:0:0:0:
28,192,72436,1,8,0:0:0:0:
312,192,72436,1,2,0:0:0:0:
483,192,72436,1,4,0:0:0:0:
85,192,72591,1,0,0:0:0:0:
142,192,72747,1,8,0:0:0:0:
312,192,72747,1,4,0:0:0:0:
483,192,72747,1,2,0:0:0:0:
199,192,72902,1,0,0:0:0:0:
256,192,73058,1,8,0:0:0:0:
483,192,73058,1,0,0:0:0:0:
312,192,73213,1,0,0:0:0:0:
369,192,73369,1,8,0:0:0:0:
483,192,73369,1,0,0:0:0:0:
199,192,73446,1,0,0:0:0:0:
28,192,73524,1,0,0:0:0:0:
312,192,73679,1,8,0:0:0:0:
483,192,73679,1,0,0:0:0:0:
199,192,73757,1,0,0:0:0:0:
85,192,73835,1,0,0:0:0:0:
28,192,73990,1,8,0:0:0:0:
312,192,73990,1,2,0:0:0:0:
483,192,73990,1,4,0:0:0:0:
85,192,74146,1,0,0:0:0:0:
142,192,74301,1,8,0:0:0:0:
312,192,74301,1,4,0:0:0:0:
483,192,74301,1,2,0:0:0:0:
28,192,74457,1,0,0:0:0:0:
85,192,74612,1,8,0:0:0:0:
312,192,74612,1,2,0:0:0:0:
483,192,74612,1,4,0:0:0:0:
85,192,74923,1,8,0:0:0:0:
483,192,74923,1,0,0:0:0:0:
142,192,75078,1,0,0:0:0:0:
199,192,75234,1,8,0:0:0:0:
369,192,75234,1,2,0:0:0:0:
483,192,75234,1,4,0:0:0:0:
256,192,75389,1,8,0:0:0:0:
312,192,75545,1,8,0:0:0:0:
483,192,75545,1,0,0:0:0:0:
199,192,75623,1,0,0:0:0:0:
85,192,75700,1,8,0:0:0:0:
28,192,75856,1,8,0:0:0:0:
256,192,75856,1,2,0:0:0:0:
483,192,75856,1,4,0:0:0:0:
28,192,76167,1,8,0:0:0:0:
483,192,76167,1,0,0:0:0:0:
85,192,76322,1,8,0:0:0:0:
142,192,76477,1,8,0:0:0:0:
312,192,76477,1,2,0:0:0:0:
483,192,76477,1,4,0:0:0:0:
199,192,76633,1,8,0:0:0:0:
256,192,76788,1,8,0:0:0:0:
483,192,76788,1,0,0:0:0:0:
142,192,76866,1,0,0:0:0:0:
28,192,76944,1,8,0:0:0:0:
85,192,77099,1,8,0:0:0:0:
369,192,77099,1,4,0:0:0:0:
483,192,77099,1,2,0:0:0:0:
199,192,77255,1,8,0:0:0:0:
85,192,77410,1,8,0:0:0:0:
369,192,77410,1,2,0:0:0:0:
483,192,77410,1,4,0:0:0:0:
142,192,77566,1,8,0:0:0:0:
28,192,77721,1,8,0:0:0:0:
256,192,77721,1,2,0:0:0:0:
483,192,77721,1,4,0:0:0:0:
199,192,77799,1,8,0:0:0:0:
142,192,77876,1,8,0:0:0:0:
369,192,77876,1,2,0:0:0:0:
85,192,77954,1,8,0:0:0:0:
28,192,78032,1,8,0:0:0:0:
256,192,78032,1,2,0:0:0:0:
483,192,78032,1,0,0:0:0:0:
312,192,78110,1,8,0:0:0:0:
142,192,78187,1,8,0:0:0:0:
369,192,78187,1,2,0:0:0:0:
426,192,78265,1,8,0:0:0:0:
28,192,78343,1,8,0:0:0:0:
256,192,78343,1,2,0:0:0:0:
483,192,78343,1,0,0:0:0:0:
85,192,78382,1,2,0:0:0:0:
142,192,78420,1,10,0:0:0:0:
199,192,78459,1,2,0:0:0:0:
256,192,78498,1,10,0:0:0:0:
369,192,78576,1,10,0:0:0:0:
28,192,78654,1,8,0:0:0:0:
142,192,78654,1,2,0:0:0:0:
483,192,78654,1,0,0:0:0:0:
426,192,78731,1,2,0:0:0:0:
199,192,78809,1,2,0:0:0:0:
369,192,78809,1,0,0:0:0:0:
312,192,78887,1,2,0:0:0:0:
28,192,78964,1,2,0:0:0:0:
256,192,78964,1,4,0:0:0:0:
483,192,78964,1,0,0:0:0:0:
142,192,79120,1,2,0:0:0:0:
199,192,79120,1,4,0:0:0:0:
369,192,79120,1,0,0:0:0:0:
85,192,79275,1,2,0:0:0:0:
256,192,79275,1,4,0:0:0:0:
426,192,79275,1,0,0:0:0:0:
142,192,79431,1,2,0:0:0:0:
312,192,79431,1,4,0:0:0:0:
369,192,79431,1,0,0:0:0:0:
28,192,79586,1,2,0:0:0:0:
256,192,79586,1,4,0:0:0:0:
483,192,79586,1,0,0:0:0:0:
369,192,79664,1,8,0:0:0:0:
199,192,79742,1,8,0:0:0:0:
312,192,79819,1,8,0:0:0:0:
85,192,79897,1,8,0:0:0:0:
142,192,79897,1,4,0:0:0:0:
199,192,80208,1,8,0:0:0:0:
312,192,80208,1,2,0:0:0:0:
142,192,80519,1,8,0:0:0:0:
369,192,80519,1,2,0:0:0:0:
85,192,80830,1,2,0:0:0:0:
426,192,80830,1,8,0:0:0:0:
28,192,81141,1,8,0:0:0:0:
312,192,81141,1,0,0:0:0:0:
483,192,81141,1,0,0:0:0:0:
199,192,81296,1,0,0:0:0:0:
256,192,81296,1,0,0:0:0:0:
85,192,81452,1,2,0:0:0:0:
369,192,81452,1,4,0:0:0:0:
426,192,81452,1,0,0:0:0:0:
28,192,81762,1,2,0:0:0:0:
199,192,81762,1,8,0:0:0:0:
426,192,81762,1,0,0:0:0:0:
85,192,81918,1,0,0:0:0:0:
256,192,81918,1,0,0:0:0:0:
142,192,82073,1,2,0:0:0:0:
312,192,82073,1,0,0:0:0:0:
483,192,82073,1,0,0:0:0:0:
28,192,82384,1,2,0:0:0:0:
142,192,82384,1,8,0:0:0:0:
369,192,82384,1,0,0:0:0:0:
199,192,82540,1,0,0:0:0:0:
426,192,82540,1,0,0:0:0:0:
85,192,82695,1,2,0:0:0:0:
256,192,82695,1,0,0:0:0:0:
483,192,82695,1,0,0:0:0:0:
142,192,82850,1,0,0:0:0:0:
426,192,82850,1,0,0:0:0:0:
28,192,83006,1,2,0:0:0:0:
312,192,83006,1,8,0:0:0:0:
483,192,83006,1,0,0:0:0:0:
199,192,83084,1,0,0:0:0:0:
85,192,83161,1,0,0:0:0:0:
426,192,83161,1,0,0:0:0:0:
28,192,83317,1,2,0:0:0:0:
256,192,83317,1,0,0:0:0:0:
369,192,83317,1,0,0:0:0:0:
142,192,83628,1,2,0:0:0:0:
369,192,83628,1,8,0:0:0:0:
483,192,83628,1,0,0:0:0:0:
199,192,83783,1,0,0:0:0:0:
312,192,83783,1,0,0:0:0:0:
28,192,83939,1,2,0:0:0:0:
85,192,83939,1,0,0:0:0:0:
256,192,83939,1,0,0:0:0:0:
142,192,84094,1,0,0:0:0:0:
312,192,84094,1,0,0:0:0:0:
199,192,84249,1,2,0:0:0:0:
369,192,84249,1,8,0:0:0:0:
483,192,84249,1,0,0:0:0:0:
85,192,84405,1,0,0:0:0:0:
256,192,84405,1,0,0:0:0:0:
142,192,84560,1,2,0:0:0:0:
312,192,84560,1,0,0:0:0:0:
483,192,84560,1,0,0:0:0:0:
199,192,84716,1,0,0:0:0:0:
369,192,84716,1,0,0:0:0:0:
85,192,84871,1,2,0:0:0:0:
256,192,84871,1,8,0:0:0:0:
426,192,84871,1,0,0:0:0:0:
199,192,84949,1,0,0:0:0:0:
142,192,85027,1,0,0:0:0:0:
312,192,85027,1,0,0:0:0:0:
28,192,85182,1,2,0:0:0:0:
369,192,85182,1,0,0:0:0:0:
483,192,85182,1,0,0:0:0:0:
142,192,85338,1,0,0:0:0:0:
312,192,85338,1,0,0:0:0:0:
85,192,85493,1,2,0:0:0:0:
256,192,85493,1,8,0:0:0:0:
426,192,85493,1,0,0:0:0:0:
142,192,85648,1,0,0:0:0:0:
369,192,85648,1,0,0:0:0:0:
28,192,85804,1,2,0:0:0:0:
199,192,85804,1,0,0:0:0:0:
483,192,85804,1,0,0:0:0:0:
85,192,86115,1,2,0:0:0:0:
369,192,86115,1,8,0:0:0:0:
426,192,86115,1,0,0:0:0:0:
199,192,86270,1,2,0:0:0:0:
312,192,86270,1,0,0:0:0:0:
85,192,86426,1,2,0:0:0:0:
256,192,86426,1,4,0:0:0:0:
483,192,86426,1,0,0:0:0:0:
312,192,86581,1,0,0:0:0:0:
426,192,86581,1,0,0:0:0:0:
28,192,86736,1,2,0:0:0:0:
199,192,86736,1,8,0:0:0:0:
369,192,86736,1,0,0:0:0:0:
312,192,86814,1,0,0:0:0:0:
85,192,86892,1,0,0:0:0:0:
256,192,86892,1,0,0:0:0:0:
28,192,87047,1,2,0:0:0:0:
369,192,87047,1,0,0:0:0:0:
483,192,87047,1,0,0:0:0:0:
85,192,87358,1,2,0:0:0:0:
369,192,87358,1,8,0:0:0:0:
426,192,87358,1,0,0:0:0:0:
256,192,87514,1,0,0:0:0:0:
312,192,87514,1,0,0:0:0:0:
142,192,87669,1,2,0:0:0:0:
426,192,87669,1,0,0:0:0:0:
483,192,87669,1,0,0:0:0:0:
312,192,87825,1,0,0:0:0:0:
369,192,87825,1,0,0:0:0:0:
28,192,87980,1,2,0:0:0:0:
142,192,87980,1,8,0:0:0:0:
426,192,87980,1,0,0:0:0:0:
199,192,88058,1,0,0:0:0:0:
256,192,88135,1,0,0:0:0:0:
312,192,88135,1,0,0:0:0:0:
85,192,88291,1,2,0:0:0:0:
369,192,88291,1,0,0:0:0:0:
483,192,88291,1,0,0:0:0:0:
28,192,88602,1,2,0:0:0:0:
312,192,88602,1,8,0:0:0:0:
426,192,88602,1,0,0:0:0:0:
85,192,88757,1,0,0:0:0:0:
199,192,88757,1,0,0:0:0:0:
142,192,88913,1,2,0:0:0:0:
312,192,88913,1,0,0:0:0:0:
483,192,88913,1,0,0:0:0:0:
199,192,89068,1,0,0:0:0:0:
426,192,89068,1,0,0:0:0:0:
85,192,89224,1,8,0:0:0:0:
256,192,89224,1,2,0:0:0:0:
369,192,89224,1,0,0:0:0:0:
142,192,89379,1,0,0:0:0:0:
312,192,89379,1,0,0:0:0:0:
199,192,89534,1,2,0:0:0:0:
426,192,89534,1,0,0:0:0:0:
483,192,89534,1,0,0:0:0:0:
28,192,89690,1,0,0:0:0:0:
369,192,89690,1,0,0:0:0:0:
85,192,89845,1,8,0:0:0:0:
199,192,89845,1,2,0:0:0:0:
312,192,89845,1,0,0:0:0:0:
256,192,90001,1,0,0:0:0:0:
426,192,90001,1,0,0:0:0:0:
28,192,90156,1,2,0:0:0:0:
142,192,90156,1,8,0:0:0:0:
483,192,90156,1,0,0:0:0:0:
28,192,90312,1,2,0:0:0:0:
142,192,90312,1,0,0:0:0:0:
369,192,90312,1,0,0:0:0:0:
28,192,90467,1,2,0:0:0:0:
256,192,90467,1,0,0:0:0:0:
483,192,90467,1,0,0:0:0:0:
142,192,90623,1,2,0:0:0:0:
369,192,90623,1,0,0:0:0:0:
483,192,90623,1,0,0:0:0:0:
28,192,90778,1,2,0:0:0:0:
369,192,90778,1,8,0:0:0:0:
483,192,90778,1,0,0:0:0:0:
28,192,91089,1,8,0:0:0:0:
256,192,91089,1,0,0:0:0:0:
483,192,91089,1,0,0:0:0:0:
199,192,91244,1,0,0:0:0:0:
312,192,91244,1,0,0:0:0:0:
85,192,91400,1,2,0:0:0:0:
369,192,91400,1,8,0:0:0:0:
426,192,91400,1,0,0:0:0:0:
28,192,91711,1,2,0:0:0:0:
142,192,91711,1,8,0:0:0:0:
483,192,91711,1,0,0:0:0:0:
256,192,91866,1,0,0:0:0:0:
426,192,91866,1,0,0:0:0:0:
28,192,92021,1,2,0:0:0:0:
199,192,92021,1,0,0:0:0:0:
369,192,92021,1,0,0:0:0:0:
142,192,92332,1,2,0:0:0:0:
312,192,92332,1,8,0:0:0:0:
483,192,92332,1,0,0:0:0:0:
85,192,92488,1,0,0:0:0:0:
369,192,92488,1,0,0:0:0:0:
28,192,92643,1,2,0:0:0:0:
199,192,92643,1,0,0:0:0:0:
483,192,92643,1,0,0:0:0:0:
85,192,92799,1,0,0:0:0:0:
312,192,92799,1,0,0:0:0:0:
28,192,92954,1,2,0:0:0:0:
369,192,92954,1,8,0:0:0:0:
483,192,92954,1,0,0:0:0:0:
256,192,93032,1,0,0:0:0:0:
142,192,93110,1,0,0:0:0:0:
426,192,93110,1,0,0:0:0:0:
28,192,93265,1,2,0:0:0:0:
199,192,93265,1,0,0:0:0:0:
483,192,93265,1,0,0:0:0:0:
85,192,93576,1,2,0:0:0:0:
142,192,93576,1,8,0:0:0:0:
426,192,93576,1,0,0:0:0:0:
199,192,93731,1,0,0:0:0:0:
312,192,93731,1,0,0:0:0:0:
85,192,93887,1,2,0:0:0:0:
256,192,93887,1,0,0:0:0:0:
483,192,93887,1,0,0:0:0:0:
199,192,94042,1,0,0:0:0:0:
369,192,94042,1,0,0:0:0:0:
28,192,94198,1,2,0:0:0:0:
142,192,94198,1,8,0:0:0:0:
312,192,94198,1,0,0:0:0:0:
256,192,94353,1,0,0:0:0:0:
426,192,94353,1,0,0:0:0:0:
85,192,94509,1,2,0:0:0:0:
199,192,94509,1,0,0:0:0:0:
369,192,94509,1,0,0:0:0:0:
312,192,94664,1,0,0:0:0:0:
483,192,94664,1,0,0:0:0:0:
28,192,94819,1,2,0:0:0:0:
199,192,94819,1,8,0:0:0:0:
426,192,94819,1,0,0:0:0:0:
85,192,94897,1,0,0:0:0:0:
142,192,94975,1,0,0:0:0:0:
483,192,94975,1,0,0:0:0:0:
85,192,95130,1,2,0:0:0:0:
256,192,95130,1,0,0:0:0:0:
369,192,95130,1,0,0:0:0:0:
199,192,95286,1,0,0:0:0:0:
312,192,95286,1,0,0:0:0:0:
28,192,95441,1,2,0:0:0:0:
256,192,95441,1,8,0:0:0:0:
483,192,95441,1,0,0:0:0:0:
142,192,95597,1,0,0:0:0:0:
369,192,95597,1,0,0:0:0:0:
199,192,95752,1,2,0:0:0:0:
256,192,95752,1,0,0:0:0:0:
426,192,95752,1,0,0:0:0:0:
85,192,96063,1,2,0:0:0:0:
142,192,96063,1,8,0:0:0:0:
312,192,96063,1,0,0:0:0:0:
369,192,96063,1,0,0:0:0:0:
199,192,96218,1,2,0:0:0:0:
483,192,96218,1,0,0:0:0:0:
28,192,96374,1,2,0:0:0:0:
256,192,96374,1,0,0:0:0:0:
369,192,96374,1,0,0:0:0:0:
426,192,96374,1,0,0:0:0:0:
85,192,96529,1,0,0:0:0:0:
199,192,96529,1,0,0:0:0:0:
142,192,96685,1,2,0:0:0:0:
369,192,96685,1,8,0:0:0:0:
483,192,96685,1,0,0:0:0:0:
312,192,96762,1,0,0:0:0:0:
256,192,96840,1,0,0:0:0:0:
85,192,96840,1,0,0:0:0:0:
28,192,96996,1,2,0:0:0:0:
199,192,96996,1,0,0:0:0:0:
483,192,96996,1,0,0:0:0:0:
85,192,97306,1,2,0:0:0:0:
199,192,97306,1,8,0:0:0:0:
426,192,97306,1,0,0:0:0:0:
142,192,97462,1,0,0:0:0:0:
256,192,97462,1,0,0:0:0:0:
28,192,97617,1,2,0:0:0:0:
312,192,97617,1,0,0:0:0:0:
483,192,97617,1,0,0:0:0:0:
85,192,97773,1,0,0:0:0:0:
199,192,97773,1,0,0:0:0:0:
28,192,97928,1,2,0:0:0:0:
312,192,97928,1,8,0:0:0:0:
426,192,97928,1,0,0:0:0:0:
256,192,98006,1,0,0:0:0:0:
199,192,98084,1,0,0:0:0:0:
483,192,98084,1,0,0:0:0:0:
28,192,98239,1,2,0:0:0:0:
142,192,98239,1,0,0:0:0:0:
369,192,98239,1,0,0:0:0:0:
85,192,98550,1,2,0:0:0:0:
256,192,98550,1,8,0:0:0:0:
483,192,98550,1,0,0:0:0:0:
312,192,98705,1,0,0:0:0:0:
426,192,98705,1,0,0:0:0:0:
28,192,98861,1,2,0:0:0:0:
199,192,98861,1,0,0:0:0:0:
369,192,98861,1,0,0:0:0:0:
85,192,99016,1,0,0:0:0:0:
312,192,99016,1,0,0:0:0:0:
142,192,99172,1,8,0:0:0:0:
426,192,99172,1,2,0:0:0:0:
483,192,99172,1,0,0:0:0:0:
199,192,99327,1,0,0:0:0:0:
369,192,99327,1,0,0:0:0:0:
28,192,99483,1,2,0:0:0:0:
85,192,99483,1,0,0:0:0:0:
312,192,99483,1,0,0:0:0:0:
142,192,99638,1,0,0:0:0:0:
483,192,99638,1,0,0:0:0:0:
199,192,99793,1,8,0:0:0:0:
369,192,99793,1,2,0:0:0:0:
426,192,99793,1,0,0:0:0:0:
256,192,99949,1,0,0:0:0:0:
312,192,99949,1,0,0:0:0:0:
28,192,100104,1,2,0:0:0:0:
142,192,100104,1,8,0:0:0:0:
483,192,100104,1,0,0:0:0:0:
28,192,100260,1,2,0:0:0:0:
199,192,100260,1,0,0:0:0:0:
483,192,100260,1,0,0:0:0:0:
28,192,100415,1,2,0:0:0:0:
256,192,100415,1,0,0:0:0:0:
483,192,100415,1,0,0:0:0:0:
28,192,100571,1,2,0:0:0:0:
312,192,100571,1,0,0:0:0:0:
483,192,100571,1,0,0:0:0:0:
28,192,100726,1,2,0:0:0:0:
369,192,100726,1,8,0:0:0:0:
483,192,100726,1,0,0:0:0:0:
85,192,101037,1,8,0:0:0:0:
256,192,101037,1,0,0:0:0:0:
426,192,101037,1,0,0:0:0:0:
199,192,101192,1,0,0:0:0:0:
369,192,101192,1,0,0:0:0:0:
142,192,101348,1,2,0:0:0:0:
312,192,101348,1,8,0:0:0:0:
483,192,101348,1,4,0:0:0:0:
85,192,101659,1,8,0:0:0:0:
256,192,101659,1,2,0:0:0:0:
483,192,101659,1,0,0:0:0:0:
199,192,101814,1,0,0:0:0:0:
369,192,101814,1,0,0:0:0:0:
28,192,101970,1,2,0:0:0:0:
142,192,101970,1,0,0:0:0:0:
483,192,101970,1,0,0:0:0:0:
199,192,102125,1,0,0:0:0:0:
369,192,102125,1,0,0:0:0:0:
85,192,102281,1,8,0:0:0:0:
256,192,102281,1,2,0:0:0:0:
426,192,102281,1,0,0:0:0:0:
142,192,102436,1,0,0:0:0:0:
312,192,102436,1,0,0:0:0:0:
28,192,102591,1,2,0:0:0:0:
256,192,102591,1,0,0:0:0:0:
483,192,102591,1,0,0:0:0:0:
142,192,102747,1,0,0:0:0:0:
312,192,102747,1,0,0:0:0:0:
85,192,102902,1,8,0:0:0:0:
256,192,102902,1,2,0:0:0:0:
426,192,102902,1,0,0:0:0:0:
142,192,103058,1,0,0:0:0:0:
312,192,103058,1,0,0:0:0:0:
28,192,103213,1,2,0:0:0:0:
256,192,103213,1,0,0:0:0:0:
483,192,103213,1,0,0:0:0:0:
142,192,103369,1,0,0:0:0:0:
312,192,103369,1,0,0:0:0:0:
85,192,103524,1,8,0:0:0:0:
256,192,103524,1,2,0:0:0:0:
426,192,103524,1,0,0:0:0:0:
142,192,103679,1,0,0:0:0:0:
312,192,103679,1,0,0:0:0:0:
28,192,103835,1,2,0:0:0:0:
256,192,103835,1,0,0:0:0:0:
483,192,103835,1,0,0:0:0:0:
85,192,104146,1,8,0:0:0:0:
142,192,104146,1,2,0:0:0:0:
369,192,104146,1,0,0:0:0:0:
256,192,104301,1,0,0:0:0:0:
199,192,104379,1,0,0:0:0:0:
28,192,104457,1,2,0:0:0:0:
142,192,104457,1,0,0:0:0:0:
483,192,104457,1,0,0:0:0:0:
85,192,104768,1,8,0:0:0:0:
369,192,104768,1,2,0:0:0:0:
426,192,104768,1,0,0:0:0:0:
256,192,104923,1,0,0:0:0:0:
312,192,105001,1,0,0:0:0:0:
28,192,105078,1,2,0:0:0:0:
369,192,105078,1,0,0:0:0:0:
483,192,105078,1,0,0:0:0:0:
142,192,105389,1,8,0:0:0:0:
256,192,105389,1,2,0:0:0:0:
426,192,105389,1,0,0:0:0:0:
199,192,105700,1,2,0:0:0:0:
369,192,105700,1,0,0:0:0:0:
483,192,105700,1,0,0:0:0:0:
85,192,105856,1,0,0:0:0:0:
256,192,105856,1,0,0:0:0:0:
28,192,106011,1,8,0:0:0:0:
199,192,106011,1,2,0:0:0:0:
369,192,106011,1,0,0:0:0:0:
85,192,106322,1,4,0:0:0:0:
369,192,106322,1,2,0:0:0:0:
483,192,106322,1,0,0:0:0:0:
199,192,106477,1,8,0:0:0:0:
312,192,106477,1,0,0:0:0:0:
426,192,106633,1,8,0:0:0:0:
199,192,106788,1,2,0:0:0:0:
369,192,106788,1,8,0:0:0:0:
256,192,106866,1,8,0:0:0:0:
85,192,106944,1,2,0:0:0:0:
312,192,106944,1,8,0:0:0:0:
483,192,106944,1,0,0:0:0:0:
28,192,107099,1,8,0:0:0:0:
199,192,107099,1,0,0:0:0:0:
312,192,107255,1,10,0:0:0:0:
256,192,107410,1,8,0:0:0:0:
426,192,107410,1,2,0:0:0:0:
312,192,107488,1,8,0:0:0:0:
28,192,107566,1,2,0:0:0:0:
142,192,107566,1,8,0:0:0:0:
369,192,107566,1,0,0:0:0:0:
199,192,107721,1,8,0:0:0:0:
312,192,107721,1,0,0:0:0:0:
426,192,107876,1,10,0:0:0:0:
256,192,108032,1,8,0:0:0:0:
312,192,108032,1,0,0:0:0:0:
369,192,108110,1,8,0:0:0:0:
142,192,108187,1,2,0:0:0:0:
426,192,108187,1,8,0:0:0:0:
483,192,108187,1,0,0:0:0:0:
85,192,108343,1,8,0:0:0:0:
256,192,108343,1,0,0:0:0:0:
28,192,108498,1,10,0:0:0:0:
199,192,108654,1,8,0:0:0:0:
369,192,108654,1,0,0:0:0:0:
426,192,108731,1,8,0:0:0:0:
85,192,108809,1,2,0:0:0:0:
256,192,108809,1,8,0:0:0:0:
483,192,108809,1,0,0:0:0:0:
199,192,108964,1,2,0:0:0:0:
426,192,108964,1,8,0:0:0:0:
28,192,109120,1,2,0:0:0:0:
142,192,109120,1,8,0:0:0:0:
312,192,109120,1,0,0:0:0:0:
256,192,109275,1,8,0:0:0:0:
483,192,109275,1,2,0:0:0:0:
85,192,109431,1,2,0:0:0:0:
199,192,109431,1,8,0:0:0:0:
426,192,109431,1,0,0:0:0:0:
369,192,109509,1,10,0:0:0:0:
142,192,109586,1,8,0:0:0:0:
312,192,109586,1,2,0:0:0:0:
85,192,109664,1,10,0:0:0:0:
28,192,109742,1,2,0:0:0:0:
199,192,109742,1,8,0:0:0:0:
483,192,109742,1,0,0:0:0:0:
426,192,109781,1,2,0:0:0:0:
369,192,109819,1,2,0:0:0:0:
312,192,109858,1,2,0:0:0:0:
256,192,109897,1,2,0:0:0:0:
199,192,109936,1,2,0:0:0:0:
142,192,109975,1,2,0:0:0:0:
85,192,110014,1,2,0:0:0:0:
28,192,110053,1,8,0:0:0:0:
312,192,110053,1,2,0:0:0:0:
483,192,110053,1,0,0:0:0:0:
85,192,110208,1,2,0:0:0:0:
199,192,110208,1,0,0:0:0:0:
369,192,110208,1,0,0:0:0:0:
142,192,110363,1,2,0:0:0:0:
312,192,110363,1,0,0:0:0:0:
426,192,110363,1,0,0:0:0:0:
256,192,110441,1,0,0:0:0:0:
28,192,110519,1,2,0:0:0:0:
199,192,110519,1,0,0:0:0:0:
483,192,110519,1,0,0:0:0:0:
85,192,110674,1,8,0:0:0:0:
312,192,110674,1,2,0:0:0:0:
426,192,110674,1,0,0:0:0:0:
142,192,110985,1,8,0:0:0:0:
256,192,110985,1,0,0:0:0:0:
369,192,110985,1,0,0:0:0:0:
28,192,111296,1,8,0:0:0:0:
199,192,111296,1,2,0:0:0:0:
312,192,111296,1,4,0:0:0:0:
483,192,111296,1,0,0:0:0:0:
