osu file format v14

[General]
AudioFilename: PxLight - Storm Buster.mp3
AudioLeadIn: 0
PreviewTime: 39172
Countdown: 0
SampleSet: Soft
StackLeniency: 0.7
Mode: 3
LetterboxInBreaks: 0
SpecialStyle: 1
WidescreenStoryboard: 0

[Editor]
Bookmarks: 20519,30467,40415,50363,60312,70260,81452
DistanceSpacing: 0.8
BeatDivisor: 4
GridSize: 32
TimelineZoom: 1.300001

[Metadata]
Title:Storm Buster
TitleUnicode:Storm Buster
Artist:P*Light
ArtistUnicode:P*Light
Creator:Takane6
Version:8K Another
Source:
Tags:
BeatmapID:882293
BeatmapSetID:404125

[Difficulty]
HPDrainRate:8.4
CircleSize:8
OverallDifficulty:8.4
ApproachRate:5
SliderMultiplier:1.4
SliderTickRate:1

[Events]
//Background and Video events
0,0,"storm.jpg",0,0
//Break Periods
//Storyboard Layer 0 (Background)
//Storyboard Layer 1 (Fail)
//Storyboard Layer 2 (Pass)
//Storyboard Layer 3 (Foreground)
//Storyboard Layer 4 (Overlay)
//Storyboard Sound Samples

[TimingPoints]
623,310.880829015544,4,2,1,30,1,0
40415,-100,4,2,1,30,0,1
60312,-100,4,2,1,30,0,0
81452,-100,4,2,1,30,0,1
101348,-100,4,2,1,30,0,0

[HitObjects]
32,192,623,5,2,0:0:0:0:
160,192,623,1,4,0:0:0:0:
480,192,623,1,8,0:0:0:0:
32,192,778,1,2,0:0:0:0:
352,192,778,1,4,0:0:0:0:
480,192,778,1,8,0:0:0:0:
224,192,933,1,8,0:0:0:0:
288,192,933,1,0,0:0:0:0:
96,192,1089,1,0,0:0:0:0:
160,192,1167,1,0,0:0:0:0:
224,192,1244,1,0,0:0:0:0:
416,192,1322,1,0,0:0:0:0:
352,192,1400,1,0,0:0:0:0:
288,192,1477,1,0,0:0:0:0:
96,192,1555,1,8,0:0:0:0:
160,192,1555,1,0,0:0:0:0:
224,192,1711,1,0,0:0:0:0:
288,192,1788,1,0,0:0:0:0:
32,192,1866,1,4,0:0:0:0:
352,192,1866,1,8,0:0:0:0:
480,192,1866,1,2,0:0:0:0:
32,192,2021,1,4,0:0:0:0:
160,192,2021,1,8,0:0:0:0:
480,192,2021,1,2,0:0:0:0:
224,192,2177,1,8,0:0:0:0:
288,192,2177,1,0,0:0:0:0:
32,192,2332,1,2,0:0:0:0:
352,192,2332,1,8,0:0:0:0:
480,192,2332,1,4,0:0:0:0:
32,192,2643,1,2,0:0:0:0:
160,192,2643,1,8,0:0:0:0:
480,192,2643,1,4,0:0:0:0:
32,192,2799,1,4,0:0:0:0:
224,192,2799,1,8,0:0:0:0:
480,192,2799,1,2,0:0:0:0:
32,192,2954,1,4,0:0:0:0:
288,192,2954,1,8,0:0:0:0:
480,192,2954,1,2,0:0:0:0:
32,192,3110,1,2,0:0:0:0:
352,192,3110,1,8,0:0:0:0:
480,192,3110,1,4,0:0:0:0:
224,192,3265,1,0,0:0:0:0:
96,192,3420,1,8,0:0:0:0:
288,192,3420,1,0,0:0:0:0:
224,192,3576,1,0,0:0:0:0:
288,192,3654,1,0,0:0:0:0:
352,192,3731,1,0,0:0:0:0:
160,192,3809,1,0,0:0:0:0:
224,192,3887,1,0,0:0:0:0:
288,192,3964,1,0,0:0:0:0:
352,192,4042,1,8,0:0:0:0:
480,192,4042,1,0,0:0:0:0:
288,192,4198,1,0,0:0:0:0:
224,192,4275,1,0,0:0:0:0:
32,192,4353,1,2,0:0:0:0:
160,192,4353,1,4,0:0:0:0:
480,192,4353,1,8,0:0:0:0:
32,192,4509,1,2,0:0:0:0:
352,192,4509,1,8,0:0:0:0:
480,192,4509,1,4,0:0:0:0:
224,192,4664,1,8,0:0:0:0:
288,192,4664,1,0,0:0:0:0:
32,192,4819,1,2,0:0:0:0:
160,192,4819,1,8,0:0:0:0:
480,192,4819,1,4,0:0:0:0:
32,192,5130,1,2,0:0:0:0:
352,192,5130,1,8,0:0:0:0:
480,192,5130,1,4,0:0:0:0:
32,192,5286,1,4,0:0:0:0:
288,192,5286,1,2,0:0:0:0:
480,192,5286,1,8,0:0:0:0:
32,192,5441,1,2,0:0:0:0:
224,192,5441,1,8,0:0:0:0:
480,192,5441,1,4,0:0:0:0:
32,192,5597,1,4,0:0:0:0:
160,192,5597,1,8,0:0:0:0:
480,192,5597,1,2,0:0:0:0:
288,192,5752,1,8,0:0:0:0:
224,192,5907,1,8,0:0:0:0:
416,192,5907,1,0,0:0:0:0:
352,192,6063,1,8,0:0:0:0:
32,192,6218,1,2,0:0:0:0:
96,192,6218,1,8,0:0:0:0:
480,192,6218,1,4,0:0:0:0:
160,192,6374,1,8,0:0:0:0:
224,192,6529,1,8,0:0:0:0:
416,192,6529,1,0,0:0:0:0:
288,192,6685,1,8,0:0:0:0:
32,192,6840,1,2,0:0:0:0:
160,192,6840,1,8,0:0:0:0:
352,192,6840,1,4,0:0:0:0:
224,192,6996,1,8,0:0:0:0:
96,192,7151,1,8,0:0:0:0:
288,192,7151,1,0,0:0:0:0:
160,192,7306,1,8,0:0:0:0:
32,192,7462,1,2,0:0:0:0:
96,192,7462,1,8,0:0:0:0:
416,192,7462,1,4,0:0:0:0:
352,192,7617,1,8,0:0:0:0:
96,192,7773,1,8,0:0:0:0:
288,192,7773,1,0,0:0:0:0:
224,192,7928,1,8,0:0:0:0:
32,192,8084,1,8,0:0:0:0:
160,192,8084,1,2,0:0:0:0:
480,192,8084,1,4,0:0:0:0:
224,192,8239,1,8,0:0:0:0:
416,192,8239,1,2,0:0:0:0:
32,192,8395,1,2,0:0:0:0:
160,192,8395,1,8,0:0:0:0:
352,192,8395,1,4,0:0:0:0:
224,192,8550,1,8,0:0:0:0:
416,192,8550,1,2,0:0:0:0:
32,192,8705,1,4,0:0:0:0:
288,192,8705,1,8,0:0:0:0:
480,192,8705,1,2,0:0:0:0:
224,192,8783,1,8,0:0:0:0:
160,192,8861,1,8,0:0:0:0:
352,192,8861,1,0,0:0:0:0:
288,192,8939,1,8,0:0:0:0:
32,192,9016,1,2,0:0:0:0:
224,192,9016,1,4,0:0:0:0:
480,192,9016,1,0,0:0:0:0:
416,192,9094,1,2,0:0:0:0:
160,192,9172,1,2,0:0:0:0:
352,192,9172,1,0,0:0:0:0:
224,192,9249,1,2,0:0:0:0:
288,192,9327,1,2,0:0:0:0:
480,192,9327,1,0,0:0:0:0:
96,192,9638,1,2,0:0:0:0:
416,192,9638,1,0,0:0:0:0:
96,192,9949,1,2,0:0:0:0:
416,192,9949,1,0,0:0:0:0:
96,192,10260,1,2,0:0:0:0:
288,192,10260,1,8,0:0:0:0:
480,192,10260,1,0,0:0:0:0:
32,192,10571,1,4,0:0:0:0:
224,192,10571,1,2,0:0:0:0:
416,192,10571,1,8,0:0:0:0:
352,192,10726,1,0,0:0:0:0:
96,192,10882,1,2,0:0:0:0:
288,192,10882,1,0,0:0:0:0:
160,192,11037,1,0,0:0:0:0:
224,192,11192,1,2,0:0:0:0:
352,192,11192,1,0,0:0:0:0:
416,192,11348,1,0,0:0:0:0:
288,192,11426,1,0,0:0:0:0:
160,192,11503,1,2,0:0:0:0:
480,192,11503,1,0,0:0:0:0:
352,192,11581,1,0,0:0:0:0:
224,192,11659,1,0,0:0:0:0:
96,192,11736,1,0,0:0:0:0:
288,192,11814,1,2,0:0:0:0:
480,192,11814,1,0,0:0:0:0:
224,192,11970,1,0,0:0:0:0:
96,192,12125,1,2,0:0:0:0:
352,192,12125,1,0,0:0:0:0:
288,192,12281,1,0,0:0:0:0:
160,192,12436,1,2,0:0:0:0:
416,192,12436,1,0,0:0:0:0:
352,192,12591,1,0,0:0:0:0:
480,192,12669,1,0,0:0:0:0:
224,192,12747,1,2,0:0:0:0:
288,192,12747,1,0,0:0:0:0:
416,192,12825,1,0,0:0:0:0:
160,192,12902,1,2,0:0:0:0:
224,192,12902,1,0,0:0:0:0:
352,192,12980,1,0,0:0:0:0:
96,192,13058,1,2,0:0:0:0:
160,192,13058,1,0,0:0:0:0:
288,192,13213,1,0,0:0:0:0:
160,192,13369,1,2,0:0:0:0:
224,192,13369,1,0,0:0:0:0:
352,192,13524,1,0,0:0:0:0:
96,192,13679,1,2,0:0:0:0:
480,192,13679,1,0,0:0:0:0:
160,192,13835,1,0,0:0:0:0:
288,192,13913,1,0,0:0:0:0:
96,192,13990,1,2,0:0:0:0:
416,192,13990,1,0,0:0:0:0:
224,192,14068,1,0,0:0:0:0:
352,192,14146,1,0,0:0:0:0:
480,192,14224,1,0,0:0:0:0:
96,192,14301,1,2,0:0:0:0:
288,192,14301,1,8,0:0:0:0:
160,192,14379,1,0,0:0:0:0:
224,192,14457,1,0,0:0:0:0:
160,192,14534,1,0,0:0:0:0:
96,192,14612,1,8,0:0:0:0:
416,192,14612,1,2,0:0:0:0:
352,192,14690,1,0,0:0:0:0:
288,192,14768,1,0,0:0:0:0:
352,192,14845,1,0,0:0:0:0:
160,192,14923,1,2,0:0:0:0:
416,192,14923,1,8,0:0:0:0:
224,192,15001,1,0,0:0:0:0:
288,192,15078,1,0,0:0:0:0:
224,192,15156,1,0,0:0:0:0:
160,192,15234,1,2,0:0:0:0:
480,192,15234,1,8,0:0:0:0:
416,192,15312,1,0,0:0:0:0:
352,192,15389,1,0,0:0:0:0:
416,192,15467,1,0,0:0:0:0:
32,192,15545,1,2,0:0:0:0:
96,192,15545,1,8,0:0:0:0:
480,192,15545,1,4,0:0:0:0:
160,192,15700,1,0,0:0:0:0:
224,192,15856,1,2,0:0:0:0:
416,192,15856,1,0,0:0:0:0:
96,192,16011,1,0,0:0:0:0:
160,192,16167,1,2,0:0:0:0:
416,192,16167,1,0,0:0:0:0:
224,192,16322,1,0,0:0:0:0:
352,192,16400,1,0,0:0:0:0:
160,192,16477,1,2,0:0:0:0:
480,192,16477,1,0,0:0:0:0:
288,192,16555,1,0,0:0:0:0:
96,192,16633,1,0,0:0:0:0:
224,192,16711,1,0,0:0:0:0:
352,192,16788,1,2,0:0:0:0:
480,192,16788,1,0,0:0:0:0:
288,192,16944,1,0,0:0:0:0:
224,192,17099,1,2,0:0:0:0:
416,192,17099,1,0,0:0:0:0:
160,192,17255,1,0,0:0:0:0:
96,192,17410,1,2,0:0:0:0:
352,192,17410,1,0,0:0:0:0:
224,192,17566,1,0,0:0:0:0:
96,192,17643,1,0,0:0:0:0:
288,192,17721,1,2,0:0:0:0:
352,192,17721,1,0,0:0:0:0:
160,192,17799,1,0,0:0:0:0:
352,192,17876,1,2,0:0:0:0:
416,192,17876,1,0,0:0:0:0:
224,192,17954,1,0,0:0:0:0:
416,192,18032,1,2,0:0:0:0:
480,192,18032,1,0,0:0:0:0:
288,192,18187,1,0,0:0:0:0:
352,192,18343,1,2,0:0:0:0:
416,192,18343,1,0,0:0:0:0:
224,192,18498,1,0,0:0:0:0:
160,192,18654,1,2,0:0:0:0:
480,192,18654,1,0,0:0:0:0:
352,192,18809,1,0,0:0:0:0:
224,192,18887,1,0,0:0:0:0:
96,192,18964,1,2,0:0:0:0:
416,192,18964,1,0,0:0:0:0:
288,192,19042,1,0,0:0:0:0:
480,192,19120,1,0,0:0:0:0:
352,192,19198,1,0,0:0:0:0:
96,192,19275,1,2,0:0:0:0:
224,192,19275,1,0,0:0:0:0:
96,192,19431,1,0,0:0:0:0:
288,192,19431,1,0,0:0:0:0:
96,192,19586,1,2,0:0:0:0:
352,192,19586,1,0,0:0:0:0:
416,192,19742,1,0,0:0:0:0:
96,192,19897,1,8,0:0:0:0:
480,192,19897,1,0,0:0:0:0:
160,192,19975,1,0,0:0:0:0:
224,192,20053,1,8,0:0:0:0:
416,192,20053,1,0,0:0:0:0:
288,192,20130,1,0,0:0:0:0:
96,192,20208,1,2,0:0:0:0:
224,192,20208,1,8,0:0:0:0:
480,192,20208,1,0,0:0:0:0:
288,192,20286,1,0,0:0:0:0:
352,192,20363,1,0,0:0:0:0:
416,192,20441,1,0,0:0:0:0:
32,192,20519,1,4,0:0:0:0:
96,192,20519,1,8,0:0:0:0:
288,192,20519,1,2,0:0:0:0:
224,192,20597,1,0,0:0:0:0:
160,192,20674,1,0,0:0:0:0:
96,192,20830,1,2,0:0:0:0:
288,192,20830,1,8,0:0:0:0:
480,192,20830,1,0,0:0:0:0:
352,192,20907,1,0,0:0:0:0:
416,192,20985,1,0,0:0:0:0:
96,192,21141,1,2,0:0:0:0:
224,192,21141,1,0,0:0:0:0:
352,192,21296,1,0,0:0:0:0:
224,192,21374,1,0,0:0:0:0:
96,192,21452,1,2,0:0:0:0:
416,192,21452,1,8,0:0:0:0:
480,192,21452,1,0,0:0:0:0:
288,192,21529,1,0,0:0:0:0:
160,192,21607,1,0,0:0:0:0:
352,192,21685,1,0,0:0:0:0:
224,192,21762,1,2,0:0:0:0:
480,192,21762,1,0,0:0:0:0:
416,192,21840,1,0,0:0:0:0:
352,192,21918,1,0,0:0:0:0:
96,192,22073,1,2,0:0:0:0:
160,192,22073,1,8,0:0:0:0:
480,192,22073,1,0,0:0:0:0:
224,192,22151,1,0,0:0:0:0:
288,192,22229,1,0,0:0:0:0:
96,192,22384,1,2,0:0:0:0:
352,192,22384,1,0,0:0:0:0:
224,192,22540,1,0,0:0:0:0:
352,192,22617,1,0,0:0:0:0:
96,192,22695,1,2,0:0:0:0:
160,192,22695,1,8,0:0:0:0:
480,192,22695,1,0,0:0:0:0:
288,192,22773,1,0,0:0:0:0:
96,192,22850,1,2,0:0:0:0:
416,192,22850,1,0,0:0:0:0:
224,192,22928,1,0,0:0:0:0:
96,192,23006,1,2,0:0:0:0:
352,192,23006,1,0,0:0:0:0:
288,192,23084,1,0,0:0:0:0:
224,192,23161,1,0,0:0:0:0:
96,192,23317,1,8,0:0:0:0:
352,192,23317,1,2,0:0:0:0:
480,192,23317,1,0,0:0:0:0:
160,192,23395,1,0,0:0:0:0:
224,192,23472,1,0,0:0:0:0:
160,192,23628,1,2,0:0:0:0:
416,192,23628,1,0,0:0:0:0:
224,192,23783,1,0,0:0:0:0:
352,192,23861,1,0,0:0:0:0:
96,192,23939,1,2,0:0:0:0:
160,192,23939,1,8,0:0:0:0:
480,192,23939,1,0,0:0:0:0:
288,192,24016,1,0,0:0:0:0:
416,192,24094,1,0,0:0:0:0:
224,192,24172,1,0,0:0:0:0:
96,192,24249,1,2,0:0:0:0:
352,192,24249,1,8,0:0:0:0:
288,192,24327,1,0,0:0:0:0:
224,192,24405,1,0,0:0:0:0:
160,192,24483,1,0,0:0:0:0:
96,192,24560,1,8,0:0:0:0:
352,192,24560,1,2,0:0:0:0:
288,192,24638,1,0,0:0:0:0:
224,192,24716,1,0,0:0:0:0:
160,192,24793,1,0,0:0:0:0:
96,192,24871,1,8,0:0:0:0:
416,192,24871,1,2,0:0:0:0:
352,192,24949,1,0,0:0:0:0:
288,192,25027,1,0,0:0:0:0:
224,192,25104,1,0,0:0:0:0:
160,192,25182,1,2,0:0:0:0:
416,192,25182,1,8,0:0:0:0:
352,192,25260,1,0,0:0:0:0:
288,192,25338,1,0,0:0:0:0:
224,192,25415,1,0,0:0:0:0:
32,192,25493,1,4,0:0:0:0:
160,192,25493,1,8,0:0:0:0:
480,192,25493,1,2,0:0:0:0:
416,192,25571,1,0,0:0:0:0:
352,192,25648,1,0,0:0:0:0:
96,192,25804,1,2,0:0:0:0:
224,192,25804,1,8,0:0:0:0:
288,192,25882,1,0,0:0:0:0:
352,192,25959,1,0,0:0:0:0:
32,192,26115,1,4,0:0:0:0:
96,192,26115,1,2,0:0:0:0:
416,192,26115,1,0,0:0:0:0:
160,192,26270,1,2,0:0:0:0:
352,192,26270,1,4,0:0:0:0:
224,192,26348,1,0,0:0:0:0:
288,192,26426,1,10,0:0:0:0:
480,192,26426,1,4,0:0:0:0:
416,192,26503,1,0,0:0:0:0:
96,192,26581,1,2,0:0:0:0:
352,192,26581,1,0,0:0:0:0:
160,192,26659,1,0,0:0:0:0:
32,192,26736,1,2,0:0:0:0:
224,192,26736,1,8,0:0:0:0:
480,192,26736,1,4,0:0:0:0:
160,192,26814,1,0,0:0:0:0:
96,192,26892,1,0,0:0:0:0:
224,192,27047,1,8,0:0:0:0:
416,192,27047,1,2,0:0:0:0:
288,192,27125,1,0,0:0:0:0:
352,192,27203,1,0,0:0:0:0:
32,192,27358,1,2,0:0:0:0:
96,192,27358,1,4,0:0:0:0:
480,192,27358,1,0,0:0:0:0:
160,192,27514,1,2,0:0:0:0:
352,192,27514,1,4,0:0:0:0:
288,192,27591,1,0,0:0:0:0:
224,192,27669,1,2,0:0:0:0:
416,192,27669,1,8,0:0:0:0:
352,192,27747,1,0,0:0:0:0:
288,192,27825,1,2,0:0:0:0:
480,192,27825,1,0,0:0:0:0:
416,192,27902,1,0,0:0:0:0:
32,192,27980,1,2,0:0:0:0:
160,192,27980,1,8,0:0:0:0:
352,192,27980,1,4,0:0:0:0:
288,192,28058,1,0,0:0:0:0:
224,192,28135,1,2,0:0:0:0:
160,192,28213,1,0,0:0:0:0:
32,192,28291,1,4,0:0:0:0:
96,192,28291,1,8,0:0:0:0:
416,192,28291,1,2,0:0:0:0:
352,192,28369,1,0,0:0:0:0:
288,192,28446,1,2,0:0:0:0:
224,192,28524,1,0,0:0:0:0:
32,192,28602,1,2,0:0:0:0:
160,192,28602,1,8,0:0:0:0:
416,192,28602,1,4,0:0:0:0:
352,192,28679,1,2,0:0:0:0:
288,192,28757,1,2,0:0:0:0:
480,192,28757,1,0,0:0:0:0:
416,192,28835,1,2,0:0:0:0:
32,192,28913,1,2,0:0:0:0:
160,192,28913,1,4,0:0:0:0:
352,192,28913,1,8,0:0:0:0:
224,192,28990,1,2,0:0:0:0:
96,192,29068,1,2,0:0:0:0:
288,192,29068,1,0,0:0:0:0:
160,192,29146,1,2,0:0:0:0:
224,192,29224,1,2,0:0:0:0:
416,192,29224,1,0,0:0:0:0:
96,192,30156,1,8,0:0:0:0:
416,192,30156,1,0,0:0:0:0:
480,192,30156,1,0,0:0:0:0:
96,192,30467,1,2,0:0:0:0:
288,192,30467,1,0,0:0:0:0:
416,192,30467,1,0,0:0:0:0:
96,192,31089,1,8,0:0:0:0:
480,192,31089,1,0,0:0:0:0:
96,192,31244,1,0,0:0:0:0:
352,192,31400,1,0,0:0:0:0:
352,192,31555,1,0,0:0:0:0:
96,192,31711,1,2,0:0:0:0:
160,192,31711,1,0,0:0:0:0:
288,192,32021,1,0,0:0:0:0:
160,192,32177,1,2,0:0:0:0:
352,192,32177,1,0,0:0:0:0:
96,192,32332,1,8,0:0:0:0:
416,192,32332,1,0,0:0:0:0:
480,192,32332,1,0,0:0:0:0:
160,192,32488,1,2,0:0:0:0:
352,192,32488,1,0,0:0:0:0:
224,192,32643,1,0,0:0:0:0:
160,192,32799,1,2,0:0:0:0:
352,192,32799,1,0,0:0:0:0:
96,192,32954,1,2,0:0:0:0:
416,192,32954,1,8,0:0:0:0:
160,192,33265,1,2,0:0:0:0:
352,192,33265,1,0,0:0:0:0:
96,192,33576,1,8,0:0:0:0:
288,192,33576,1,0,0:0:0:0:
480,192,33576,1,0,0:0:0:0:
160,192,33887,1,2,0:0:0:0:
352,192,33887,1,0,0:0:0:0:
224,192,34198,1,2,0:0:0:0:
416,192,34198,1,0,0:0:0:0:
224,192,34353,1,2,0:0:0:0:
416,192,34353,1,0,0:0:0:0:
288,192,34509,1,0,0:0:0:0:
160,192,34664,1,2,0:0:0:0:
352,192,34664,1,0,0:0:0:0:
96,192,34819,1,8,0:0:0:0:
288,192,34819,1,0,0:0:0:0:
480,192,34819,1,0,0:0:0:0:
224,192,34975,1,2,0:0:0:0:
416,192,34975,1,0,0:0:0:0:
160,192,35130,1,8,0:0:0:0:
352,192,35130,1,0,0:0:0:0:
32,192,35441,1,4,0:0:0:0:
224,192,35441,1,2,0:0:0:0:
480,192,35441,1,0,0:0:0:0:
160,192,35597,1,0,0:0:0:0:
288,192,35752,1,2,0:0:0:0:
416,192,35752,1,8,0:0:0:0:
224,192,35907,1,0,0:0:0:0:
32,192,36063,1,2,0:0:0:0:
160,192,36063,1,4,0:0:0:0:
480,192,36063,1,0,0:0:0:0:
160,192,36218,1,0,0:0:0:0:
352,192,36374,1,2,0:0:0:0:
416,192,36374,1,8,0:0:0:0:
352,192,36529,1,0,0:0:0:0:
32,192,36685,1,4,0:0:0:0:
224,192,36685,1,2,0:0:0:0:
480,192,36685,1,0,0:0:0:0:
96,192,36840,1,0,0:0:0:0:
288,192,36996,1,2,0:0:0:0:
416,192,36996,1,8,0:0:0:0:
160,192,37151,1,0,0:0:0:0:
32,192,37306,1,2,0:0:0:0:
352,192,37306,1,4,0:0:0:0:
480,192,37306,1,0,0:0:0:0:
96,192,37462,1,8,0:0:0:0:
288,192,37462,1,0,0:0:0:0:
160,192,37617,1,2,0:0:0:0:
352,192,37617,1,0,0:0:0:0:
224,192,37773,1,8,0:0:0:0:
416,192,37773,1,0,0:0:0:0:
32,192,37928,1,2,0:0:0:0:
288,192,37928,1,4,0:0:0:0:
480,192,37928,1,0,0:0:0:0:
352,192,38084,1,2,0:0:0:0:
32,192,38239,1,2,0:0:0:0:
224,192,38239,1,4,0:0:0:0:
416,192,38239,1,0,0:0:0:0:
160,192,38395,1,2,0:0:0:0:
32,192,38550,1,2,0:0:0:0:
352,192,38550,1,4,0:0:0:0:
480,192,38550,1,0,0:0:0:0:
288,192,38628,1,0,0:0:0:0:
224,192,38705,1,2,0:0:0:0:
160,192,38783,1,0,0:0:0:0:
32,192,38861,1,2,0:0:0:0:
96,192,38861,1,4,0:0:0:0:
352,192,38861,1,0,0:0:0:0:
288,192,38939,1,8,0:0:0:0:
224,192,39016,1,2,0:0:0:0:
480,192,39016,1,0,0:0:0:0:
416,192,39094,1,8,0:0:0:0:
32,192,39172,1,2,0:0:0:0:
160,192,39172,1,4,0:0:0:0:
352,192,39172,1,0,0:0:0:0:
96,192,40104,1,8,0:0:0:0:
224,192,40104,1,0,0:0:0:0:
416,192,40104,1,0,0:0:0:0:
32,192,40415,1,2,0:0:0:0:
288,192,40415,1,4,0:0:0:0:
480,192,40415,1,0,0:0:0:0:
352,192,40571,1,0,0:0:0:0:
96,192,40726,1,2,0:0:0:0:
288,192,40726,1,8,0:0:0:0:
160,192,40882,1,0,0:0:0:0:
224,192,41037,1,2,0:0:0:0:
352,192,41037,1,0,0:0:0:0:
416,192,41192,1,0,0:0:0:0:
288,192,41270,1,0,0:0:0:0:
160,192,41348,1,2,0:0:0:0:
480,192,41348,1,8,0:0:0:0:
352,192,41426,1,0,0:0:0:0:
224,192,41503,1,0,0:0:0:0:
96,192,41581,1,0,0:0:0:0:
288,192,41659,1,2,0:0:0:0:
480,192,41659,1,0,0:0:0:0:
224,192,41970,1,2,0:0:0:0:
480,192,41970,1,8,0:0:0:0:
160,192,42125,1,0,0:0:0:0:
96,192,42281,1,2,0:0:0:0:
352,192,42281,1,0,0:0:0:0:
288,192,42591,1,2,0:0:0:0:
480,192,42591,1,8,0:0:0:0:
224,192,42747,1,2,0:0:0:0:
160,192,42902,1,2,0:0:0:0:
416,192,42902,1,0,0:0:0:0:
288,192,43058,1,0,0:0:0:0:
160,192,43213,1,2,0:0:0:0:
224,192,43213,1,8,0:0:0:0:
352,192,43369,1,0,0:0:0:0:
96,192,43524,1,2,0:0:0:0:
480,192,43524,1,0,0:0:0:0:
160,192,43679,1,0,0:0:0:0:
288,192,43757,1,0,0:0:0:0:
96,192,43835,1,2,0:0:0:0:
416,192,43835,1,8,0:0:0:0:
224,192,43913,1,0,0:0:0:0:
352,192,43990,1,0,0:0:0:0:
480,192,44068,1,0,0:0:0:0:
96,192,44146,1,2,0:0:0:0:
288,192,44146,1,0,0:0:0:0:
352,192,44301,1,0,0:0:0:0:
160,192,44457,1,2,0:0:0:0:
416,192,44457,1,8,0:0:0:0:
224,192,44612,1,0,0:0:0:0:
288,192,44768,1,2,0:0:0:0:
480,192,44768,1,0,0:0:0:0:
160,192,44923,1,2,0:0:0:0:
352,192,44923,1,0,0:0:0:0:
224,192,45078,1,2,0:0:0:0:
416,192,45078,1,8,0:0:0:0:
32,192,45389,1,2,0:0:0:0:
96,192,45389,1,4,0:0:0:0:
352,192,45389,1,0,0:0:0:0:
160,192,45545,1,0,0:0:0:0:
224,192,45700,1,2,0:0:0:0:
416,192,45700,1,8,0:0:0:0:
96,192,45856,1,0,0:0:0:0:
160,192,46011,1,2,0:0:0:0:
352,192,46011,1,0,0:0:0:0:
224,192,46167,1,0,0:0:0:0:
352,192,46244,1,0,0:0:0:0:
160,192,46322,1,2,0:0:0:0:
480,192,46322,1,8,0:0:0:0:
288,192,46400,1,0,0:0:0:0:
96,192,46477,1,0,0:0:0:0:
224,192,46555,1,0,0:0:0:0:
352,192,46633,1,2,0:0:0:0:
480,192,46633,1,0,0:0:0:0:
96,192,46944,1,2,0:0:0:0:
288,192,46944,1,8,0:0:0:0:
352,192,47099,1,0,0:0:0:0:
96,192,47255,1,2,0:0:0:0:
480,192,47255,1,0,0:0:0:0:
96,192,47410,1,2,0:0:0:0:
352,192,47410,1,0,0:0:0:0:
96,192,47566,1,2,0:0:0:0:
480,192,47566,1,8,0:0:0:0:
96,192,47721,1,2,0:0:0:0:
352,192,47721,1,0,0:0:0:0:
96,192,47876,1,2,0:0:0:0:
480,192,47876,1,0,0:0:0:0:
288,192,48032,1,0,0:0:0:0:
352,192,48187,1,8,0:0:0:0:
416,192,48187,1,2,0:0:0:0:
224,192,48343,1,0,0:0:0:0:
160,192,48498,1,2,0:0:0:0:
480,192,48498,1,0,0:0:0:0:
352,192,48654,1,0,0:0:0:0:
224,192,48731,1,0,0:0:0:0:
96,192,48809,1,8,0:0:0:0:
416,192,48809,1,2,0:0:0:0:
288,192,48887,1,0,0:0:0:0:
480,192,48964,1,0,0:0:0:0:
352,192,49042,1,0,0:0:0:0:
96,192,49120,1,2,0:0:0:0:
224,192,49120,1,8,0:0:0:0:
160,192,49327,1,0,0:0:0:0:
160,192,49431,1,0,0:0:0:0:
416,192,49638,1,0,0:0:0:0:
224,192,49742,1,2,0:0:0:0:
416,192,49742,1,8,0:0:0:0:
96,192,49949,1,2,0:0:0:0:
480,192,49949,1,8,0:0:0:0:
160,192,50053,1,8,0:0:0:0:
416,192,50053,1,2,0:0:0:0:
32,192,50363,1,2,0:0:0:0:
96,192,50363,1,8,0:0:0:0:
288,192,50363,1,0,0:0:0:0:
224,192,50571,1,0,0:0:0:0:
160,192,50674,1,8,0:0:0:0:
352,192,50674,1,2,0:0:0:0:
288,192,50882,1,0,0:0:0:0:
224,192,50985,1,2,0:0:0:0:
416,192,50985,1,8,0:0:0:0:
288,192,51192,1,8,0:0:0:0:
480,192,51192,1,2,0:0:0:0:
288,192,51296,1,2,0:0:0:0:
480,192,51296,1,8,0:0:0:0:
224,192,51400,1,0,0:0:0:0:
160,192,51503,1,0,0:0:0:0:
96,192,51607,1,2,0:0:0:0:
288,192,51607,1,8,0:0:0:0:
224,192,51711,1,2,0:0:0:0:
416,192,51711,1,8,0:0:0:0:
160,192,51814,1,8,0:0:0:0:
352,192,51814,1,2,0:0:0:0:
288,192,51918,1,2,0:0:0:0:
480,192,51918,1,8,0:0:0:0:
96,192,52125,1,8,0:0:0:0:
288,192,52125,1,2,0:0:0:0:
224,192,52229,1,2,0:0:0:0:
416,192,52229,1,8,0:0:0:0:
352,192,52436,1,2,0:0:0:0:
480,192,52436,1,8,0:0:0:0:
288,192,52540,1,8,0:0:0:0:
224,192,52643,1,0,0:0:0:0:
160,192,52747,1,0,0:0:0:0:
96,192,52850,1,8,0:0:0:0:
288,192,52850,1,2,0:0:0:0:
224,192,53058,1,0,0:0:0:0:
160,192,53161,1,8,0:0:0:0:
352,192,53161,1,2,0:0:0:0:
288,192,53369,1,0,0:0:0:0:
224,192,53472,1,2,0:0:0:0:
416,192,53472,1,8,0:0:0:0:
288,192,53679,1,8,0:0:0:0:
480,192,53679,1,2,0:0:0:0:
288,192,53783,1,2,0:0:0:0:
480,192,53783,1,8,0:0:0:0:
224,192,53887,1,0,0:0:0:0:
160,192,53990,1,0,0:0:0:0:
96,192,54094,1,2,0:0:0:0:
288,192,54094,1,8,0:0:0:0:
160,192,54198,1,2,0:0:0:0:
352,192,54198,1,8,0:0:0:0:
224,192,54301,1,8,0:0:0:0:
416,192,54301,1,2,0:0:0:0:
288,192,54405,1,2,0:0:0:0:
480,192,54405,1,8,0:0:0:0:
96,192,54716,1,2,0:0:0:0:
352,192,54716,1,8,0:0:0:0:
160,192,54923,1,2,0:0:0:0:
416,192,54923,1,8,0:0:0:0:
288,192,55027,1,8,0:0:0:0:
480,192,55027,1,0,0:0:0:0:
32,192,55338,1,4,0:0:0:0:
160,192,55338,1,8,0:0:0:0:
416,192,55338,1,2,0:0:0:0:
224,192,55493,1,0,0:0:0:0:
96,192,55648,1,2,0:0:0:0:
288,192,55648,1,8,0:0:0:0:
416,192,55804,1,0,0:0:0:0:
160,192,55959,1,4,0:0:0:0:
288,192,55959,1,2,0:0:0:0:
352,192,56115,1,2,0:0:0:0:
480,192,56115,1,4,0:0:0:0:
224,192,56192,1,0,0:0:0:0:
96,192,56270,1,10,0:0:0:0:
416,192,56270,1,4,0:0:0:0:
288,192,56348,1,0,0:0:0:0:
160,192,56426,1,2,0:0:0:0:
480,192,56426,1,0,0:0:0:0:
352,192,56503,1,0,0:0:0:0:
32,192,56581,1,2,0:0:0:0:
96,192,56581,1,8,0:0:0:0:
224,192,56581,1,4,0:0:0:0:
288,192,56736,1,0,0:0:0:0:
96,192,56892,1,8,0:0:0:0:
352,192,56892,1,2,0:0:0:0:
224,192,57047,1,0,0:0:0:0:
160,192,57203,1,2,0:0:0:0:
480,192,57203,1,4,0:0:0:0:
224,192,57358,1,2,0:0:0:0:
416,192,57358,1,4,0:0:0:0:
160,192,57436,1,0,0:0:0:0:
96,192,57514,1,2,0:0:0:0:
288,192,57514,1,8,0:0:0:0:
224,192,57591,1,0,0:0:0:0:
160,192,57669,1,2,0:0:0:0:
352,192,57669,1,0,0:0:0:0:
288,192,57747,1,0,0:0:0:0:
32,192,57825,1,2,0:0:0:0:
224,192,57825,1,8,0:0:0:0:
480,192,57825,1,4,0:0:0:0:
416,192,57902,1,2,0:0:0:0:
96,192,57980,1,2,0:0:0:0:
352,192,57980,1,0,0:0:0:0:
160,192,58058,1,2,0:0:0:0:
32,192,58135,1,4,0:0:0:0:
224,192,58135,1,8,0:0:0:0:
480,192,58135,1,2,0:0:0:0:
416,192,58213,1,2,0:0:0:0:
160,192,58291,1,2,0:0:0:0:
352,192,58291,1,0,0:0:0:0:
224,192,58369,1,2,0:0:0:0:
32,192,58446,1,2,0:0:0:0:
288,192,58446,1,8,0:0:0:0:
480,192,58446,1,4,0:0:0:0:
416,192,58524,1,2,0:0:0:0:
160,192,58602,1,2,0:0:0:0:
352,192,58602,1,0,0:0:0:0:
224,192,58679,1,2,0:0:0:0:
32,192,58757,1,2,0:0:0:0:
288,192,58757,1,4,0:0:0:0:
480,192,58757,1,8,0:0:0:0:
416,192,58835,1,2,0:0:0:0:
96,192,58913,1,2,0:0:0:0:
352,192,58913,1,0,0:0:0:0:
160,192,58990,1,2,0:0:0:0:
32,192,59068,1,2,0:0:0:0:
224,192,59068,1,0,0:0:0:0:
480,192,59068,1,0,0:0:0:0:
416,192,59146,1,2,0:0:0:0:
160,192,59224,1,2,0:0:0:0:
224,192,59262,1,2,0:0:0:0:
288,192,59301,1,2,0:0:0:0:
352,192,59340,1,2,0:0:0:0:
32,192,59379,1,2,0:0:0:0:
416,192,59379,1,0,0:0:0:0:
480,192,59379,1,0,0:0:0:0:
96,192,59457,1,2,0:0:0:0:
352,192,59534,1,2,0:0:0:0:
288,192,59573,1,2,0:0:0:0:
224,192,59612,1,2,0:0:0:0:
160,192,59651,1,2,0:0:0:0:
32,192,59690,1,2,0:0:0:0:
96,192,59690,1,0,0:0:0:0:
480,192,59690,1,0,0:0:0:0:
416,192,59768,1,2,0:0:0:0:
160,192,59845,1,2,0:0:0:0:
224,192,59884,1,2,0:0:0:0:
288,192,59923,1,2,0:0:0:0:
352,192,59962,1,2,0:0:0:0:
32,192,60001,1,2,0:0:0:0:
416,192,60001,1,0,0:0:0:0:
480,192,60001,1,0,0:0:0:0:
96,192,60078,1,2,0:0:0:0:
352,192,60156,1,2,0:0:0:0:
288,192,60195,1,2,0:0:0:0:
224,192,60234,1,2,0:0:0:0:
160,192,60273,1,2,0:0:0:0:
32,192,60312,1,2,0:0:0:0:
96,192,60312,1,4,0:0:0:0:
480,192,60312,1,0,0:0:0:0:
96,192,61555,1,0,0:0:0:0:
416,192,61555,1,0,0:0:0:0:
160,192,62799,1,0,0:0:0:0:
352,192,62799,1,0,0:0:0:0:
224,192,64042,1,0,0:0:0:0:
288,192,64042,1,0,0:0:0:0:
160,192,65286,1,0,0:0:0:0:
352,192,65286,1,0,0:0:0:0:
224,192,66529,1,0,0:0:0:0:
288,192,66529,1,0,0:0:0:0:
96,192,67773,1,0,0:0:0:0:
224,192,67773,1,0,0:0:0:0:
288,192,69016,1,0,0:0:0:0:
416,192,69016,1,0,0:0:0:0:
96,192,69949,1,0,0:0:0:0:
160,192,70104,1,0,0:0:0:0:
32,192,70260,1,0,0:0:0:0:
224,192,70260,1,0,0:0:0:0:
352,192,70260,1,0,0:0:0:0:
160,192,70571,1,8,0:0:0:0:
480,192,70571,1,0,0:0:0:0:
224,192,70726,1,0,0:0:0:0:
288,192,70882,1,8,0:0:0:0:
480,192,70882,1,0,0:0:0:0:
160,192,71192,1,8,0:0:0:0:
480,192,71192,1,0,0:0:0:0:
224,192,71348,1,0,0:0:0:0:
288,192,71503,1,8,0:0:0:0:
480,192,71503,1,0,0:0:0:0:
352,192,71659,1,0,0:0:0:0:
96,192,71814,1,8,0:0:0:0:
480,192,71814,1,0,0:0:0:0:
160,192,71892,1,0,0:0:0:0:
224,192,71970,1,0,0:0:0:0:
96,192,72125,1,8,0:0:0:0:
480,192,72125,1,0,0:0:0:0:
32,192,72436,1,8,0:0:0:0:
160,192,72436,1,2,0:0:0:0:
480,192,72436,1,4,0:0:0:0:
224,192,72591,1,0,0:0:0:0:
32,192,72747,1,8,0:0:0:0:
288,192,72747,1,4,0:0:0:0:
480,192,72747,1,2,0:0:0:0:
352,192,72902,1,0,0:0:0:0:
224,192,73058,1,8,0:0:0:0:
480,192,73058,1,0,0:0:0:0:
288,192,73213,1,0,0:0:0:0:
160,192,73369,1,8,0:0:0:0:
480,192,73369,1,0,0:0:0:0:
224,192,73524,1,0,0:0:0:0:
96,192,73679,1,8,0:0:0:0:
480,192,73679,1,0,0:0:0:0:
160,192,73757,1,0,0:0:0:0:
224,192,73835,1,0,0:0:0:0:
32,192,73990,1,8,0:0:0:0:
96,192,73990,1,2,0:0:0:0:
480,192,73990,1,4,0:0:0:0:
160,192,74146,1,0,0:0:0:0:
32,192,74301,1,8,0:0:0:0:
288,192,74301,1,4,0:0:0:0:
480,192,74301,1,2,0:0:0:0:
352,192,74457,1,0,0:0:0:0:
32,192,74612,1,8,0:0:0:0:
224,192,74612,1,2,0:0:0:0:
480,192,74612,1,4,0:0:0:0:
160,192,74923,1,8,0:0:0:0:
480,192,74923,1,0,0:0:0:0:
288,192,75078,1,0,0:0:0:0:
32,192,75234,1,8,0:0:0:0:
416,192,75234,1,2,0:0:0:0:
480,192,75234,1,4,0:0:0:0:
224,192,75389,1,8,0:0:0:0:
96,192,75545,1,8,0:0:0:0:
480,192,75545,1,0,0:0:0:0:
160,192,75623,1,0,0:0:0:0:
224,192,75700,1,8,0:0:0:0:
32,192,75856,1,8,0:0:0:0:
288,192,75856,1,2,0:0:0:0:
480,192,75856,1,4,0:0:0:0:
96,192,76167,1,8,0:0:0:0:
480,192,76167,1,0,0:0:0:0:
160,192,76322,1,8,0:0:0:0:
32,192,76477,1,8,0:0:0:0:
224,192,76477,1,2,0:0:0:0:
480,192,76477,1,4,0:0:0:0:
288,192,76633,1,8,0:0:0:0:
96,192,76788,1,8,0:0:0:0:
480,192,76788,1,0,0:0:0:0:
160,192,76866,1,0,0:0:0:0:
224,192,76944,1,8,0:0:0:0:
32,192,77099,1,8,0:0:0:0:
288,192,77099,1,4,0:0:0:0:
480,192,77099,1,2,0:0:0:0:
32,192,77410,1,8,0:0:0:0:
224,192,77410,1,2,0:0:0:0:
480,192,77410,1,4,0:0:0:0:
288,192,77566,1,8,0:0:0:0:
32,192,77721,1,8,0:0:0:0:
160,192,77721,1,2,0:0:0:0:
480,192,77721,1,4,0:0:0:0:
416,192,77799,1,8,0:0:0:0:
352,192,77876,1,10,0:0:0:0:
288,192,77954,1,8,0:0:0:0:
32,192,78032,1,8,0:0:0:0:
96,192,78032,1,2,0:0:0:0:
480,192,78032,1,0,0:0:0:0:
160,192,78110,1,8,0:0:0:0:
224,192,78187,1,10,0:0:0:0:
288,192,78265,1,8,0:0:0:0:
32,192,78343,1,8,0:0:0:0:
96,192,78343,1,2,0:0:0:0:
480,192,78343,1,0,0:0:0:0:
416,192,78382,1,2,0:0:0:0:
352,192,78420,1,10,0:0:0:0:
288,192,78459,1,2,0:0:0:0:
224,192,78498,1,10,0:0:0:0:
416,192,78576,1,10,0:0:0:0:
32,192,78654,1,8,0:0:0:0:
288,192,78654,1,2,0:0:0:0:
480,192,78654,1,0,0:0:0:0:
224,192,78731,1,2,0:0:0:0:
96,192,78809,1,2,0:0:0:0:
160,192,78809,1,0,0:0:0:0:
224,192,78887,1,2,0:0:0:0:
32,192,78964,1,2,0:0:0:0:
416,192,78964,1,4,0:0:0:0:
480,192,78964,1,0,0:0:0:0:
288,192,79042,1,8,0:0:0:0:
32,192,79120,1,2,0:0:0:0:
160,192,79120,1,4,0:0:0:0:
352,192,79198,1,8,0:0:0:0:
32,192,79275,1,2,0:0:0:0:
224,192,79275,1,4,0:0:0:0:
416,192,79353,1,8,0:0:0:0:
32,192,79431,1,2,0:0:0:0:
288,192,79431,1,4,0:0:0:0:
480,192,79509,1,8,0:0:0:0:
32,192,79586,1,2,0:0:0:0:
352,192,79586,1,4,0:0:0:0:
160,192,79664,1,8,0:0:0:0:
224,192,79742,1,8,0:0:0:0:
288,192,79819,1,8,0:0:0:0:
96,192,79897,1,8,0:0:0:0:
416,192,79897,1,4,0:0:0:0:
160,192,80208,1,8,0:0:0:0:
352,192,80208,1,2,0:0:0:0:
160,192,80519,1,8,0:0:0:0:
352,192,80519,1,2,0:0:0:0:
160,192,80830,1,2,0:0:0:0:
352,192,80830,1,8,0:0:0:0:
224,192,80985,1,0,0:0:0:0:
96,192,81141,1,8,0:0:0:0:
288,192,81141,1,0,0:0:0:0:
480,192,81141,1,0,0:0:0:0:
160,192,81296,1,0,0:0:0:0:
352,192,81296,1,0,0:0:0:0:
32,192,81452,1,2,0:0:0:0:
224,192,81452,1,4,0:0:0:0:
416,192,81452,1,0,0:0:0:0:
96,192,81762,1,2,0:0:0:0:
160,192,81762,1,8,0:0:0:0:
352,192,81762,1,0,0:0:0:0:
224,192,81918,1,0,0:0:0:0:
416,192,81918,1,0,0:0:0:0:
96,192,82073,1,2,0:0:0:0:
288,192,82073,1,0,0:0:0:0:
480,192,82073,1,0,0:0:0:0:
96,192,82384,1,2,0:0:0:0:
160,192,82384,1,8,0:0:0:0:
288,192,82384,1,0,0:0:0:0:
224,192,82540,1,0,0:0:0:0:
352,192,82540,1,0,0:0:0:0:
288,192,82695,1,2,0:0:0:0:
416,192,82695,1,0,0:0:0:0:
480,192,82695,1,0,0:0:0:0:
96,192,82850,1,0,0:0:0:0:
224,192,82850,1,0,0:0:0:0:
160,192,83006,1,2,0:0:0:0:
416,192,83006,1,8,0:0:0:0:
480,192,83006,1,0,0:0:0:0:
352,192,83084,1,0,0:0:0:0:
96,192,83161,1,0,0:0:0:0:
288,192,83161,1,0,0:0:0:0:
224,192,83317,1,2,0:0:0:0:
416,192,83317,1,0,0:0:0:0:
480,192,83317,1,0,0:0:0:0:
96,192,83628,1,2,0:0:0:0:
160,192,83628,1,8,0:0:0:0:
288,192,83628,1,0,0:0:0:0:
224,192,83783,1,0,0:0:0:0:
352,192,83783,1,0,0:0:0:0:
288,192,83939,1,2,0:0:0:0:
416,192,83939,1,0,0:0:0:0:
480,192,83939,1,0,0:0:0:0:
224,192,84094,1,0,0:0:0:0:
352,192,84094,1,0,0:0:0:0:
96,192,84249,1,2,0:0:0:0:
288,192,84249,1,8,0:0:0:0:
416,192,84249,1,0,0:0:0:0:
224,192,84405,1,0,0:0:0:0:
352,192,84405,1,0,0:0:0:0:
288,192,84560,1,2,0:0:0:0:
416,192,84560,1,0,0:0:0:0:
480,192,84560,1,0,0:0:0:0:
224,192,84716,1,0,0:0:0:0:
352,192,84716,1,0,0:0:0:0:
96,192,84871,1,2,0:0:0:0:
160,192,84871,1,8,0:0:0:0:
288,192,84871,1,0,0:0:0:0:
352,192,84949,1,0,0:0:0:0:
224,192,85027,1,0,0:0:0:0:
416,192,85027,1,0,0:0:0:0:
96,192,85182,1,2,0:0:0:0:
288,192,85182,1,0,0:0:0:0:
480,192,85182,1,0,0:0:0:0:
224,192,85338,1,0,0:0:0:0:
352,192,85338,1,0,0:0:0:0:
160,192,85493,1,2,0:0:0:0:
288,192,85493,1,8,0:0:0:0:
480,192,85493,1,0,0:0:0:0:
224,192,85648,1,0,0:0:0:0:
352,192,85648,1,0,0:0:0:0:
96,192,85804,1,2,0:0:0:0:
160,192,85804,1,0,0:0:0:0:
288,192,85804,1,0,0:0:0:0:
96,192,86115,1,2,0:0:0:0:
288,192,86115,1,8,0:0:0:0:
480,192,86115,1,0,0:0:0:0:
160,192,86270,1,2,0:0:0:0:
352,192,86270,1,0,0:0:0:0:
32,192,86426,1,2,0:0:0:0:
224,192,86426,1,4,0:0:0:0:
416,192,86426,1,0,0:0:0:0:
96,192,86581,1,0,0:0:0:0:
288,192,86581,1,0,0:0:0:0:
224,192,86736,1,2,0:0:0:0:
416,192,86736,1,8,0:0:0:0:
480,192,86736,1,0,0:0:0:0:
288,192,86814,1,0,0:0:0:0:
160,192,86892,1,0,0:0:0:0:
352,192,86892,1,0,0:0:0:0:
96,192,87047,1,2,0:0:0:0:
288,192,87047,1,0,0:0:0:0:
480,192,87047,1,0,0:0:0:0:
96,192,87358,1,2,0:0:0:0:
224,192,87358,1,8,0:0:0:0:
480,192,87358,1,0,0:0:0:0:
160,192,87514,1,0,0:0:0:0:
288,192,87514,1,0,0:0:0:0:
224,192,87669,1,2,0:0:0:0:
352,192,87669,1,0,0:0:0:0:
480,192,87669,1,0,0:0:0:0:
288,192,87825,1,0,0:0:0:0:
416,192,87825,1,0,0:0:0:0:
96,192,87980,1,2,0:0:0:0:
224,192,87980,1,8,0:0:0:0:
480,192,87980,1,0,0:0:0:0:
288,192,88058,1,0,0:0:0:0:
160,192,88135,1,0,0:0:0:0:
352,192,88135,1,0,0:0:0:0:
96,192,88291,1,2,0:0:0:0:
224,192,88291,1,0,0:0:0:0:
480,192,88291,1,0,0:0:0:0:
96,192,88602,1,2,0:0:0:0:
160,192,88602,1,8,0:0:0:0:
416,192,88602,1,0,0:0:0:0:
224,192,88757,1,0,0:0:0:0:
352,192,88757,1,0,0:0:0:0:
160,192,88913,1,2,0:0:0:0:
416,192,88913,1,0,0:0:0:0:
480,192,88913,1,0,0:0:0:0:
96,192,89068,1,0,0:0:0:0:
352,192,89068,1,0,0:0:0:0:
160,192,89224,1,8,0:0:0:0:
288,192,89224,1,2,0:0:0:0:
480,192,89224,1,0,0:0:0:0:
96,192,89379,1,0,0:0:0:0:
352,192,89379,1,0,0:0:0:0:
224,192,89534,1,2,0:0:0:0:
416,192,89534,1,0,0:0:0:0:
480,192,89534,1,0,0:0:0:0:
160,192,89690,1,0,0:0:0:0:
352,192,89690,1,0,0:0:0:0:
224,192,89845,1,8,0:0:0:0:
416,192,89845,1,2,0:0:0:0:
480,192,89845,1,0,0:0:0:0:
160,192,90001,1,0,0:0:0:0:
288,192,90001,1,0,0:0:0:0:
96,192,90156,1,2,0:0:0:0:
352,192,90156,1,8,0:0:0:0:
480,192,90156,1,0,0:0:0:0:
96,192,90312,1,2,0:0:0:0:
352,192,90312,1,0,0:0:0:0:
160,192,90467,1,2,0:0:0:0:
288,192,90467,1,0,0:0:0:0:
416,192,90467,1,0,0:0:0:0:
224,192,90623,1,2,0:0:0:0:
480,192,90623,1,0,0:0:0:0:
96,192,90778,1,2,0:0:0:0:
224,192,90778,1,8,0:0:0:0:
480,192,90778,1,0,0:0:0:0:
96,192,91089,1,8,0:0:0:0:
288,192,91089,1,0,0:0:0:0:
416,192,91089,1,0,0:0:0:0:
160,192,91244,1,0,0:0:0:0:
352,192,91244,1,0,0:0:0:0:
32,192,91400,1,2,0:0:0:0:
224,192,91400,1,8,0:0:0:0:
416,192,91400,1,0,0:0:0:0:
224,192,91711,1,2,0:0:0:0:
416,192,91711,1,8,0:0:0:0:
480,192,91711,1,0,0:0:0:0:
160,192,91866,1,0,0:0:0:0:
352,192,91866,1,0,0:0:0:0:
96,192,92021,1,2,0:0:0:0:
288,192,92021,1,0,0:0:0:0:
480,192,92021,1,0,0:0:0:0:
288,192,92332,1,2,0:0:0:0:
416,192,92332,1,8,0:0:0:0:
480,192,92332,1,0,0:0:0:0:
224,192,92488,1,0,0:0:0:0:
352,192,92488,1,0,0:0:0:0:
96,192,92643,1,2,0:0:0:0:
160,192,92643,1,0,0:0:0:0:
288,192,92643,1,0,0:0:0:0:
352,192,92799,1,0,0:0:0:0:
480,192,92799,1,0,0:0:0:0:
96,192,92954,1,2,0:0:0:0:
160,192,92954,1,8,0:0:0:0:
416,192,92954,1,0,0:0:0:0:
224,192,93032,1,0,0:0:0:0:
288,192,93110,1,0,0:0:0:0:
480,192,93110,1,0,0:0:0:0:
96,192,93265,1,2,0:0:0:0:
160,192,93265,1,0,0:0:0:0:
352,192,93265,1,0,0:0:0:0:
288,192,93576,1,2,0:0:0:0:
416,192,93576,1,8,0:0:0:0:
480,192,93576,1,0,0:0:0:0:
224,192,93731,1,0,0:0:0:0:
352,192,93731,1,0,0:0:0:0:
96,192,93887,1,2,0:0:0:0:
160,192,93887,1,0,0:0:0:0:
288,192,93887,1,0,0:0:0:0:
224,192,94042,1,0,0:0:0:0:
352,192,94042,1,0,0:0:0:0:
160,192,94198,1,2,0:0:0:0:
288,192,94198,1,8,0:0:0:0:
480,192,94198,1,0,0:0:0:0:
224,192,94353,1,0,0:0:0:0:
352,192,94353,1,0,0:0:0:0:
96,192,94509,1,2,0:0:0:0:
160,192,94509,1,0,0:0:0:0:
288,192,94509,1,0,0:0:0:0:
224,192,94664,1,0,0:0:0:0:
352,192,94664,1,0,0:0:0:0:
288,192,94819,1,2,0:0:0:0:
416,192,94819,1,8,0:0:0:0:
480,192,94819,1,0,0:0:0:0:
224,192,94897,1,0,0:0:0:0:
160,192,94975,1,0,0:0:0:0:
352,192,94975,1,0,0:0:0:0:
96,192,95130,1,2,0:0:0:0:
288,192,95130,1,0,0:0:0:0:
480,192,95130,1,0,0:0:0:0:
224,192,95286,1,0,0:0:0:0:
352,192,95286,1,0,0:0:0:0:
96,192,95441,1,2,0:0:0:0:
288,192,95441,1,8,0:0:0:0:
416,192,95441,1,0,0:0:0:0:
224,192,95597,1,0,0:0:0:0:
352,192,95597,1,0,0:0:0:0:
288,192,95752,1,2,0:0:0:0:
416,192,95752,1,0,0:0:0:0:
480,192,95752,1,0,0:0:0:0:
96,192,96063,1,2,0:0:0:0:
288,192,96063,1,8,0:0:0:0:
480,192,96063,1,0,0:0:0:0:
224,192,96218,1,2,0:0:0:0:
416,192,96218,1,0,0:0:0:0:
32,192,96374,1,2,0:0:0:0:
160,192,96374,1,0,0:0:0:0:
352,192,96374,1,0,0:0:0:0:
288,192,96529,1,0,0:0:0:0:
480,192,96529,1,0,0:0:0:0:
96,192,96685,1,2,0:0:0:0:
160,192,96685,1,8,0:0:0:0:
352,192,96685,1,0,0:0:0:0:
288,192,96762,1,0,0:0:0:0:
224,192,96840,1,0,0:0:0:0:
416,192,96840,1,0,0:0:0:0:
288,192,96996,1,2,0:0:0:0:
352,192,96996,1,0,0:0:0:0:
480,192,96996,1,0,0:0:0:0:
96,192,97306,1,2,0:0:0:0:
352,192,97306,1,8,0:0:0:0:
480,192,97306,1,0,0:0:0:0:
288,192,97462,1,0,0:0:0:0:
416,192,97462,1,0,0:0:0:0:
96,192,97617,1,2,0:0:0:0:
224,192,97617,1,0,0:0:0:0:
352,192,97617,1,0,0:0:0:0:
160,192,97773,1,0,0:0:0:0:
288,192,97773,1,0,0:0:0:0:
96,192,97928,1,2,0:0:0:0:
352,192,97928,1,8,0:0:0:0:
480,192,97928,1,0,0:0:0:0:
160,192,98006,1,0,0:0:0:0:
224,192,98084,1,0,0:0:0:0:
416,192,98084,1,0,0:0:0:0:
96,192,98239,1,2,0:0:0:0:
352,192,98239,1,0,0:0:0:0:
480,192,98239,1,0,0:0:0:0:
160,192,98550,1,2,0:0:0:0:
416,192,98550,1,8,0:0:0:0:
480,192,98550,1,0,0:0:0:0:
224,192,98705,1,0,0:0:0:0:
352,192,98705,1,0,0:0:0:0:
96,192,98861,1,2,0:0:0:0:
160,192,98861,1,0,0:0:0:0:
416,192,98861,1,0,0:0:0:0:
224,192,99016,1,0,0:0:0:0:
480,192,99016,1,0,0:0:0:0:
96,192,99172,1,8,0:0:0:0:
288,192,99172,1,2,0:0:0:0:
416,192,99172,1,0,0:0:0:0:
224,192,99327,1,0,0:0:0:0:
480,192,99327,1,0,0:0:0:0:
96,192,99483,1,2,0:0:0:0:
160,192,99483,1,0,0:0:0:0:
352,192,99483,1,0,0:0:0:0:
224,192,99638,1,0,0:0:0:0:
416,192,99638,1,0,0:0:0:0:
96,192,99793,1,8,0:0:0:0:
160,192,99793,1,2,0:0:0:0:
352,192,99793,1,0,0:0:0:0:
288,192,99949,1,0,0:0:0:0:
416,192,99949,1,0,0:0:0:0:
96,192,100104,1,2,0:0:0:0:
224,192,100104,1,8,0:0:0:0:
480,192,100104,1,0,0:0:0:0:
224,192,100260,1,2,0:0:0:0:
480,192,100260,1,0,0:0:0:0:
160,192,100415,1,2,0:0:0:0:
288,192,100415,1,0,0:0:0:0:
416,192,100415,1,0,0:0:0:0:
96,192,100571,1,2,0:0:0:0:
352,192,100571,1,0,0:0:0:0:
96,192,100726,1,2,0:0:0:0:
352,192,100726,1,8,0:0:0:0:
480,192,100726,1,0,0:0:0:0:
160,192,101037,1,8,0:0:0:0:
288,192,101037,1,0,0:0:0:0:
416,192,101037,1,0,0:0:0:0:
224,192,101192,1,0,0:0:0:0:
352,192,101192,1,0,0:0:0:0:
32,192,101348,1,2,0:0:0:0:
96,192,101348,1,8,0:0:0:0:
480,192,101348,1,4,0:0:0:0:
96,192,101659,1,8,0:0:0:0:
224,192,101659,1,2,0:0:0:0:
416,192,101659,1,0,0:0:0:0:
160,192,101814,1,0,0:0:0:0:
288,192,101814,1,0,0:0:0:0:
224,192,101970,1,2,0:0:0:0:
352,192,101970,1,0,0:0:0:0:
480,192,101970,1,0,0:0:0:0:
96,192,102125,1,0,0:0:0:0:
288,192,102125,1,0,0:0:0:0:
160,192,102281,1,8,0:0:0:0:
352,192,102281,1,2,0:0:0:0:
480,192,102281,1,0,0:0:0:0:
224,192,102436,1,0,0:0:0:0:
416,192,102436,1,0,0:0:0:0:
96,192,102591,1,2,0:0:0:0:
288,192,102591,1,0,0:0:0:0:
480,192,102591,1,0,0:0:0:0:
224,192,102747,1,0,0:0:0:0:
416,192,102747,1,0,0:0:0:0:
96,192,102902,1,8,0:0:0:0:
288,192,102902,1,2,0:0:0:0:
480,192,102902,1,0,0:0:0:0:
224,192,103058,1,0,0:0:0:0:
416,192,103058,1,0,0:0:0:0:
96,192,103213,1,2,0:0:0:0:
288,192,103213,1,0,0:0:0:0:
480,192,103213,1,0,0:0:0:0:
224,192,103369,1,0,0:0:0:0:
416,192,103369,1,0,0:0:0:0:
96,192,103524,1,8,0:0:0:0:
160,192,103524,1,2,0:0:0:0:
352,192,103524,1,0,0:0:0:0:
224,192,103679,1,0,0:0:0:0:
416,192,103679,1,0,0:0:0:0:
96,192,103835,1,2,0:0:0:0:
288,192,103835,1,0,0:0:0:0:
480,192,103835,1,0,0:0:0:0:
96,192,104146,1,8,0:0:0:0:
288,192,104146,1,2,0:0:0:0:
480,192,104146,1,0,0:0:0:0:
416,192,104301,1,0,0:0:0:0:
352,192,104379,1,0,0:0:0:0:
96,192,104457,1,2,0:0:0:0:
288,192,104457,1,0,0:0:0:0:
480,192,104457,1,0,0:0:0:0:
96,192,104768,1,8,0:0:0:0:
288,192,104768,1,2,0:0:0:0:
480,192,104768,1,0,0:0:0:0:
224,192,104923,1,0,0:0:0:0:
160,192,105001,1,0,0:0:0:0:
96,192,105078,1,2,0:0:0:0:
288,192,105078,1,0,0:0:0:0:
480,192,105078,1,0,0:0:0:0:
96,192,105389,1,8,0:0:0:0:
288,192,105389,1,2,0:0:0:0:
480,192,105389,1,0,0:0:0:0:
96,192,105700,1,2,0:0:0:0:
288,192,105700,1,0,0:0:0:0:
480,192,105700,1,0,0:0:0:0:
160,192,105856,1,0,0:0:0:0:
416,192,105856,1,0,0:0:0:0:
224,192,106011,1,8,0:0:0:0:
352,192,106011,1,2,0:0:0:0:
96,192,106322,1,4,0:0:0:0:
288,192,106322,1,2,0:0:0:0:
480,192,106322,1,0,0:0:0:0:
224,192,106477,1,8,0:0:0:0:
416,192,106477,1,0,0:0:0:0:
160,192,106633,1,8,0:0:0:0:
224,192,106788,1,2,0:0:0:0:
416,192,106788,1,8,0:0:0:0:
352,192,106866,1,8,0:0:0:0:
96,192,106944,1,2,0:0:0:0:
288,192,106944,1,8,0:0:0:0:
480,192,106944,1,0,0:0:0:0:
160,192,107099,1,8,0:0:0:0:
416,192,107099,1,0,0:0:0:0:
224,192,107255,1,10,0:0:0:0:
288,192,107410,1,8,0:0:0:0:
480,192,107410,1,2,0:0:0:0:
224,192,107488,1,8,0:0:0:0:
96,192,107566,1,2,0:0:0:0:
160,192,107566,1,8,0:0:0:0:
416,192,107566,1,0,0:0:0:0:
224,192,107721,1,8,0:0:0:0:
352,192,107721,1,0,0:0:0:0:
288,192,107876,1,10,0:0:0:0:
96,192,108032,1,8,0:0:0:0:
352,192,108032,1,0,0:0:0:0:
160,192,108110,1,8,0:0:0:0:
224,192,108187,1,2,0:0:0:0:
416,192,108187,1,8,0:0:0:0:
480,192,108187,1,0,0:0:0:0:
96,192,108343,1,8,0:0:0:0:
288,192,108343,1,0,0:0:0:0:
224,192,108498,1,10,0:0:0:0:
160,192,108654,1,8,0:0:0:0:
416,192,108654,1,0,0:0:0:0:
352,192,108731,1,8,0:0:0:0:
32,192,108809,1,2,0:0:0:0:
96,192,108809,1,8,0:0:0:0:
288,192,108809,1,0,0:0:0:0:
160,192,108887,1,8,0:0:0:0:
224,192,108964,1,10,0:0:0:0:
288,192,109042,1,8,0:0:0:0:
32,192,109120,1,2,0:0:0:0:
160,192,109120,1,8,0:0:0:0:
352,192,109120,1,0,0:0:0:0:
224,192,109198,1,8,0:0:0:0:
288,192,109275,1,10,0:0:0:0:
352,192,109353,1,8,0:0:0:0:
32,192,109431,1,2,0:0:0:0:
224,192,109431,1,8,0:0:0:0:
416,192,109431,1,0,0:0:0:0:
288,192,109509,1,10,0:0:0:0:
160,192,109586,1,8,0:0:0:0:
352,192,109586,1,2,0:0:0:0:
416,192,109664,1,10,0:0:0:0:
32,192,109742,1,2,0:0:0:0:
288,192,109742,1,8,0:0:0:0:
480,192,109742,1,0,0:0:0:0:
96,192,109781,1,2,0:0:0:0:
160,192,109819,1,2,0:0:0:0:
224,192,109858,1,2,0:0:0:0:
288,192,109897,1,2,0:0:0:0:
352,192,109936,1,2,0:0:0:0:
416,192,109975,1,2,0:0:0:0:
480,192,110014,1,2,0:0:0:0:
32,192,110053,1,8,0:0:0:0:
96,192,110053,1,2,0:0:0:0:
224,192,110053,1,0,0:0:0:0:
32,192,110208,1,2,0:0:0:0:
160,192,110208,1,0,0:0:0:0:
288,192,110208,1,0,0:0:0:0:
32,192,110363,1,2,0:0:0:0:
224,192,110363,1,0,0:0:0:0:
352,192,110363,1,0,0:0:0:0:
160,192,110441,1,0,0:0:0:0:
32,192,110519,1,2,0:0:0:0:
288,192,110519,1,0,0:0:0:0:
416,192,110519,1,0,0:0:0:0:
32,192,110674,1,8,0:0:0:0:
352,192,110674,1,2,0:0:0:0:
480,192,110674,1,0,0:0:0:0:
224,192,110985,1,8,0:0:0:0:
416,192,110985,1,0,0:0:0:0:
32,192,111296,1,8,0:0:0:0:
160,192,111296,1,2,0:0:0:0:
480,192,111296,1,4,0:0:0:0:
