osu file format v14

[General]
AudioFilename: audio.mp3
AudioLeadIn: 0
PreviewTime: -1
Countdown: 0
SampleSet: None
StackLeniency: 0.7
Mode: 0
LetterboxInBreaks: 0
WidescreenStoryboard: 0

[Editor]
DistanceSpacing: 0.9
BeatDivisor: 4
GridSize: 32
TimelineZoom: 2.2

[Metadata]
Title:Storm Buster
TitleUnicode:Storm Buster
Artist:P*Light
ArtistUnicode:P*Light
Creator:Stereocenter
Version:Extra
Source:REFLEC BEAT VOLZZA
Tags:konami bemani
BeatmapID:1932263
BeatmapSetID:925002

[Difficulty]
HPDrainRate:8
CircleSize:4
OverallDifficulty:10
ApproachRate:10
SliderMultiplier:1.4
SliderTickRate:1

[Events]
//Background and Video events
0,0,"cropped-1920-1080-991072.jpg",0,0
//Break Periods
2,60514,69501
//Storyboard Layer 0 (Background)
//Storyboard Layer 1 (Fail)
//Storyboard Layer 2 (Pass)
//Storyboard Layer 3 (Foreground)
//Storyboard Sound Samples

[TimingPoints]
625,310.880829015544,4,1,0,100,1,0

[HitObjects]
99,54,625,5,0,0:0:0:0:
176,41,780,1,0,0:0:0:0:
80,126,935,1,0,0:0:0:0:
157,113,1090,1,0,0:0:0:0:
62,199,1246,1,0,0:0:0:0:
413,54,1869,5,0,0:0:0:0:
336,41,2024,1,0,0:0:0:0:
432,126,2334,5,0,0:0:0:0:
355,113,2489,1,0,0:0:0:0:
451,198,2645,1,0,0:0:0:0:
374,185,2800,1,0,0:0:0:0:
470,270,2956,1,0,0:0:0:0:
393,257,3111,1,0,0:0:0:0:
42,270,4355,5,0,0:0:0:0:
119,257,4510,1,0,0:0:0:0:
25,344,4821,5,0,0:0:0:0:
102,331,4976,1,0,0:0:0:0:
179,318,5132,1,0,0:0:0:0:
256,305,5288,1,0,0:0:0:0:
333,292,5444,1,0,0:0:0:0:
284,235,5599,6,0,L|289:155,1,70
207,243,5909,2,0,L|212:163,1,70
130,251,6220,2,0,L|135:171,1,70
53,259,6531,2,0,L|58:179,1,70
57,140,6842,6,0,L|53:71,1,70
134,148,7153,2,0,L|130:79,1,70
211,156,7464,2,0,L|207:87,1,70
288,164,7774,2,0,L|284:95,1,70
367,180,8086,1,0,0:0:0:0:
367,180,8397,1,0,0:0:0:0:
367,180,8707,2,0,L|367:146,3,35
434,180,9018,2,0,L|434:146,3,35
504,180,9329,1,0,0:0:0:0:
0,191,10262,5,0,0:0:0:0:
17,123,10573,6,0,P|54:139|69:182,1,70
57,241,10884,2,0,L|137:256,1,70
188,241,11194,2,0,L|188:153,1,70
143,111,11505,1,0,0:0:0:0:
143,111,11661,1,0,0:0:0:0:
99,53,11816,2,0,P|146:40|177:52,1,70
205,138,12127,2,0,L|286:115,1,70
265,45,12438,1,0,0:0:0:0:
329,109,12593,2,0,L|371:117,1,35
426,45,12827,2,0,L|421:89,2,35
426,24,13060,2,0,L|500:16,1,70
486,85,13371,2,0,P|483:124|457:142,1,70
361,132,13681,1,0,0:0:0:0:
262,104,13837,2,0,L|168:102,2,70
281,184,14303,5,0,0:0:0:0:
388,201,14459,1,0,0:0:0:0:
416,267,14614,1,0,0:0:0:0:
309,250,14770,1,0,0:0:0:0:
231,209,14925,1,0,0:0:0:0:
231,209,15236,1,0,0:0:0:0:
231,209,15547,6,0,L|228:285,1,70
160,299,15858,2,0,P|184:334|232:347,1,70
291,321,16169,2,0,P|303:281|293:248,1,70
240,191,16479,2,0,L|340:173,1,70
393,208,16790,2,0,L|386:305,1,70
347,368,17101,2,0,L|287:291,1,70
149,337,17412,2,0,L|208:260,1,70
98,241,17723,1,0,0:0:0:0:
98,241,17878,1,0,0:0:0:0:
68,175,18034,2,0,P|123:167|149:190,1,70
101,93,18345,2,0,P|54:102|29:115,1,70
2,54,18656,2,0,L|15:-21,1,70
116,77,18966,2,0,L|210:85,1,70
259,38,19277,5,0,0:0:0:0:
310,16,19433,1,0,0:0:0:0:
364,0,19588,1,0,0:0:0:0:
385,52,19744,1,0,0:0:0:0:
401,102,19899,2,0,L|388:267,1,140
247,182,20521,6,0,L|242:100,1,70
211,47,20832,2,0,P|183:26|140:66,1,70
122,104,21143,1,0,0:0:0:0:
87,109,21220,1,0,0:0:0:0:
53,115,21298,1,0,0:0:0:0:
18,121,21376,1,0,0:0:0:0:
0,127,21453,1,0,0:0:0:0:
97,179,21609,2,0,P|81:216|87:267,1,70
137,305,21920,1,0,0:0:0:0:
203,199,22075,2,0,L|290:205,1,70
352,267,22386,1,0,0:0:0:0:
335,297,22463,1,0,0:0:0:0:
336,331,22541,1,0,0:0:0:0:
355,360,22619,1,0,0:0:0:0:
386,376,22697,2,0,L|459:361,1,70
502,302,23008,2,0,P|513:264|485:246,1,70
356,252,23319,2,0,P|345:214|373:196,1,70
429,222,23630,1,0,0:0:0:0:
433,169,23707,1,0,0:0:0:0:
438,117,23785,1,0,0:0:0:0:
443,65,23863,1,0,0:0:0:0:
447,12,23940,1,0,0:0:0:0:
311,73,24096,6,0,P|345:96|377:91,1,70
234,86,24407,2,0,P|236:51|246:17,1,70
279,154,24718,1,0,0:0:0:0:
279,154,24873,2,0,L|346:190,1,70
159,175,25184,2,0,L|226:211,1,70
56,198,25495,5,0,0:0:0:0:
114,36,26117,5,0,0:0:0:0:
131,261,26738,5,0,0:0:0:0:
96,129,27049,2,0,L|36:79,1,70
220,147,27360,1,0,0:0:0:0:
37,215,27982,2,0,L|52:276,1,35
121,231,28137,2,0,L|136:292,1,35
204,274,28293,2,0,L|219:335,1,35
275,352,28448,2,0,P|279:360|290:413,1,35
301,273,28604,2,0,L|396:237,1,70
202,159,28915,2,0,L|297:132,1,70
341,153,29226,1,0,0:0:0:0:
17,0,30158,5,0,0:0:0:0:
100,58,30469,1,0,0:0:0:0:
237,46,30780,1,0,0:0:0:0:
237,46,30935,1,0,0:0:0:0:
237,46,31091,1,0,0:0:0:0:
331,107,31402,1,0,0:0:0:0:
436,92,31713,1,0,0:0:0:0:
432,115,31868,1,0,0:0:0:0:
431,134,32023,1,0,0:0:0:0:
470,209,32179,1,0,0:0:0:0:
381,300,32334,1,0,0:0:0:0:
114,244,32645,1,0,0:0:0:0:
230,199,32801,1,0,0:0:0:0:
276,317,32956,2,0,L|276:237,1,70
139,251,33267,2,0,L|119:180,1,70
47,120,33578,1,0,0:0:0:0:
257,126,33811,1,0,0:0:0:0:
49,23,34044,2,0,L|47:73,2,35
128,148,34355,1,0,0:0:0:0:
190,44,34511,1,0,0:0:0:0:
292,259,34666,1,0,0:0:0:0:
348,164,34821,1,0,0:0:0:0:
252,152,34977,1,0,0:0:0:0:
303,71,35132,1,0,0:0:0:0:
465,242,35443,5,0,0:0:0:0:
253,191,36065,1,0,0:0:0:0:
47,242,36687,1,0,0:0:0:0:
256,352,37308,1,0,0:0:0:0:
465,142,37930,1,0,0:0:0:0:
380,217,38086,1,0,0:0:0:0:
339,97,38241,1,0,0:0:0:0:
317,0,38397,1,0,0:0:0:0:
223,42,38552,1,0,0:0:0:0:
205,44,38629,1,0,0:0:0:0:
188,47,38707,1,0,0:0:0:0:
171,49,38785,1,0,0:0:0:0:
153,52,38862,1,0,0:0:0:0:
136,55,38940,1,0,0:0:0:0:
119,57,39018,1,0,0:0:0:0:
101,60,39096,1,0,0:0:0:0:
84,63,39173,1,0,0:0:0:0:
363,236,40106,5,0,0:0:0:0:
321,171,40417,6,0,P|295:198|288:239,1,70
312,298,40728,2,0,L|224:312,1,70
172,329,41039,2,0,P|171:291|189:257,1,70
227,203,41350,2,0,P|193:192|149:206,1,70
70,265,41661,2,0,L|45:111,1,140
133,40,42283,1,0,0:0:0:0:
304,111,42593,1,0,0:0:0:0:
218,75,42749,1,0,0:0:0:0:
148,123,42904,2,0,L|224:91,1,70
280,39,43215,2,0,P|343:44|374:67,1,70
397,123,43526,1,0,0:0:0:0:
491,194,43681,1,0,0:0:0:0:
341,193,43837,2,0,L|349:266,1,70
302,324,44148,2,0,P|353:340|398:326,1,70
442,274,44459,1,0,0:0:0:0:
442,274,44614,1,0,0:0:0:0:
344,212,44770,1,0,0:0:0:0:
344,212,44925,1,0,0:0:0:0:
223,226,45080,1,0,0:0:0:0:
139,313,45391,2,0,L|65:319,1,70
0,291,45702,2,0,P|25:262|54:250,1,70
127,236,46013,2,0,P|136:192|94:176,1,70
19,163,46324,2,0,L|13:74,1,70
60,31,46635,2,0,L|202:47,1,140
259,102,47101,2,0,L|311:92,2,35
379,34,47412,2,0,L|327:44,2,35
378,123,47723,1,0,0:0:0:0:
450,94,47878,2,0,P|461:128|447:165,1,70
337,196,48189,2,0,P|348:230|334:267,1,70
226,304,48500,2,0,L|176:313,1,35
109,237,48733,2,0,L|75:231,1,35
3,252,48966,2,0,P|8:198|27:174,1,70
101,107,49433,1,0,0:0:0:0:
101,107,49588,2,0,P|32:100|24:107,1,70
184,100,50055,1,0,0:0:0:0:
232,9,50365,5,0,0:0:0:0:
339,148,50599,1,0,0:0:0:0:
339,148,50676,1,0,0:0:0:0:
432,19,50832,1,0,0:0:0:0:
432,19,50909,1,0,0:0:0:0:
457,189,51065,1,0,0:0:0:0:
457,189,51142,1,0,0:0:0:0:
344,59,51298,1,0,0:0:0:0:
264,92,51376,1,0,0:0:0:0:
412,261,51531,1,0,0:0:0:0:
332,228,51609,1,0,0:0:0:0:
261,310,51764,1,0,0:0:0:0:
261,310,51842,1,0,0:0:0:0:
180,228,51998,1,0,0:0:0:0:
100,261,52076,1,0,0:0:0:0:
195,365,52231,1,0,0:0:0:0:
256,166,52386,1,0,0:0:0:0:
205,97,52542,1,0,0:0:0:0:
272,58,52619,1,0,0:0:0:0:
272,58,52775,1,0,0:0:0:0:
272,58,52852,6,0,L|362:76,1,70
416,133,53086,2,0,L|496:118,1,70
494,40,53319,1,0,0:0:0:0:
494,40,53397,1,0,0:0:0:0:
358,103,53552,1,0,0:0:0:0:
358,103,53630,1,0,0:0:0:0:
166,10,53785,1,0,0:0:0:0:
166,10,53863,1,0,0:0:0:0:
53,58,54018,1,0,0:0:0:0:
53,58,54096,1,0,0:0:0:0:
59,92,54173,1,0,0:0:0:0:
65,126,54251,1,0,0:0:0:0:
71,161,54329,1,0,0:0:0:0:
77,195,54406,1,0,0:0:0:0:
31,274,54562,1,0,0:0:0:0:
31,274,54640,1,0,0:0:0:0:
210,146,54951,1,0,0:0:0:0:
210,146,55028,1,0,0:0:0:0:
303,260,55340,6,0,L|294:339,1,70
385,298,55650,2,0,L|392:228,1,70
457,183,55961,2,0,P|419:161|389:155,1,70
325,188,56272,2,0,P|316:134|334:111,1,70
386,83,56583,2,0,P|405:56|371:46,1,70
299,105,56894,1,0,0:0:0:0:
299,105,57049,1,0,0:0:0:0:
219,49,57205,2,0,B|165:21|165:21|129:38,1,70
217,128,57516,1,0,0:0:0:0:
112,62,57671,1,0,0:0:0:0:
51,90,57827,1,0,0:0:0:0:
156,24,57982,1,0,0:0:0:0:
156,108,58137,1,0,0:0:0:0:
151,195,58293,1,0,0:0:0:0:
146,281,58448,1,0,0:0:0:0:
149,246,58525,1,0,0:0:0:0:
133,215,58603,1,0,0:0:0:0:
104,197,58681,1,0,0:0:0:0:
69,198,58758,1,0,0:0:0:0:
68,275,58915,1,0,0:0:0:0:
65,384,59070,1,0,0:0:0:0:
61,349,59147,1,0,0:0:0:0:
77,318,59225,1,0,0:0:0:0:
106,300,59303,1,0,0:0:0:0:
141,301,59380,1,0,0:0:0:0:
138,381,59536,1,0,0:0:0:0:
236,312,59692,2,0,L|240:305,15,8.75
315,364,60158,1,0,0:0:0:0:
380,298,60314,1,0,0:0:0:0:
99,54,69951,5,0,0:0:0:0:
176,41,70106,1,0,0:0:0:0:
80,126,70261,1,0,0:0:0:0:
157,113,70573,1,0,0:0:0:0:
62,199,70728,1,0,0:0:0:0:
138,185,70884,1,0,0:0:0:0:
413,54,71195,5,0,0:0:0:0:
336,41,71350,1,0,0:0:0:0:
432,126,71505,1,0,0:0:0:0:
355,113,71660,1,0,0:0:0:0:
451,198,71816,1,0,0:0:0:0:
374,185,71971,1,0,0:0:0:0:
470,270,72127,1,0,0:0:0:0:
201,52,72438,5,0,0:0:0:0:
217,139,72593,1,0,0:0:0:0:
318,110,72749,1,0,0:0:0:0:
302,197,72904,1,0,0:0:0:0:
210,233,73060,1,0,0:0:0:0:
155,144,73215,1,0,0:0:0:0:
79,195,73371,1,0,0:0:0:0:
79,195,73448,1,0,0:0:0:0:
79,195,73526,1,0,0:0:0:0:
75,306,73681,1,0,0:0:0:0:
75,306,73758,1,0,0:0:0:0:
75,306,73836,1,0,0:0:0:0:
165,349,73992,1,0,0:0:0:0:
218,262,74148,1,0,0:0:0:0:
317,277,74303,1,0,0:0:0:0:
392,358,74459,1,0,0:0:0:0:
336,335,74614,1,0,0:0:0:0:
435,142,74925,5,0,0:0:0:0:
424,218,75081,1,0,0:0:0:0:
409,297,75236,2,0,L|311:276,1,70
302,200,75547,2,0,L|204:179,1,70
152,151,75858,2,0,L|221:166,1,70
344,127,76169,1,0,0:0:0:0:
348,38,76324,1,0,0:0:0:0:
261,28,76479,2,0,L|171:10,1,70
144,89,76790,2,0,L|57:99,1,70
231,135,77101,1,0,0:0:0:0:
77,21,77412,5,0,0:0:0:0:
46,128,77568,1,0,0:0:0:0:
52,216,77723,1,0,0:0:0:0:
131,191,77878,1,0,0:0:0:0:
207,205,78034,1,0,0:0:0:0:
263,262,78189,1,0,0:0:0:0:
347,277,78345,1,0,0:0:0:0:
414,226,78500,1,0,0:0:0:0:
397,138,78656,1,0,0:0:0:0:
419,111,78733,1,0,0:0:0:0:
429,78,78811,1,0,0:0:0:0:
424,43,78889,1,0,0:0:0:0:
406,14,78966,1,0,0:0:0:0:
321,54,79122,5,0,0:0:0:0:
228,7,79277,1,0,0:0:0:0:
174,120,79433,1,0,0:0:0:0:
75,1,79588,1,0,0:0:0:0:
116,284,79899,5,0,0:0:0:0:
231,254,80210,6,0,L|237:217,1,35
288,361,80521,2,0,L|294:324,1,35
365,275,80832,2,0,L|371:238,4,35
427,349,81298,1,0,0:0:0:0:
494,290,81454,6,0,L|492:193,1,70
486,141,81764,2,0,P|453:150|424:180,1,70
512,111,82075,2,0,P|486:87|453:77,1,70
368,94,82386,1,0,0:0:0:0:
384,16,82542,2,0,P|345:19|307:40,1,70
288,130,82852,1,0,0:0:0:0:
222,39,83008,1,0,0:0:0:0:
120,41,83163,1,0,0:0:0:0:
120,41,83319,2,0,L|112:131,1,70
34,144,83630,2,0,P|70:187|103:187,1,70
190,148,83941,2,0,P|186:184|132:203,1,70
73,216,84251,2,0,P|68:275|79:306,1,70
145,341,84562,2,0,L|242:329,1,70
297,340,84873,2,0,P|277:295|259:273,1,70
389,262,85184,2,0,P|376:335|378:359,1,70
322,223,85495,2,0,P|369:187|417:193,1,70
465,238,85806,2,0,L|462:147,1,70
443,35,86117,5,0,0:0:0:0:
262,45,86272,1,0,0:0:0:0:
93,59,86428,2,0,L|79:165,1,70
11,155,86738,2,0,P|54:195|96:199,1,70
143,184,87049,2,0,P|130:245|119:262,1,70
51,275,87360,1,0,0:0:0:0:
51,275,87516,1,0,0:0:0:0:
110,331,87671,2,0,L|186:326,1,70
205,255,87982,1,0,0:0:0:0:
205,255,88138,1,0,0:0:0:0:
261,346,88293,2,0,P|341:339|384:284,1,140
363,223,88759,1,0,0:0:0:0:
363,223,88915,2,0,L|352:148,1,70
448,246,89226,2,0,L|437:171,1,70
374,84,89536,2,0,L|363:153,1,70
452,98,89847,1,0,0:0:0:0:
452,98,90003,1,0,0:0:0:0:
333,17,90158,5,0,0:0:0:0:
242,6,90314,1,0,0:0:0:0:
181,57,90469,1,0,0:0:0:0:
110,109,90625,1,0,0:0:0:0:
24,86,90780,1,0,0:0:0:0:
49,254,91091,1,0,0:0:0:0:
225,218,91402,6,0,L|216:303,1,70
142,334,91713,2,0,P|195:372|249:368,1,70
283,337,92023,2,0,P|321:284|429:267,1,140
464,315,92490,2,0,P|461:307|477:243,1,70
399,173,92801,1,0,0:0:0:0:
482,102,92956,2,0,L|479:148,2,35
417,30,93267,2,0,P|389:75|294:97,1,140
299,24,93733,2,0,P|254:45|239:68,1,70
235,137,94044,2,0,L|145:142,1,70
89,147,94355,2,0,P|95:100|137:75,1,70
184,64,94666,1,0,0:0:0:0:
105,67,94821,2,0,P|62:54|54:20,1,70
0,101,95132,2,0,L|9:194,2,70
89,183,95599,1,0,0:0:0:0:
32,244,95754,2,0,L|28:324,1,70
72,376,96065,2,0,P|102:336|103:312,1,70
104,246,96376,2,0,L|188:249,1,70
249,257,96687,2,0,P|301:277|294:306,1,70
287,364,96998,2,0,P|367:354|370:352,1,70
397,275,97308,1,0,0:0:0:0:
509,218,97464,1,0,0:0:0:0:
469,106,97619,2,0,P|453:78|453:20,1,70
392,134,97930,2,0,P|376:106|376:48,1,70
315,160,98241,2,0,P|299:132|299:74,1,70
275,12,98552,1,0,0:0:0:0:
181,24,98707,1,0,0:0:0:0:
88,38,98863,2,0,L|83:135,1,70
163,153,99174,2,0,P|150:109|116:106,1,70
64,155,99485,2,0,P|42:211|60:233,1,70
205,251,99795,2,0,P|165:234|115:244,1,70
79,304,100106,5,0,0:0:0:0:
178,354,100262,1,0,0:0:0:0:
253,375,100417,1,0,0:0:0:0:
326,351,100573,1,0,0:0:0:0:
433,304,100728,1,0,0:0:0:0:
255,191,101039,1,0,0:0:0:0:
450,115,101350,2,0,L|441:206,1,70
373,238,101661,1,0,0:0:0:0:
373,238,101816,1,0,0:0:0:0:
317,142,101972,2,0,P|287:109|247:104,1,70
172,224,102283,1,0,0:0:0:0:
172,224,102439,1,0,0:0:0:0:
238,155,102593,2,0,P|236:120|207:83,1,70
160,142,102904,2,0,L|81:152,1,70
42,212,103215,2,0,P|18:181|10:142,1,70
63,76,103526,1,0,0:0:0:0:
116,164,103681,1,0,0:0:0:0:
120,276,103837,6,0,P|159:328|246:352,1,140
320,384,104459,2,0,P|384:376|448:312,1,140
425,169,105080,2,0,L|418:247,1,70
342,135,105391,2,0,L|349:213,1,70
270,167,105702,2,0,L|176:186,1,70
116,180,106013,2,0,P|133:115|169:90,1,105
195,86,106324,5,0,0:0:0:0:
265,262,106790,2,0,L|254:304,2,35
57,36,107412,2,0,L|68:78,2,35
383,70,108034,2,0,L|342:54,2,35
65,215,108656,2,0,L|53:256,2,35
125,153,108966,5,0,0:0:0:0:
176,257,109122,1,0,0:0:0:0:
269,199,109277,1,0,0:0:0:0:
378,190,109433,1,0,0:0:0:0:
389,157,109510,1,0,0:0:0:0:
389,122,109588,1,0,0:0:0:0:
379,89,109666,1,0,0:0:0:0:
358,61,109743,1,0,0:0:0:0:
329,41,109821,1,0,0:0:0:0:
295,32,109899,1,0,0:0:0:0:
261,34,109977,1,0,0:0:0:0:
228,47,110054,5,0,0:0:0:0:
226,134,110210,1,0,0:0:0:0:
156,193,110365,1,0,0:0:0:0:
65,179,110521,1,0,0:0:0:0:
31,101,110676,1,0,0:0:0:0:
307,133,110987,1,0,0:0:0:0:
126,95,111298,1,0,0:0:0:0:
