osu file format v14

[General]
AudioFilename: PxLight - Storm Buster.mp3
AudioLeadIn: 0
PreviewTime: 39519
Countdown: 0
SampleSet: Soft
StackLeniency: 0.7
Mode: 0
LetterboxInBreaks: 1
WidescreenStoryboard: 1

[Editor]
DistanceSpacing: 0.9
BeatDivisor: 2
GridSize: 32
TimelineZoom: 1.4

[Metadata]
Title:Storm Buster
TitleUnicode:Storm Buster
Artist:P*Light
ArtistUnicode:P*Light
Creator:Asphyxia
Version:Normal
Source:REFLEC BEAT VOLZZA
Tags:BENAMI KONAMI 悠久のリフレシア electronic instrumental video game english Xilver15 Xilver lcfc lowcombofc yf_bmp Axarious 09kami z1085684963 fanzhen0019 kiryu
BeatmapID:3001221
BeatmapSetID:454843

[Difficulty]
HPDrainRate:3
CircleSize:3.5
OverallDifficulty:5
ApproachRate:6
SliderMultiplier:1.1
SliderTickRate:1

[Events]
//Background and Video events
0,0,"bg.jpg",0,0
//Break Periods
2,60859,69246
//Storyboard Layer 0 (Background)
//Storyboard Layer 1 (Fail)
//Storyboard Layer 2 (Pass)
//Storyboard Layer 3 (Foreground)
//Storyboard Layer 4 (Overlay)
//Storyboard Sound Samples

[TimingPoints]
970,310.880829015544,4,2,1,60,1,0
970,-100,4,2,1,60,0,0
1280,-100,4,2,1,60,0,0
2213,-100,4,2,1,60,0,0
2524,-100,4,2,1,60,0,0
2679,-100,4,2,1,60,0,0
2835,-100,4,2,1,60,0,0
2990,-100,4,2,1,60,0,0
3767,-100,4,2,1,60,0,0
4078,-100,4,2,1,60,0,0
4700,-100,4,2,1,60,0,0
5011,-100,4,2,1,60,0,0
5166,-100,4,2,1,60,0,0
5322,-100,4,2,1,60,0,0
5633,-100,4,2,1,60,0,0
5944,-100,4,2,1,60,0,0
6254,-100,4,2,1,60,0,0
6565,-100,4,2,1,60,0,0
6876,-100,4,2,1,60,0,0
7187,-100,4,2,1,60,0,0
7498,-100,4,2,1,60,0,0
7809,-100,4,2,1,60,0,0
8120,-100,4,2,1,60,0,0
9674,-100,4,2,1,50,0,0
10607,-100,4,2,1,80,0,0
10918,-100,4,2,1,70,0,0
14648,-100,4,2,1,80,0,0
15892,-100,4,2,1,70,0,0
20555,-100,4,2,1,80,0,0
20866,-100,4,2,1,70,0,0
24596,-100,4,2,1,80,0,0
25840,-100,4,2,1,70,0,0
26462,-100,4,2,1,70,0,0
27083,-100,4,2,1,70,0,0
27705,-100,4,2,1,70,0,0
28327,-100,4,2,1,70,0,0
29571,-100,4,2,1,70,0,0
30503,-100,4,2,2,100,0,0
30814,-100,4,2,1,60,0,0
31436,-100,4,2,2,60,0,0
32058,-100,4,2,1,60,0,0
33923,-100,4,2,2,60,0,0
34545,-100,4,2,1,60,0,0
35166,-100,4,2,1,60,0,0
35477,-100,4,2,1,60,0,0
35788,-100,4,2,1,70,0,0
39519,-100,4,2,1,60,0,0
40451,-100,4,2,1,80,0,0
40762,-90.9090909090909,4,2,1,70,0,1
42006,-90.9090909090909,4,2,1,80,0,1
43249,-90.9090909090909,4,2,1,70,0,1
44493,-90.9090909090909,4,2,1,80,0,1
45736,-90.9090909090909,4,2,1,70,0,1
46980,-90.9090909090909,4,2,1,70,0,1
47602,-90.9090909090909,4,2,1,60,0,1
48223,-90.9090909090909,4,2,1,70,0,1
49467,-90.9090909090909,4,2,1,80,0,1
50710,-100,4,2,1,60,0,0
55685,-90.9090909090909,4,2,1,70,0,1
55995,-90.9090909090909,4,2,1,70,0,1
56306,-90.9090909090909,4,2,1,70,0,1
56617,-90.9090909090909,4,2,1,70,0,1
56928,-90.9090909090909,4,2,1,70,0,1
57239,-90.9090909090909,4,2,1,70,0,1
57550,-90.9090909090909,4,2,1,70,0,1
57861,-90.9090909090909,4,2,1,70,0,1
59415,-90.9090909090909,4,2,1,80,0,1
60659,-100,4,2,1,60,0,0
70296,-100,4,2,1,50,0,0
72783,-100,4,2,1,60,0,0
73094,-100,4,2,1,50,0,0
74337,-100,4,2,1,60,0,0
75581,-100,4,2,1,50,0,0
78068,-100,4,2,1,60,0,0
79311,-100,4,2,1,70,0,0
80244,-100,4,2,1,50,0,0
81177,-100,4,2,1,60,0,0
81488,-100,4,2,1,80,0,0
81799,-100,4,2,1,70,0,0
85529,-100,4,2,1,80,0,0
86773,-100,4,2,1,70,0,0
90503,-100,4,2,1,80,0,0
91125,-100,4,2,1,60,0,0
91436,-100,4,2,1,80,0,0
91747,-100,4,2,1,70,0,0
95477,-100,4,2,1,80,0,0
96721,-100,4,2,1,70,0,0
100451,-100,4,2,1,80,0,0
101073,-100,4,2,1,70,0,0
101384,-100,4,2,1,80,0,0
101695,-90.9090909090909,4,2,1,70,0,1
105425,-90.9090909090909,4,2,1,80,0,1
106669,-90.9090909090909,4,2,1,70,0,1
107913,-90.9090909090909,4,2,1,70,0,1
109156,-90.9090909090909,4,2,1,70,0,1
110400,-90.9090909090909,4,2,1,80,0,1
111021,-100,4,2,1,70,0,0
111643,-100,4,2,1,70,0,1
111721,-100,4,2,1,70,0,0

[Colours]
Combo1 : 212,212,212
Combo2 : 175,210,250
Combo3 : 212,212,212
Combo4 : 116,177,245
Combo5 : 212,212,212
Combo6 : 55,145,242
Combo7 : 212,212,212
Combo8 : 13,112,221

[HitObjects]
79,174,970,5,4,3:1:0:0:
79,174,1125,2,0,B|149:139|239:175|169:216|262:262|336:226,1,275,0|8,0:0|3:0,0:0:0:0:
404,167,2213,1,4,3:2:0:0:
404,167,2368,2,0,P|430:230|411:290,2,110,0|4|0,0:0|3:2|0:0,0:0:0:0:
393,118,3146,2,0,P|365:130|335:133,1,55,8|0,3:2|0:0,0:0:0:0:
294,114,3457,6,0,P|201:55|145:248,1,385,0|0,3:0|0:0,0:0:0:0:
193,269,4700,1,4,3:2:0:0:
193,269,4856,1,0,0:0:0:0:
265,335,5166,2,0,P|312:308|366:311,1,110,4|0,3:2|0:0,0:0:0:0:
411,332,5633,2,0,P|436:341|463:344,1,55,4|0,0:0|0:0,0:0:0:0:
511,329,5944,6,0,P|508:274|478:229,1,110,0|8,3:0|3:0,0:0:0:0:
380,216,6565,2,0,P|378:156|410:108,1,110,0|8,3:0|3:0,0:0:0:0:
428,18,7187,2,0,L|308:34,1,110,0|8,3:0|3:0,0:0:0:0:
283,125,7809,2,0,L|173:111,1,110,0|8,3:0|3:0,0:0:0:0:
81,74,8431,5,8,3:0:0:0:
73,172,8742,1,8,3:0:0:0:
63,270,9052,2,0,L|7:263,2,55,8|0|8,3:0|3:0|3:0,0:0:0:0:
116,265,9519,1,0,3:0:0:0:
116,265,9674,2,0,L|130:387,1,110,0|0,3:0|3:0,0:0:0:0:
227,366,10296,1,0,3:0:0:0:
299,298,10607,1,4,1:0:0:0:
379,355,10918,6,0,P|415:295|389:214,1,110,6|8,3:1|3:0,0:0:0:0:
340,181,11539,1,0,3:0:0:0:
420,128,11850,1,8,3:0:0:0:
346,61,12161,2,0,L|227:78,1,110,0|8,3:0|3:0,0:0:0:0:
135,97,12783,1,0,3:0:0:0:
60,37,13094,2,0,P|48:64|44:94,1,55,8|0,3:0|0:0,0:0:0:0:
46,138,13405,6,0,L|63:257,1,110,0|8,3:0|3:0,0:0:0:0:
79,344,14026,1,0,3:0:0:0:
169,303,14337,1,8,3:0:0:0:
251,334,14648,2,0,P|302:359|358:352,2,110,6|8|6,3:1|3:0|0:0,0:0:0:0:
260,235,15581,1,0,1:0:0:0:
352,200,15892,6,0,L|362:87,1,110,4|8,3:1|3:0,0:0:0:0:
272,47,16514,1,0,3:0:0:0:
181,6,16824,1,8,3:0:0:0:
141,96,17135,2,0,L|158:215,1,110,0|8,3:0|3:0,0:0:0:0:
177,302,17757,1,0,3:0:0:0:
87,343,18068,2,0,L|27:334,1,55,8|0,3:0|0:0,0:0:0:0:
14,288,18379,6,0,L|-3:169,1,110,0|8,3:0|3:0,0:0:0:0:
87,135,19001,1,0,3:0:0:0:
9,74,19311,2,0,L|17:14,1,55,8|0,3:0|0:0,0:0:0:0:
64,7,19622,2,0,L|124:15,1,55,6|0,3:1|0:0,0:0:0:0:
167,21,19933,1,4,2:0:0:0:
252,71,20244,2,0,L|312:63,1,55,8|2,3:0|0:0,0:0:0:0:
353,47,20555,2,0,L|345:107,1,55,4|0,1:0|0:0,3:0:0:0:
342,151,20866,6,0,L|223:168,1,110,4|8,3:1|3:0,0:0:0:0:
137,138,21488,2,0,L|129:78,2,55,0|0|8,3:0|0:0|3:0,0:0:0:0:
99,169,21954,1,0,0:0:0:0:
99,169,22109,2,0,P|91:227|120:278,1,110,0|8,3:0|3:0,0:0:0:0:
208,300,22731,2,0,L|200:360,2,55,0|0|8,3:0|0:0|3:0,0:0:0:0:
259,286,23197,1,0,0:0:0:0:
259,286,23353,6,0,L|378:303,1,110,0|8,3:0|3:0,0:0:0:0:
464,325,23975,2,0,L|456:265,1,55,0|0,3:0|0:0,0:0:0:0:
436,225,24286,2,0,L|444:165,1,55,8|0,3:0|0:0,0:0:0:0:
408,135,24596,2,0,P|353:132|307:161,2,110,6|4|6,1:1|3:0|0:0,0:0:0:0:
490,79,25529,1,6,3:2:0:0:
403,30,25840,6,0,L|294:14,1,110,0|8,3:0|3:0,0:0:0:0:
200,48,26462,2,0,L|192:108,1,55,0|0,3:0|0:0,0:0:0:0:
181,150,26773,2,0,L|188:204,1,55,8|0,3:0|0:0,0:0:0:0:
236,221,27083,2,0,L|355:204,1,110,0|8,3:0|3:0,0:0:0:0:
440,230,27705,2,0,L|448:170,1,55,0|0,3:0|0:0,0:0:0:0:
459,127,28016,2,0,L|467:67,1,55,8|0,3:0|0:0,0:0:0:0:
470,22,28327,6,0,P|411:14|360:44,1,110,8|8,3:0|3:0,0:0:0:0:
319,125,28949,1,8,3:0:0:0:
230,87,29260,2,0,L|170:79,1,55,8|0,3:0|3:0,0:0:0:0:
126,73,29571,1,0,3:0:0:0:
259,337,30503,1,4,3:2:0:0:
163,361,30814,6,0,P|92:367|78:224,2,220,4|0|0,1:1|3:2|3:0,0:0:0:0:
234,291,32368,2,0,L|245:207,1,55
215,193,32679,2,0,L|232:56,1,110,8|4,3:0|0:2,0:0:0:0:
241,38,33146,1,0,0:0:0:0:
241,38,33301,6,0,P|304:12|364:31,2,110,0|0|8,1:1|0:0|3:0,0:0:0:0:
142,39,34234,1,0,0:0:0:0:
160,140,34545,1,0,3:0:0:0:
160,140,34700,1,0,0:0:0:0:
77,192,35011,1,0,0:0:0:0:
77,192,35166,2,0,L|69:252,1,55,0|0,3:0|0:0,0:0:0:0:
66,296,35477,1,12,1:0:0:0:
155,337,35788,6,0,P|213:347|266:322,1,110,0|8,3:0|3:0,0:0:0:0:
316,247,36410,1,0,3:0:0:0:
393,306,36721,1,10,3:0:0:0:
462,235,37032,2,0,L|479:116,1,110,0|8,3:0|3:0,0:0:0:0:
500,25,37653,1,0,3:0:0:0:
406,47,37964,1,8,3:0:0:0:
308,63,38275,6,0,L|248:55,1,55,8|0,3:0|0:0,0:0:0:0:
205,44,38586,2,0,L|213:104,1,55,8|0,3:0|0:0,0:0:0:0:
214,148,38897,2,0,L|206:208,1,55,8|0,3:0|3:0,0:0:0:0:
200,251,39208,2,0,P|143:274|72:254,1,110,8|4,3:0|3:2,0:0:0:0:
236,5,40451,1,2,1:3:0:0:
343,21,40762,6,0,L|473:39,1,121.000003692627,4|8,3:1|3:0,0:0:0:0:
490,143,41384,1,0,3:0:0:0:
413,220,41695,1,8,3:0:0:0:
483,302,42006,2,0,P|423:326|348:305,1,121.000003692627,6|8,3:1|3:0,0:0:0:0:
291,239,42628,1,6,3:1:0:0:
240,333,42938,2,0,P|209:345|176:348,1,60.5000018463135,8|0,3:0|0:0,0:0:0:0:
127,355,43249,6,0,L|145:225,1,121.000003692627,0|8,3:0|3:0,0:0:0:0:
48,180,43871,1,0,3:0:0:0:
22,74,44182,1,8,3:0:0:0:
115,18,44493,2,0,L|234:34,1,121.000003692627,6|8,3:1|3:0,0:0:0:0:
291,50,44959,1,0,0:0:0:0:
291,50,45115,2,0,L|301:125,1,60.5000018463135,4|0,3:2|0:0,0:0:0:0:
307,163,45425,1,6,3:1:0:0:
317,271,45736,6,0,L|187:253,1,121.000003692627,0|8,3:0|3:0,0:0:0:0:
89,235,46358,1,0,3:0:0:0:
71,342,46669,1,8,3:0:0:0:
178,361,46980,2,0,L|308:379,1,121.000003692627,6|8,1:1|3:0,0:0:0:0:
391,321,47602,2,0,L|382:255,1,60.5000018463135,2|2,0:0|0:0,0:0:0:0:
369,207,47913,2,0,L|434:215,1,60.5000018463135,10|0,3:0|0:0,0:0:0:0:
483,219,48223,6,0,P|507:158|493:95,1,121.000003692627,0|8,3:0|3:0,0:0:0:0:
426,21,48845,1,0,3:0:0:0:
350,98,49156,2,0,P|317:94|286:82,1,60.5000018463135,8|0,3:0|0:0,0:0:0:0:
247,52,49467,2,0,P|163:34|116:177,1,242.000007385254,12|8,3:1|3:0,0:0:0:0:
187,225,50400,1,6,1:0:0:0:
143,315,50710,6,0,P|91:344|33:336,2,110,4|8|0,3:2|3:0|3:0,0:0:0:0:
187,225,51643,1,8,3:0:0:0:
263,287,51954,2,0,P|321:279|372:308,2,110,0|4|0,3:0|3:2|3:0,0:0:0:0:
210,371,52887,1,8,3:0:0:0:
135,310,53197,6,0,P|106:258|114:200,2,110,4|8|0,3:2|3:0|3:0,0:0:0:0:
210,371,54130,1,8,3:0:0:0:
270,292,54441,2,0,P|277:233|248:182,1,110,8|4,3:0|3:2,0:0:0:0:
180,128,55063,2,0,P|172:69|201:18,1,110,0|2,3:0|0:0,0:0:0:0:
302,12,55685,6,0,L|432:30,1,121.000003692627,4|8,3:1|3:0,0:0:0:0:
472,124,56306,2,0,L|481:190,1,60.5000018463135,0|0,3:0|0:0,0:0:0:0:
452,231,56617,2,0,L|443:297,1,60.5000018463135,8|0,3:0|0:0,0:0:0:0:
475,335,56928,2,0,L|345:353,1,121.000003692627,4|8,3:2|3:0,0:0:0:0:
246,360,57550,2,0,L|255:294,1,60.5000018463135,0|0,3:0|0:0,0:0:0:0:
263,246,57861,2,0,L|197:255,1,60.5000018463135,8|0,3:0|0:0,0:0:0:0:
151,272,58172,6,0,L|169:142,1,121.000003692627,8|8,3:0|3:0,0:0:0:0:
124,52,58793,2,0,P|184:28|259:49,1,121.000003692627,8|8,3:0|3:0,0:0:0:0:
313,115,59415,2,0,L|322:181,2,60.5000018463135,8|6|8,3:0|0:0|3:0,0:0:0:0:
421,100,60037,2,0,L|430:34,2,60.5000018463135,8|6|8,3:0|0:0|3:0,0:0:0:0:
414,157,60503,1,6,0:2:0:0:
414,157,60659,1,6,1:0:0:0:
79,32,70296,6,0,L|139:40,1,55,2|0,0:0|0:0,0:0:0:0:
182,49,70607,1,8,1:2:0:0:
280,47,70918,2,0,L|263:166,1,110,8|8,0:0|0:0,0:0:0:0:
253,254,71539,1,8,0:0:0:0:
159,222,71850,2,0,P|100:215|49:244,2,110,10|8|2,0:0|0:0|0:0,0:0:0:0:
253,254,72783,1,8,1:0:0:0:
351,240,73094,6,0,P|402:269|460:262,1,110,8|8,0:0|0:0,0:0:0:0:
509,181,73716,2,0,L|492:62,1,110,10|8,0:0|0:0,0:0:0:0:
404,22,74337,1,0,1:0:0:0:
351,106,74648,1,10,1:0:0:0:
290,30,74959,2,0,L|171:13,1,110,2|8,1:0|0:0,0:0:0:0:
82,2,75581,6,0,P|52:53|60:111,1,110,8|12,1:2|0:0,0:0:0:0:
143,144,76203,2,0,L|126:263,1,110,0|8,1:0|0:0,0:0:0:0:
88,343,76824,2,0,P|146:350|197:321,1,110,8|12,1:2|0:0,0:0:0:0:
248,246,77446,1,0,1:0:0:0:
328,301,77757,1,8,0:0:0:0:
365,209,78068,6,0,L|425:201,1,55,10|0,1:2|0:0,0:0:0:0:
470,194,78379,1,8,1:0:0:0:
450,99,78690,2,0,L|442:39,1,55,10|0,1:2|0:2,0:0:0:0:
394,33,79001,2,0,L|334:41,1,55,8|0,1:2|0:2,0:0:0:0:
292,25,79311,2,0,L|275:144,1,110,4|8,3:2|3:2,3:0:0:0:
271,186,79778,1,0,3:0:0:0:
271,186,79933,1,0,3:0:0:0:
180,145,80244,1,6,3:0:0:0:
153,240,80555,6,0,P|96:263|25:243,2,110,0|0|0,3:0|3:0|0:0,0:0:0:0:
236,293,81488,1,6,1:2:0:0:
290,210,81799,6,0,L|409:227,1,110,4|8,3:1|3:0,0:0:0:0:
496,241,82420,1,0,3:0:0:0:
481,142,82731,1,8,3:0:0:0:
467,43,83042,2,0,L|348:26,1,110,0|8,3:0|3:0,0:0:0:0:
285,94,83664,1,0,3:0:0:0:
230,11,83975,2,0,L|153:21,1,55,8|0,3:0|0:0,0:0:0:0:
126,24,84286,5,0,3:0:0:0:
160,116,84596,1,8,3:0:0:0:
93,189,84907,1,0,3:0:0:0:
160,261,85218,1,8,3:0:0:0:
115,349,85529,2,0,P|56:359|3:336,2,110,4|4|4,3:1|0:0|3:1,0:0:0:0:
160,261,86462,2,0,P|187:249|217:245,1,55,4|0,1:0|0:0,0:0:0:0:
255,269,86773,6,0,L|374:286,1,110,0|8,3:0|3:0,0:0:0:0:
459,309,87394,1,0,3:0:0:0:
466,210,87705,2,0,P|469:180|481:152,1,55,8|0,3:0|0:0,0:0:0:0:
502,114,88016,1,0,3:0:0:0:
472,19,88327,1,8,3:0:0:0:
381,59,88638,2,0,P|326:82|268:72,1,110,0|8,3:0|3:0,0:0:0:0:
245,45,89104,1,0,0:0:0:0:
245,45,89260,5,0,3:0:0:0:
166,105,89571,1,8,3:0:0:0:
115,19,89881,2,0,P|60:-4|2:6,1,110,0|8,3:0|3:0,0:0:0:0:
10,101,90503,2,0,L|18:161,1,55,4|0,3:1|0:0,0:0:0:0:
44,196,90814,2,0,L|36:256,1,55,6|0,0:0|0:0,0:0:0:0:
31,299,91125,1,8,3:0:0:0:
126,324,91436,2,0,L|186:316,1,55,4|0,1:0|0:0,0:0:0:0:
229,312,91747,6,0,P|283:335|341:325,1,110,4|8,3:1|3:0,0:0:0:0:
410,267,92368,1,0,3:0:0:0:
366,177,92679,1,8,3:0:0:0:
432,104,92990,2,0,P|377:80|319:90,1,110,0|8,3:0|3:0,0:0:0:0:
257,154,93612,1,0,3:0:0:0:
184,86,93923,2,0,L|107:76,1,55,8|0,3:0|0:0,0:0:0:0:
79,74,94234,5,0,3:0:0:0:
93,172,94545,1,8,3:0:0:0:
22,241,94856,1,0,3:0:0:0:
56,333,95166,1,8,3:0:0:0:
154,322,95477,2,0,P|212:332|266:308,2,110,6|6|4,1:2|1:0|3:2,0:0:0:0:
56,333,96410,2,0,P|59:303|72:275,1,55,12|0,1:0|0:0,0:0:0:0:
101,243,96721,6,0,L|84:124,1,110,0|8,3:0|3:0,0:0:0:0:
62,37,97343,1,0,3:0:0:0:
164,51,97653,2,0,L|223:58,1,55,8|0,3:0|0:0,0:0:0:0:
267,63,97964,1,0,3:0:0:0:
338,131,98275,1,8,3:0:0:0:
410,64,98586,2,0,P|433:119|423:177,1,110,0|8,3:0|3:0,0:0:0:0:
396,207,99052,1,0,0:0:0:0:
396,207,99208,5,0,3:0:0:0:
464,278,99519,1,8,3:0:0:0:
374,321,99830,2,0,L|255:338,1,110,0|8,3:0|3:0,0:0:0:0:
167,354,100451,2,0,L|159:294,1,55,4|0,1:2|0:0,0:0:0:0:
115,276,100762,2,0,L|123:216,1,55,6|0,3:2|0:0,0:0:0:0:
133,173,101073,1,8,3:0:0:0:
47,123,101384,2,0,L|39:63,1,55,4|0,1:0|0:0,0:0:0:0:
28,15,101695,6,0,L|177:36,1,121.000003692627,4|8,3:1|3:0,0:0:0:0:
205,47,102161,1,0,0:0:0:0:
205,47,102317,1,0,3:0:0:0:
304,3,102628,1,8,3:0:0:0:
380,79,102938,2,0,L|370:148,1,60.5000018463135,2|0,3:2|0:0,0:0:0:0:
355,191,103249,2,0,L|424:181,1,60.5000018463135,8|0,3:0|0:0,0:0:0:0:
469,180,103560,2,0,L|459:249,1,60.5000018463135,2|0,3:2|0:0,0:0:0:0:
453,294,103871,1,8,3:0:0:0:
351,333,104182,6,0,L|220:352,1,121.000003692627,4|8,3:1|3:0,0:0:0:0:
181,361,104648,1,0,0:0:0:0:
181,361,104804,1,0,3:0:0:0:
72,371,105115,2,0,P|75:338|87:307,1,60.5000018463135,8|0,3:0|0:0,0:0:0:0:
112,265,105425,1,6,1:1:0:0:
45,178,105736,1,6,3:0:0:0:
140,126,106047,2,0,L|132:60,1,60.5000018463135,4|0,1:2|0:0,0:0:0:0:
125,11,106358,1,8,3:0:0:0:
232,28,106669,6,0,L|381:49,1,121.000003692627,4|8,3:1|3:0,0:0:0:0:
409,58,107135,1,2,0:0:0:0:
409,58,107291,2,0,L|421:147,1,60.5000018463135,0|2,3:0|0:0,0:0:0:0:
335,189,107757,1,2,0:0:0:0:
335,189,107913,2,0,L|322:278,1,60.5000018463135,0|2,3:0|0:0,0:0:0:0:
434,284,108379,1,2,0:0:0:0:
434,284,108535,2,0,L|446:373,1,60.5000018463135,0|2,3:0|0:0,0:0:0:0:
340,373,109001,1,2,0:0:0:0:
340,373,109156,5,2,3:2:0:0:
250,310,109467,2,0,L|184:319,1,60.5000018463135,2|2,3:2|3:2,0:0:0:0:
135,321,109778,2,0,L|144:255,2,60.5000018463135,2|0|2,3:2|3:0|3:2,0:0:0:0:
138,379,110244,1,0,3:0:0:0:
138,379,110400,2,0,L|7:360,1,121.000003692627,6|6,3:2|3:2,0:0:0:0:
68,276,111021,1,0,3:0:0:0:
21,188,111332,2,0,L|152:169,1,110,0|4,3:0|1:0,0:0:0:0:
