osu file format v14

[General]
AudioFilename: PxLight - Storm Buster.mp3
AudioLeadIn: 0
PreviewTime: 39519
Countdown: 0
SampleSet: Soft
StackLeniency: 0.7
Mode: 0
LetterboxInBreaks: 1
WidescreenStoryboard: 1

[Editor]
DistanceSpacing: 1
BeatDivisor: 4
GridSize: 32
TimelineZoom: 3.899998

[Metadata]
Title:Storm Buster
TitleUnicode:Storm Buster
Artist:P*Light
ArtistUnicode:P*Light
Creator:Asphyxia
Version:Nightfall
Source:REFLEC BEAT VOLZZA
Tags:BENAMI KONAMI 悠久のリフレシア electronic instrumental video game english Xilver15 Xilver lcfc lowcombofc yf_bmp Axarious 09kami z1085684963 fanzhen0019 kiryu
BeatmapID:1080849
BeatmapSetID:454843

[Difficulty]
HPDrainRate:5
CircleSize:4.2
OverallDifficulty:9
ApproachRate:9.5
SliderMultiplier:1.9
SliderTickRate:1

[Events]
//Background and Video events
0,0,"bg.jpg",0,0
//Break Periods
2,60859,69771
//Storyboard Layer 0 (Background)
//Storyboard Layer 1 (Fail)
//Storyboard Layer 2 (Pass)
//Storyboard Layer 3 (Foreground)
//Storyboard Layer 4 (Overlay)
//Storyboard Sound Samples

[TimingPoints]
970,310.880829015544,4,2,1,60,1,0
970,-66.6666666666667,4,2,1,60,0,0
1280,-100,4,2,1,60,0,0
2213,-66.6666666666667,4,2,1,60,0,0
2524,-100,4,2,1,60,0,0
2679,-66.6666666666667,4,2,1,60,0,0
2835,-100,4,2,1,60,0,0
2990,-66.6666666666667,4,2,1,60,0,0
3767,-100,4,2,1,60,0,0
4078,-83.3333333333333,4,2,1,60,0,0
4700,-66.6666666666667,4,2,1,60,0,0
5011,-100,4,2,1,60,0,0
5166,-66.6666666666667,4,2,1,60,0,0
5322,-100,4,2,1,60,0,0
5633,-66.6666666666667,4,2,1,60,0,0
5944,-100,4,2,1,60,0,0
6254,-66.6666666666667,4,2,1,60,0,0
6565,-83.3333333333333,4,2,1,60,0,0
6876,-66.6666666666667,4,2,1,60,0,0
7187,-100,4,2,1,60,0,0
7498,-66.6666666666667,4,2,1,60,0,0
7809,-100,4,2,1,60,0,0
8120,-66.6666666666667,4,2,1,60,0,0
9674,-66.6666666666667,4,2,1,50,0,0
10607,-55.5555555555556,4,2,1,80,0,0
10918,-83.3333333333333,4,2,1,70,0,0
14648,-66.6666666666667,4,2,1,80,0,0
15892,-83.3333333333333,4,2,1,70,0,0
20555,-55.5555555555556,4,2,1,80,0,0
20866,-83.3333333333333,4,2,1,70,0,0
24596,-66.6666666666667,4,2,1,80,0,0
25840,-83.3333333333333,4,2,1,70,0,0
26462,-66.6666666666667,4,2,1,70,0,0
27083,-83.3333333333333,4,2,1,70,0,0
27705,-66.6666666666667,4,2,1,70,0,0
28327,-55.5555555555556,4,2,1,70,0,0
29571,-83.3333333333333,4,2,1,70,0,0
30503,-83.3333333333333,4,2,1,100,0,0
30814,-125,4,2,1,60,0,0
31436,-100,4,2,1,60,0,0
32058,-125,4,2,1,60,0,0
33923,-125,4,2,1,60,0,0
34545,-100,4,2,1,60,0,0
35166,-83.3333333333333,4,2,1,60,0,0
35477,-66.6666666666667,4,2,1,60,0,0
35788,-83.3333333333333,4,2,1,70,0,0
39519,-83.3333333333333,4,2,1,60,0,0
40451,-55.5555555555556,4,2,1,80,0,0
40762,-71.4285714285714,4,2,1,70,0,1
42006,-62.5,4,2,1,80,0,1
43249,-71.4285714285714,4,2,1,70,0,1
44493,-62.5,4,2,1,80,0,1
45736,-71.4285714285714,4,2,1,70,0,1
46980,-62.5,4,2,1,70,0,1
47602,-55.5555555555556,4,2,1,60,0,1
48223,-71.4285714285714,4,2,1,70,0,1
49467,-71.4285714285714,4,2,1,80,0,1
50710,-83.3333333333333,4,2,1,60,0,0
55685,-71.4285714285714,4,2,1,70,0,1
55995,-62.5,4,2,1,70,0,1
56306,-71.4285714285714,4,2,1,70,0,1
56617,-62.5,4,2,1,70,0,1
56928,-71.4285714285714,4,2,1,70,0,1
57239,-62.5,4,2,1,70,0,1
57550,-71.4285714285714,4,2,1,70,0,1
57861,-62.5,4,2,1,70,0,1
59415,-62.5,4,2,1,80,0,1
60659,-100,4,2,1,60,0,0
70296,-100,4,2,1,50,0,0
72783,-66.6666666666667,4,2,1,60,0,0
73094,-100,4,2,1,50,0,0
74337,-66.6666666666667,4,2,1,60,0,0
75581,-100,4,2,1,50,0,0
78068,-100,4,2,1,60,0,0
79311,-66.6666666666667,4,2,1,70,0,0
80244,-66.6666666666667,4,2,1,50,0,0
81177,-125,4,2,1,60,0,0
81488,-55.5555555555556,4,2,1,80,0,0
81799,-76.9230769230769,4,2,1,70,0,0
85529,-76.9230769230769,4,2,1,80,0,0
86773,-76.9230769230769,4,2,1,70,0,0
90503,-76.9230769230769,4,2,1,80,0,0
91125,-76.9230769230769,4,2,1,60,0,0
91436,-55.5555555555556,4,2,1,80,0,0
91747,-71.4285714285714,4,2,1,70,0,0
95477,-71.4285714285714,4,2,1,80,0,0
96721,-71.4285714285714,4,2,1,70,0,0
100451,-71.4285714285714,4,2,1,80,0,0
101073,-71.4285714285714,4,2,1,70,0,0
101384,-55.5555555555556,4,2,1,80,0,0
101695,-66.6666666666667,4,2,1,70,0,1
105425,-66.6666666666667,4,2,1,80,0,1
106669,-66.6666666666667,4,2,1,70,0,1
107913,-62.5,4,2,1,70,0,1
109156,-55.5555555555556,4,2,1,70,0,1
110400,-55.5555555555556,4,2,1,80,0,1
111021,-100,4,2,1,70,0,0
111643,-100,4,2,1,70,0,1
111721,-100,4,2,1,70,0,0

[Colours]
Combo1 : 212,212,212
Combo2 : 175,210,250
Combo3 : 212,212,212
Combo4 : 116,177,245
Combo5 : 212,212,212
Combo6 : 55,145,242
Combo7 : 212,212,212
Combo8 : 13,112,221

[HitObjects]
480,302,970,6,0,L|385:321,1,71.2500027179719,4|0,3:1|0:0,0:0:0:0:
243,352,1125,2,0,L|312:338,1,71.2500027179719
334,230,1280,1,8,3:0:0:0:
166,221,1436,5,0,0:0:0:0:
203,192,1514,1,0,0:0:0:0:
250,190,1591,1,0,3:0:0:0:
290,214,1669,1,0,0:0:0:0:
334,230,1747,1,0,0:0:0:0:
379,219,1824,1,0,0:0:0:0:
410,183,1902,1,8,3:0:0:0:
326,55,2058,1,0,0:0:0:0:
320,68,2135,1,0,0:0:0:0:
314,81,2213,6,0,P|332:109|328:156,1,71.2500027179719,4|0,3:1|0:0,0:0:0:0:
106,274,2368,2,0,P|87:244|87:208,1,71.2500027179719
166,221,2524,5,2,0:0:0:0:
155,69,2679,6,0,L|133:159,1,71.2500027179719,4|0,3:2|0:0,0:0:0:0:
70,103,2835,6,0,L|86:33,1,47.5
230,92,2990,6,0,L|208:182,1,71.2500027179719
0,90,3146,2,0,L|16:20,1,71.2500027179719,8|0,3:0|0:0,0:0:0:0:
305,118,3301,2,0,L|288:187,1,71.2500027179719,0|0,0:3|0:0,0:0:0:0:
295,317,3457,6,0,B|262:258|262:258|287:186,1,142.500005435944,0|0,3:0|0:0,0:0:0:0:
106,274,3767,1,8,3:0:0:0:
355,249,3923,1,0,0:0:0:0:
467,227,4078,6,0,L|348:251,1,113.999996520996,2|0,0:0|0:0,0:0:0:0:
512,56,4311,2,0,B|531:113|531:113|506:160,1,113.999996520996
436,316,4545,2,0,L|345:336,1,56.9999982604981
309,42,4700,6,0,P|364:70|373:95,1,71.2500027179719,4|0,3:1|0:0,0:0:0:0:
297,195,4856,2,0,P|241:166|232:141,1,71.2500027179719
305,118,5011,6,0,L|363:154,1,47.5
168,161,5166,6,0,P|176:126|201:102,1,71.2500027179719,4|0,3:2|0:0,0:0:0:0:
119,319,5322,6,0,L|103:265,1,47.5
178,256,5477,2,0,L|191:301,1,47.5
399,222,5633,2,0,L|242:262,1,142.500005435944,12|0,0:3|0:0,0:0:0:0:
105,110,5944,6,0,L|119:65,1,47.5,0|0,3:0|0:0,0:0:0:0:
45,47,6099,2,0,L|31:92,1,47.5
328,152,6254,2,0,L|189:116,1,142.500005435944,8|0,3:0|0:0,0:0:0:0:
305,118,6488,1,0,0:0:0:0:
305,118,6565,6,0,L|384:100,1,56.9999982604981,0|0,3:0|0:0,0:0:0:0:
345,23,6721,2,0,L|289:35,1,56.9999982604981
464,280,6876,2,0,B|487:215|487:215|449:145,1,142.500005435944,8|0,3:0|0:0,0:0:0:0:
399,222,7109,1,0,0:0:0:0:
399,222,7187,6,0,L|382:266,1,47.5,0|0,3:0|0:0,0:0:0:0:
465,32,7343,2,0,L|448:76,1,47.5
351,339,7498,2,0,L|215:291,1,142.500005435944,8|0,3:0|0:0,0:0:0:0:
125,270,7731,1,0,0:0:0:0:
125,270,7809,6,0,L|64:292,1,47.5,0|0,3:0|0:0,0:0:0:0:
298,197,7964,2,0,L|253:213,1,47.5
17,222,8120,2,0,B|-11:290|-11:290|29:351,1,142.500005435944,8|0,3:0|0:0,0:0:0:0:
97,184,8353,1,0,0:0:0:0:
97,184,8431,6,0,L|67:101,1,71.2500027179719,8|0,3:0|0:0,0:0:0:0:
256,48,8586,1,0,0:0:0:0:
168,156,8742,6,0,L|138:73,1,71.2500027179719,8|0,3:0|0:0,0:0:0:0:
329,20,8897,1,0,0:0:0:0:
230,336,9052,5,8,3:0:0:0:
238,301,9130,1,0,3:0:0:0:
246,266,9208,1,0,3:0:0:0:
254,231,9286,1,0,3:0:0:0:
267,161,9363,5,8,3:0:0:0:
321,217,9441,1,0,3:0:0:0:
371,277,9519,1,0,3:0:0:0:
300,311,9597,1,0,3:0:0:0:
237,351,9674,5,0,3:0:0:0:
237,351,9985,1,0,3:0:0:0:
237,351,10296,1,0,3:0:0:0:
418,324,10607,6,0,P|380:266|458:320,1,256.499992172241,14|0,3:1|0:0,0:0:0:0:
284,259,10918,6,0,B|258:209|258:209|278:154,1,113.999996520996,6|0,3:1|0:0,0:0:0:0:
77,348,11229,2,0,L|189:325,1,113.999996520996,8|0,3:0|0:0,0:0:0:0:
307,78,11539,1,0,3:0:0:0:
407,194,11695,2,0,L|333:211,1,56.9999982604981
251,65,11850,2,0,L|306:77,1,56.9999982604981,8|0,3:0|0:0,0:0:0:0:
427,275,12006,2,0,L|371:287,1,56.9999982604981
74,120,12161,6,0,P|110:83|174:85,1,113.999996520996,0|0,3:0|0:0,0:0:0:0:
346,28,12472,2,0,P|291:26|251:65,1,113.999996520996,8|0,3:0|0:0,0:0:0:0:
241,179,12783,1,0,3:0:0:0:
463,147,12938,2,0,P|424:120|404:121,1,56.9999982604981
360,220,13094,2,0,P|379:200|406:193,1,56.9999982604981,8|0,3:0|0:0,0:0:0:0:
473,302,13249,2,0,P|454:282|427:275,1,56.9999982604981
300,302,13405,6,0,L|188:325,1,113.999996520996,0|0,3:0|0:0,0:0:0:0:
13,176,13716,2,0,B|-13:126|-13:126|7:71,1,113.999996520996,8|0,3:0|0:0,0:0:0:0:
241,179,14026,1,0,3:0:0:0:
88,64,14182,2,0,L|74:119,1,56.9999982604981
156,138,14337,2,0,L|169:82,1,56.9999982604981,8|0,3:0|0:0,0:0:0:0:
249,100,14493,2,0,L|236:156,1,56.9999982604981
443,188,14648,6,0,B|320:231|356:130|239:179,1,213.750008153916,6|0,3:1|0:0,0:0:0:0:
454,85,14959,2,0,P|384:35|390:120,1,213.750008153916,8|0,3:0|0:0,0:0:0:0:
290,247,15270,2,0,B|251:269|219:257|219:257|196:285|196:285|158:278|158:278|134:302|101:306,1,213.750008153916,6|0,0:0|0:0,0:0:0:0:
328,323,15581,2,0,B|386:267|335:195|335:195|296:206|283:273,1,213.750008153916,10|0,3:1|0:0,0:0:0:0:
385,381,15892,6,0,P|422:332|434:278,2,113.999996520996,4|0|8,3:1|0:0|3:0,0:0:0:0:
240,178,16358,1,0,0:0:0:0:
328,323,16514,1,0,3:0:0:0:
285,102,16669,1,0,0:0:0:0:
235,89,16747,1,0,0:0:0:0:
185,107,16824,1,8,3:0:0:0:
155,149,16902,1,0,0:0:0:0:
154,200,16980,1,0,0:0:0:0:
179,244,17058,1,0,0:0:0:0:
224,266,17135,6,0,P|285:256|318:218,1,113.999996520996,0|0,3:0|0:0,0:0:0:0:
483,167,17446,2,0,P|422:157|389:119,1,113.999996520996,8|0,3:0|0:0,0:0:0:0:
349,11,17757,1,0,3:0:0:0:
240,178,17913,1,0,0:0:0:0:
289,189,17990,1,0,0:0:0:0:
337,171,18068,1,8,3:0:0:0:
367,129,18146,1,0,0:0:0:0:
368,78,18223,1,0,0:0:0:0:
340,34,18301,1,0,0:0:0:0:
291,15,18379,6,0,L|151:34,1,113.999996520996,0|0,3:0|0:0,0:0:0:0:
379,334,18690,2,0,B|405:284|405:284|385:229,1,113.999996520996,8|0,3:0|0:0,0:0:0:0:
285,102,19001,1,0,3:0:0:0:
9,310,19156,1,0,0:0:0:0:
57,324,19234,1,0,0:0:0:0:
104,307,19311,1,8,3:0:0:0:
131,262,19389,1,0,0:0:0:0:
179,244,19467,1,0,0:0:0:0:
228,257,19545,1,0,0:0:0:0:
257,297,19622,6,0,P|262:327|248:363,1,56.9999982604981,6|0,3:1|0:0,0:0:0:0:
130,262,19778,2,0,P|106:281|68:287,1,56.9999982604981
119,129,19933,2,0,P|89:118|65:88,1,56.9999982604981,4|0,2:0|0:0,0:0:0:0:
233,76,20089,2,0,P|227:45|241:9,1,56.9999982604981
316,178,20244,6,0,P|339:157|378:151,1,56.9999982604981,8|0,3:0|0:0,0:0:0:0:
403,218,20400,2,0,P|379:238|340:244,1,56.9999982604981,2|0,0:0|0:0,0:0:0:0:
424,111,20555,6,0,P|529:106|448:179,1,256.499992172241,12|0,3:1|0:0,3:0:0:0:
424,111,20866,6,0,P|388:67|395:12,1,113.999996520996,4|0,3:1|0:0,0:0:0:0:
469,186,21177,2,0,P|475:243|437:286,1,113.999996520996,8|0,3:0|0:0,0:0:0:0:
130,262,21488,2,0,L|185:249,1,56.9999982604981,0|0,3:0|0:0,0:0:0:0:
260,239,21643,1,0,0:0:0:0:
236,193,21721,1,0,0:0:0:0:
186,174,21799,1,8,3:0:0:0:
138,190,21876,1,0,0:0:0:0:
186,174,21954,1,0,0:0:0:0:
213,130,22032,1,0,0:0:0:0:
207,79,22109,6,0,L|190:18,2,56.9999982604981,0|0|0,3:0|0:0|0:0,0:0:0:0:
185,249,22420,2,0,L|130:262,2,56.9999982604981,8|0|0,3:0|0:0|0:0,0:0:0:0:
505,119,22731,1,0,3:0:0:0:
453,112,22809,1,0,0:0:0:0:
410,140,22887,1,0,0:0:0:0:
394,187,22964,1,0,0:0:0:0:
411,235,23042,1,8,3:0:0:0:
454,262,23120,1,0,0:0:0:0:
470,310,23197,1,0,0:0:0:0:
453,358,23275,1,0,0:0:0:0:
408,383,23353,6,0,P|364:379|348:368,2,56.9999982604981,0|0|0,3:0|0:0|0:0,0:0:0:0:
439,39,23664,2,0,P|483:43|499:54,2,56.9999982604981,8|0|0,3:0|0:0|0:0,0:0:0:0:
316,178,23975,1,0,3:0:0:0:
284,217,24052,1,0,0:0:0:0:
234,230,24130,1,0,0:0:0:0:
187,208,24208,1,0,0:0:0:0:
164,161,24286,1,8,3:0:0:0:
176,111,24363,1,0,0:0:0:0:
213,77,24441,1,0,0:0:0:0:
264,75,24519,1,0,0:0:0:0:
306,103,24596,6,0,L|258:312,1,213.750008153916,6|0,1:1|0:0,0:0:0:0:
470,215,24907,2,0,P|431:148|314:181,1,213.750008153916,4|0,3:0|0:0,0:0:0:0:
74,352,25218,2,0,B|145:356|179:295|179:295|172:353|225:386,1,213.750008153916,6|0,0:0|0:0,0:0:0:0:
258,312,25529,2,0,L|306:103,1,213.750008153916,14|0,3:1|0:0,0:0:0:0:
388,219,25840,6,0,L|401:274,1,56.9999982604981,0|0,3:0|0:0,0:0:0:0:
429,366,25995,1,0,0:0:0:0:
456,159,26151,6,0,L|469:214,1,56.9999982604981,8|0,3:0|0:0,0:0:0:0:
497,306,26306,1,0,0:0:0:0:
163,186,26462,6,0,P|146:127|157:102,1,71.2500027179719,0|0,3:0|0:0,0:0:0:0:
337,75,26617,2,0,P|354:134|343:159,1,71.2500027179719
193,44,26773,6,0,P|252:27|277:38,1,71.2500027179719,8|0,3:0|0:0,0:0:0:0:
308,219,26928,2,0,P|249:236|224:225,1,71.2500027179719
497,12,27083,6,0,L|484:67,1,56.9999982604981,0|0,3:0|0:0,0:0:0:0:
456,159,27238,1,0,0:0:0:0:
308,219,27394,6,0,L|295:274,1,56.9999982604981,8|0,3:0|0:0,0:0:0:0:
267,366,27549,1,0,0:0:0:0:
44,278,27705,6,0,P|79:242|118:239,1,71.2500027179719,0|0,3:0|0:0,0:0:0:0:
100,159,27861,2,0,P|148:171|170:203,1,71.2500027179719
368,249,28016,6,0,P|327:219|288:223,1,71.2500027179719,8|0,3:0|0:0,0:0:0:0:
292,141,28172,2,0,P|246:161|230:196,1,71.2500027179719
33,123,28327,6,0,P|65:89|115:87,1,85.4999973907472,8|0,3:0|0:0,0:0:0:0:
353,95,28482,2,0,P|315:67|265:74,1,85.4999973907472
368,249,28638,6,0,P|391:208|378:159,1,85.4999973907472,8|0,3:0|0:0,0:0:0:0:
44,278,28793,2,0,P|14:242|18:191,1,85.4999973907472
278,68,28949,5,10,3:0:0:0:
228,100,29026,1,0,3:0:0:0:
218,159,29104,1,0,3:0:0:0:
253,207,29182,1,0,3:0:0:0:
290,253,29260,1,10,3:0:0:0:
305,310,29337,1,0,3:0:0:0:
273,361,29415,1,0,3:0:0:0:
214,373,29493,1,0,3:0:0:0:
164,334,29571,5,0,3:0:0:0:
164,334,30503,1,8,3:1:0:0:
164,334,30814,6,0,B|125:178|125:178|103:253,1,228,4|0,1:1|0:0,0:0:0:0:
86,337,31436,6,0,L|74:383,1,47.5,2|0,0:0|0:0,0:0:0:0:
219,228,31591,2,0,L|231:274,1,47.5
48,152,31747,2,0,L|36:198,1,47.5,2|0,3:2|0:0,0:0:0:0:
174,32,31902,2,0,L|186:78,1,47.5
360,159,32058,6,0,P|363:71|291:134,1,228,4|0,3:0|0:0,0:0:0:0:
295,205,32602,1,0,0:0:0:0:
295,205,32679,2,0,P|330:231|336:233,1,38,8|0,3:0|0:0,0:0:0:0:
386,274,32835,2,0,P|372:287|356:297,1,38
298,343,32990,2,0,P|311:356|327:366,3,38,4|0|0|0,0:2|0:0|0:0|0:0,0:0:0:0:
298,343,33301,6,0,B|207:371|232:304|146:339,1,152,4|0,3:0|0:0,0:0:0:0:
75,360,33767,1,0,0:0:0:0:
45,284,33923,2,0,P|15:242|25:175,2,114,2|2|0,0:0|3:1|0:0,0:0:0:0:
116,279,34467,1,0,0:0:0:0:
133,272,34545,6,0,L|248:293,1,95,4|0,3:0|0:0,0:0:0:0:
265,62,34856,2,0,L|171:44,1,95,8|0,3:0|0:0,0:0:0:0:
166,202,35166,6,0,L|222:212,1,56.9999982604981,0|0,3:0|0:0,0:0:0:0:
235,134,35322,2,0,L|178:123,1,56.9999982604981
100,152,35477,6,0,B|222:124|169:217|298:196,1,213.750008153916,12|0,1:0|0:0,0:0:0:0:
376,120,35788,5,0,3:0:0:0:
406,230,35944,2,0,L|419:291,1,56.9999982604981,2|0,0:0|0:0,0:0:0:0:
396,112,36099,5,8,3:0:0:0:
331,252,36254,2,0,L|344:313,1,56.9999982604981,2|0,0:0|0:0,0:0:0:0:
416,104,36410,5,0,3:0:0:0:
256,274,36565,2,0,L|269:335,1,56.9999982604981,2|0,3:0|0:0,0:0:0:0:
436,96,36721,5,10,3:0:0:0:
181,296,36876,2,0,L|194:357,1,56.9999982604981,2|0,3:0|0:0,0:0:0:0:
456,88,37032,5,0,3:0:0:0:
246,78,37187,2,0,L|233:139,1,56.9999982604981,2|0,0:0|0:0,0:0:0:0:
119,30,37343,5,8,3:0:0:0:
234,133,37498,2,0,L|247:194,1,56.9999982604981,2|0,0:0|0:0,0:0:0:0:
361,85,37654,5,0,3:0:0:0:
245,188,37809,2,0,L|232:249,1,56.9999982604981,2|0,0:0|0:0,0:0:0:0:
118,140,37965,5,8,3:0:0:0:
233,243,38120,2,0,L|246:304,1,56.9999982604981,2|0,0:0|0:0,0:0:0:0:
360,195,38275,5,8,3:0:0:0:
118,140,38431,1,0,0:0:0:0:
361,85,38585,1,8,3:0:0:0:
119,30,38742,1,0,0:0:0:0:
233,243,38897,6,0,L|246:304,1,56.9999982604981,10|0,3:0|3:0,0:0:0:0:
245,188,39052,2,0,L|232:249,1,56.9999982604981,0|0,3:0|3:0,0:0:0:0:
234,133,39208,2,0,L|247:194,1,56.9999982604981,10|0,3:0|3:0,0:0:0:0:
246,78,39363,2,0,L|233:139,1,56.9999982604981,0|0,3:0|3:0,0:0:0:0:
273,369,39519,5,4,3:2:0:0:
273,369,40451,6,0,B|325:296|258:204|258:204|255:261|208:283,1,256.499992172241,12|0,1:0|0:0,0:0:0:0:
178,209,40762,6,0,L|22:181,1,132.999995941162,4|0,3:1|0:0,0:0:0:0:
310,22,41073,2,0,B|331:85|331:85|292:156,1,132.999995941162,8|0,3:0|0:0,0:0:0:0:
178,209,41384,1,0,3:0:0:0:
497,225,41539,2,0,P|460:182|422:177,1,66.4999979705811
338,212,41695,2,0,P|321:241|320:274,1,66.4999979705811,8|0,3:0|0:0,0:0:0:0:
407,353,41850,2,0,P|440:353|469:337,1,66.4999979705811
411,119,42006,6,0,P|352:49|339:139,1,228,6|0,3:1|0:0,0:0:0:0:
269,243,42317,2,0,P|270:175|341:137,1,152,8|0,3:0|0:0,0:0:0:0:
285,322,42628,2,0,B|239:328|208:295|208:295|164:321|164:321|128:303|128:303|103:317|75:319,1,228,6|0,3:1|0:0,0:0:0:0:
162,60,42938,2,0,P|185:82|196:127,1,76,8|0,3:0|0:0,0:0:0:0:
178,209,43094,2,0,P|151:228|105:231,1,76
225,0,43249,6,0,P|270:64|279:134,1,132.999995941162,0|0,3:0|0:0,0:0:0:0:
105,315,43560,2,0,P|170:311|229:281,1,132.999995941162,8|0,3:0|0:0,0:0:0:0:
279,116,43871,1,0,3:0:0:0:
510,245,44026,2,0,L|446:225,1,66.4999979705811
408,295,44182,2,0,L|472:315,1,66.4999979705811,8|0,3:0|0:0,0:0:0:0:
433,384,44337,2,0,L|369:364,1,66.4999979705811
178,209,44493,6,0,B|141:142|141:142|165:70,1,152,6|0,3:1|0:0,0:0:0:0:
333,174,44726,1,0,0:0:0:0:
333,174,44804,2,0,P|280:194|254:188,1,76,8|0,3:0|0:0,0:0:0:0:
302,42,44959,2,0,P|345:77|353:103,1,76
178,209,45115,2,0,L|85:189,1,76,4|0,3:2|0:0,0:0:0:0:
105,315,45270,2,0,L|179:330,1,76
500,255,45425,2,0,B|440:245|408:295|408:295|357:274|357:274|324:300|279:290,1,228,6|0,3:1|0:0,0:0:0:0:
257,359,45736,6,0,P|219:300|249:229,1,132.999995941162,0|0,3:0|0:0,0:0:0:0:
302,42,46047,2,0,P|316:104|279:157,1,132.999995941162,8|0,3:0|0:0,0:0:0:0:
38,199,46358,1,0,3:0:0:0:
238,88,46514,2,0,L|165:72,1,66.4999979705811
38,199,46669,2,0,P|70:201|99:185,1,66.4999979705811,8|0,3:0|0:0,0:0:0:0:
188,3,46824,2,0,P|141:6|117:30,1,66.4999979705811
193,315,46980,6,0,P|178:231|253:290,1,228,6|0,1:1|0:0,0:0:0:0:
257,359,47291,2,0,L|88:332,1,152,8|0,3:0|0:0,0:0:0:0:
255,156,47602,6,0,P|293:176|316:210,1,85.4999973907472,2|0,0:0|0:0,0:0:0:0:
475,81,47757,2,0,P|436:101|414:135,1,85.4999973907472,2|0,0:0|0:0,0:0:0:0:
477,284,47913,2,0,P|438:263|416:230,1,85.4999973907472,10|0,3:0|0:0,0:0:0:0:
257,359,48068,2,0,P|295:338|318:305,1,85.4999973907472
238,88,48223,6,0,P|186:163|232:220,1,132.999995941162,0|0,3:0|0:0,0:0:0:0:
318,303,48534,2,0,P|381:309|423:260,1,132.999995941162,8|0,3:0|0:0,0:0:0:0:
238,88,48845,1,0,3:0:0:0:
38,199,49001,2,0,L|111:220,1,66.4999979705811
254,284,49156,2,0,L|327:305,1,66.4999979705811,8|0,3:0|0:0,0:0:0:0:
256,24,49311,2,0,L|235:97,1,66.4999979705811
158,328,49467,6,0,L|194:202,2,88.6666639607748,4|0|0,3:0|0:0|0:0,0:0:0:0:
344,222,49778,2,0,L|307:96,2,88.6666639607748,8|0|0,3:0|0:0|0:0,0:0:0:0:
81,136,50089,6,0,L|178:48,1,88.6666639607748,8|0,3:0|0:0,0:0:0:0:
182,242,50296,1,0,0:0:0:0:
319,136,50400,2,0,L|369:306,1,177.33332792155,14|0,1:0|0:0,0:0:0:0:
358,378,50710,6,0,P|425:350|435:277,1,151.999995361328,4|0,3:2|0:0,0:0:0:0:
508,273,51021,2,0,P|468:211|395:214,1,151.999995361328,8|0,3:0|0:0,0:0:0:0:
382,58,51332,2,0,P|315:86|305:159,1,151.999995361328,0|0,3:0|0:0,0:0:0:0:
232,163,51643,2,0,P|271:224|344:221,1,151.999995361328,8|0,3:0|0:0,0:0:0:0:
182,242,51954,6,0,P|165:285|143:303,2,75.9999976806641,0|0|0,3:0|0:0|0:0,0:0:0:0:
142,136,52265,2,0,P|114:110|102:74,2,75.9999976806641,4|0|0,3:2|0:0|0:0,0:0:0:0:
302,146,52576,2,0,P|265:145|232:163,1,75.9999976806641,0|0,3:0|0:0,0:0:0:0:
182,242,52783,1,0,0:0:0:0:
360,188,52887,2,0,P|361:105|292:74,1,151.999995361328,8|0,3:0|0:0,0:0:0:0:
284,220,53197,6,0,P|283:303|352:334,1,151.999995361328,4|0,3:2|0:0,0:0:0:0:
271,384,53508,2,0,L|427:335,1,151.999995361328,8|0,3:0|0:0,0:0:0:0:
169,78,53819,2,0,P|170:161|101:192,1,151.999995361328,0|0,3:0|0:0,0:0:0:0:
182,242,54130,2,0,L|25:193,1,151.999995361328,8|0,3:0|0:0,0:0:0:0:
61,366,54441,6,0,P|61:322|88:292,1,75.9999976806641,8|0,3:0|0:0,0:0:0:0:
36,196,54648,1,0,0:0:0:0:
82,129,54752,2,0,P|111:160|114:200,1,75.9999976806641,4|0,3:2|0:0,0:0:0:0:
203,15,55063,2,0,P|176:41|169:78,1,75.9999976806641,0|0,3:0|0:0,0:0:0:0:
270,132,55270,1,0,0:0:0:0:
270,132,55374,2,0,P|297:106|305:70,1,75.9999976806641,2|0,0:0|0:0,0:0:0:0:
405,284,55685,6,0,L|380:362,1,66.4999979705811,4|0,3:1|0:0,0:0:0:0:
462,378,55840,2,0,L|482:314,1,66.4999979705811
182,242,55995,2,0,L|323:297,1,152,8|0,3:0|0:0,0:0:0:0:
270,132,56229,1,0,0:0:0:0:
270,132,56306,6,0,L|194:158,1,66.4999979705811,0|0,3:0|0:0,0:0:0:0:
179,73,56462,2,0,L|241:51,1,66.4999979705811
107,177,56617,2,0,B|80:253|80:253|117:314,1,152,8|0,3:0|0:0,0:0:0:0:
182,242,56850,1,0,0:0:0:0:
182,242,56928,6,0,L|217:299,1,66.4999979705811,4|0,3:2|0:0,0:0:0:0:
64,25,57083,2,0,L|99:82,1,66.4999979705811
272,358,57239,2,0,L|406:283,1,152,8|0,3:0|0:0,0:0:0:0:
270,132,57472,1,0,0:0:0:0:
270,132,57550,6,0,L|342:92,1,66.4999979705811,0|0,3:0|0:0,0:0:0:0:
36,297,57705,2,0,L|108:257,1,66.4999979705811
378,169,57861,2,0,B|415:108|415:108|388:32,1,152,8|0,3:0|0:0,0:0:0:0:
368,246,58172,6,0,P|417:237|441:212,1,76,8|0,3:0|0:0,0:0:0:0:
455,230,58327,2,0,P|424:252|387:255,1,76,2|0,0:0|0:0,0:0:0:0:
197,64,58482,2,0,P|148:55|124:30,1,76,8|0,3:0|0:0,0:0:0:0:
110,48,58638,2,0,P|141:70|178:73,1,76,2|0,0:0|0:0,0:0:0:0:
298,279,58793,6,0,P|330:316|363:325,1,76,8|0,3:0|0:0,0:0:0:0:
355,346,58948,2,0,P|320:330|299:299,1,76,2|0,0:0|0:0,0:0:0:0:
276,102,59104,2,0,P|243:139|210:148,1,76,8|0,3:0|0:0,0:0:0:0:
219,169,59259,2,0,P|253:153|274:122,1,76,2|0,0:0|0:0,0:0:0:0:
265,19,59415,5,12,3:0:0:0:
323,29,59493,1,0,0:0:0:0:
359,79,59571,2,0,P|360:118|359:122,2,38,6|0|0,0:0|0:0|0:0,0:0:0:0:
393,239,59726,1,12,3:0:0:0:
335,249,59804,1,0,0:0:0:0:
299,299,59882,2,0,P|297:338|298:342,2,38,6|0|0,0:2|0:0|0:0,0:0:0:0:
156,203,60037,5,12,3:0:0:0:
83,226,60115,1,0,0:0:0:0:
12,252,60192,2,0,L|-8:198,2,38,6|0|0,0:0|0:0|0:0,0:0:0:0:
84,375,60348,1,12,3:0:0:0:
156,351,60426,1,0,0:0:0:0:
228,331,60503,2,0,L|248:385,2,38,6|0|0,0:2|0:0|0:0,0:0:0:0:
83,226,60659,5,6,1:0:0:0:
190,62,70296,5,2,0:0:0:0:
214,131,70451,1,0,0:0:0:0:
238,200,70607,5,8,1:2:0:0:
91,242,70918,1,8,0:0:0:0:
67,173,71074,1,0,0:0:0:0:
43,104,71229,1,8,0:0:0:0:
43,104,71539,1,8,0:0:0:0:
214,131,71695,1,0,0:0:0:0:
91,242,71850,5,10,0:0:0:0:
190,62,72006,1,0,0:0:0:0:
238,200,72161,2,0,L|278:207,3,31.6666666666667,8|0|0|0,0:0|0:0|0:0|0:0,0:0:0:0:
67,173,72472,1,2,0:0:0:0:
67,173,72783,6,0,B|104:112|56:38|56:38|2:117,1,213.750008153916,8|0,1:0|0:0,0:0:0:0:
115,311,73094,5,8,0:0:0:0:
262,269,73249,1,0,0:0:0:0:
454,257,73405,5,8,0:0:0:0:
307,215,73560,1,0,0:0:0:0:
91,242,73716,5,10,0:0:0:0:
238,200,73871,1,0,0:0:0:0:
502,203,74026,2,0,L|509:167,3,31.6666666666667
355,161,74337,6,0,P|306:103|326:24,1,142.500005435944,8|0,1:0|0:0,0:0:0:0:
454,257,74648,2,0,P|459:326|412:376,1,142.500005435944,10|0,1:0|0:0,0:0:0:0:
313,41,74959,2,0,P|378:2|452:36,1,142.500005435944,10|0,1:0|0:0,0:0:0:0:
502,203,75270,1,8,0:0:0:0:
262,269,75425,1,0,0:0:0:0:
355,161,75581,5,4,3:3:0:0:
403,315,75736,1,0,0:0:0:0:
191,245,75892,2,0,L|157:233,4,23.75,12|0|0|0|0,0:0|0:0|0:0|0:0|0:0,0:0:0:0:
403,315,76203,1,0,1:0:0:0:
403,315,76514,1,8,0:0:0:0:
403,315,76669,1,0,0:0:0:0:
355,161,76824,5,4,3:0:0:0:
495,83,76980,1,0,0:0:0:0:
247,195,77135,2,0,L|254:172,4,23.75,12|0|0|0|0,0:0|0:0|0:0|0:0|0:0,0:0:0:0:
454,257,77446,1,0,1:0:0:0:
454,257,77757,1,8,0:0:0:0:
454,257,77913,1,0,0:0:0:0:
280,78,78068,5,10,1:2:0:0:
203,321,78223,1,0,0:0:0:0:
82,14,78379,1,8,1:0:0:0:
5,257,78534,1,0,0:0:0:0:
226,21,78690,5,10,1:2:0:0:
202,61,78767,1,0,0:2:0:0:
206,108,78845,1,0,0:2:0:0:
236,144,78923,1,0,0:2:0:0:
281,158,79001,1,8,1:2:0:0:
325,143,79078,1,0,0:2:0:0:
355,106,79156,1,0,0:2:0:0:
357,58,79234,1,0,0:2:0:0:
332,17,79311,6,0,P|296:0|251:5,1,71.2500027179719,4|0,3:2|3:0,3:0:0:0:
355,226,79467,2,0,P|387:203|405:161,1,71.2500027179719,0|0,3:0|3:0,3:0:0:0:
126,98,79622,2,0,P|129:137|156:174,1,71.2500027179719,8|0,3:2|3:0,3:0:0:0:
471,241,79778,2,0,P|439:264|421:306,1,71.2500027179719,0|0,3:0|3:0,3:0:0:0:
51,196,79933,2,0,P|49:160|31:129,3,71.2500027179719,0|0|0|0,3:0|3:0|3:0|3:0,3:0:0:0:
5,257,80244,5,6,3:0:0:0:
280,78,80555,1,0,3:0:0:0:
265,163,80866,1,0,3:0:0:0:
250,248,81177,6,0,L|201:241,1,38
250,248,81332,2,0,L|287:253,1,38,2|0,0:0|0:0,0:0:0:0:
378,266,81488,6,0,L|116:230,1,256.499992172241,14|0,1:0|0:0,0:0:0:0:
431,350,81799,6,0,B|472:276|472:276|433:161,1,185.249991519928,4|0,3:1|0:0,0:0:0:0:
409,115,82109,1,8,3:0:0:0:
250,248,82265,1,0,0:0:0:0:
183,22,82420,2,0,B|150:117|150:117|192:190,1,185.249991519928,0|0,3:0|0:0,0:0:0:0:
250,248,82731,1,8,3:0:0:0:
409,115,82887,1,0,0:0:0:0:
34,241,83042,6,0,L|155:265,1,123.499994346619,0|0,3:0|0:0,0:0:0:0:
339,179,83353,2,0,L|272:165,1,61.7499971733095,8|0,3:0|0:0,0:0:0:0:
183,22,83508,1,0,0:0:0:0:
133,349,83664,2,0,L|12:325,1,123.499994346619,0|0,3:0|0:0,0:0:0:0:
118,153,83975,1,8,3:0:0:0:
250,248,84130,1,0,0:0:0:0:
183,22,84286,6,0,B|163:82|163:82|189:136,1,123.499994346619,0|0,3:0|0:0,0:0:0:0:
434,309,84596,2,0,B|460:255|460:255|440:195,1,123.499994346619,8|0,3:0|0:0,0:0:0:0:
183,22,84907,2,0,L|36:53,1,123.499994346619,0|0,3:0|0:0,0:0:0:0:
277,342,85218,2,0,L|337:329,1,61.7499971733095,8|0,3:0|0:0,0:0:0:0:
434,309,85374,1,0,0:0:0:0:
121,254,85529,5,4,3:1:0:0:
183,22,85685,1,0,0:0:0:0:
250,248,85840,5,4,0:0:0:0:
312,16,85996,1,0,0:0:0:0:
356,324,86151,5,4,3:1:0:0:
418,92,86307,1,0,0:0:0:0:
250,248,86462,6,0,L|271:169,1,61.7499971733095,14|0,1:0|0:0,0:0:0:0:
312,16,86617,2,0,L|296:75,1,61.7499971733095
219,352,86773,6,0,L|90:316,1,123.499994346619,0|0,3:0|0:0,0:0:0:0:
295,75,87083,2,0,P|321:122|316:142,1,61.7499971733095,8|0,3:0|0:0,0:0:0:0:
187,187,87239,2,0,P|161:140|166:120,1,61.7499971733095
365,197,87394,2,0,B|254:230|290:150|187:187,1,185.249991519928,0|0,3:0|0:0,0:0:0:0:
121,254,87705,1,8,3:0:0:0:
295,75,87861,1,0,0:0:0:0:
356,324,88016,6,0,L|474:357,1,123.499994346619,0|0,3:0|0:0,0:0:0:0:
67,198,88327,2,0,P|41:245|46:265,1,61.7499971733095,8|0,3:0|0:0,0:0:0:0:
175,310,88483,2,0,P|201:263|196:243,1,61.7499971733095
121,254,88638,1,0,3:0:0:0:
79,338,88949,5,8,3:0:0:0:
162,169,89104,1,0,0:0:0:0:
258,0,89260,5,0,3:0:0:0:
261,19,89415,1,0,0:0:0:0:
453,155,89571,5,8,3:0:0:0:
456,176,89726,1,0,0:0:0:0:
168,148,89881,5,0,3:0:0:0:
162,169,90036,1,0,0:0:0:0:
368,307,90192,5,8,3:0:0:0:
362,332,90347,1,0,0:0:0:0:
423,56,90503,6,0,L|458:3,1,61.7499971733095,6|0,3:2|0:0,0:0:0:0:
268,286,90659,2,0,L|233:337,1,61.7499971733095
460,256,90814,6,0,L|513:291,1,61.7499971733095,6|0,3:2|0:0,0:0:0:0:
230,101,90970,2,0,L|178:66,1,61.7499971733095
345,181,91125,5,8,3:0:0:0:
330,226,91436,6,0,P|301:151|371:220,1,256.499992172241,14|0,1:0|0:0,0:0:0:0:
268,286,91747,6,0,P|216:234|239:97,1,199.499993911743,4|0,3:1|0:0,0:0:0:0:
230,101,92058,1,8,3:0:0:0:
344,181,92213,1,0,0:0:0:0:
422,71,92368,2,0,P|474:123|451:260,1,199.499993911743,0|0,3:0|0:0,0:0:0:0:
460,256,92679,1,8,3:0:0:0:
344,181,92835,1,0,0:0:0:0:
183,10,92990,6,0,L|313:33,1,132.999995941162,0|0,3:0|0:0,0:0:0:0:
440,335,93301,2,0,P|389:292|385:264,1,66.4999979705811,8|0,3:0|0:0,0:0:0:0:
344,181,93457,1,0,0:0:0:0:
491,19,93612,2,0,B|513:80|513:80|483:141,1,132.999995941162,0|0,3:0|0:0,0:0:0:0:
268,286,93923,2,0,L|138:263,1,132.999995941162,8|0,3:0|0:0,0:0:0:0:
30,141,94234,5,0,3:0:0:0:
72,335,94389,1,0,0:0:0:0:
159,65,94545,5,8,3:0:0:0:
207,257,94700,1,0,0:0:0:0:
482,141,94856,5,0,3:0:0:0:
440,335,95011,1,0,0:0:0:0:
353,65,95167,5,8,3:0:0:0:
305,257,95322,1,0,0:0:0:0:
159,65,95477,6,0,L|24:18,1,132.999995941162,6|0,1:2|0:0,0:0:0:0:
353,65,95788,2,0,L|488:18,1,132.999995941162,6|0,1:0|0:0,0:0:0:0:
256,332,96099,1,4,3:2:0:0:
256,332,96254,1,2,0:0:0:0:
30,143,96410,2,0,L|93:165,1,66.4999979705811,12|0,1:0|0:0,0:0:0:0:
482,143,96565,2,0,L|419:165,1,66.4999979705811
182,289,96721,6,0,B|152:228|152:228|174:167,1,132.999995941162,0|0,3:0|0:0,0:0:0:0:
407,318,97032,2,0,L|344:340,1,66.4999979705811,8|0,3:0|0:0,0:0:0:0:
305,257,97187,2,0,L|368:235,1,66.4999979705811
256,332,97343,2,0,L|302:122,1,199.499993911743,0|0,3:0|0:0,0:0:0:0:
316,62,97653,1,8,3:0:0:0:
104,210,97809,1,0,0:0:0:0:
316,62,97964,6,0,L|173:28,1,132.999995941162,0|0,3:0|0:0,0:0:0:0:
41,231,98275,2,0,L|104:209,1,66.4999979705811,8|0,3:0|0:0,0:0:0:0:
143,292,98431,2,0,L|80:314,1,66.4999979705811
219,158,98586,1,0,3:0:0:0:
310,194,98897,5,8,3:0:0:0:
130,126,99052,1,0,0:0:0:0:
406,28,99208,5,0,3:0:0:0:
431,20,99363,1,0,0:0:0:0:
431,348,99519,5,8,3:0:0:0:
406,356,99674,1,0,0:0:0:0:
391,118,99830,5,0,3:0:0:0:
417,112,99985,1,0,0:0:0:0:
417,256,100140,5,8,3:0:0:0:
391,263,100295,1,0,0:0:0:0:
89,233,100451,6,0,P|121:213|160:215,1,66.4999979705811,4|0,1:2|0:0,0:0:0:0:
423,151,100607,2,0,P|391:171|352:169,1,66.4999979705811
215,25,100762,6,0,P|235:57|233:96,1,66.4999979705811,6|0,3:2|0:0,0:0:0:0:
297,359,100918,2,0,P|277:327|279:288,1,66.4999979705811
256,192,101073,5,8,3:0:0:0:
290,227,101384,6,0,P|245:142|235:238,1,256.499992172241,14|0,1:0|0:0,0:0:0:0:
417,256,101695,6,0,B|463:175|463:175|427:55,1,213.750008153916,4|0,3:1|0:0,0:0:0:0:
342,86,102006,1,8,3:0:0:0:
276,299,102161,1,0,0:0:0:0:
133,132,102317,2,0,L|341:85,1,213.750008153916,0|0,3:0|0:0,0:0:0:0:
428,59,102628,1,8,3:0:0:0:
261,364,102783,1,0,0:0:0:0:
49,169,102938,6,0,P|45:96|99:46,1,142.500005435944,2|0,3:2|0:0,0:0:0:0:
220,100,103249,2,0,P|224:173|170:223,1,142.500005435944,8|0,3:0|0:0,0:0:0:0:
512,316,103560,2,0,P|516:243|462:193,1,142.500005435944,2|0,3:2|0:0,0:0:0:0:
341,247,103871,2,0,P|337:320|391:370,1,142.500005435944,8|0,3:0|0:0,0:0:0:0:
512,121,104182,6,0,B|469:101|404:109|384:180|384:180|339:166|339:166|309:197|251:187,1,285.000010871888,4|8,3:1|3:0,0:0:0:0:
148,328,104648,2,0,P|163:273|144:231,1,71.2500027179719
61,168,104804,2,0,P|48:58|130:131,1,285.000010871888,0|8,3:0|3:0,0:0:0:0:
160,260,105270,2,0,P|162:295|148:328,1,71.2500027179719
238,77,105425,6,0,P|155:85|128:144,1,142.500005435944,6|0,1:1|0:0,0:0:0:0:
403,176,105736,2,0,P|485:167|512:108,1,142.500005435944,6|0,3:0|0:0,0:0:0:0:
205,144,106047,1,4,1:2:0:0:
436,108,106203,1,0,0:0:0:0:
172,211,106358,1,8,3:0:0:0:
469,43,106514,1,0,0:0:0:0:
363,238,106669,5,4,3:1:0:0:
238,77,106824,2,0,L|218:4,1,71.2500027179719,2|0,0:0|0:0,0:0:0:0:
469,43,106980,5,8,3:0:0:0:
178,134,107135,2,0,L|158:61,1,71.2500027179719,2|0,0:0|0:0,0:0:0:0:
436,108,107291,5,0,3:0:0:0:
118,193,107446,2,0,L|98:120,1,71.2500027179719,2|0,0:0|0:0,0:0:0:0:
403,176,107602,5,8,3:0:0:0:
58,252,107757,2,0,L|38:179,1,71.2500027179719,2|0,0:0|0:0,0:0:0:0:
363,238,107913,5,0,3:0:0:0:
236,7,108068,2,0,P|272:15|298:42,1,76,2|0,0:0|0:0,0:0:0:0:
363,238,108223,5,8,3:0:0:0:
238,77,108379,2,0,P|201:85|175:112,1,76,2|0,0:0|0:0,0:0:0:0:
323,300,108534,5,0,3:0:0:0:
239,148,108690,2,0,P|275:156|301:183,1,76,2|0,0:0|0:0,0:0:0:0:
283,362,108845,5,8,3:0:0:0:
240,221,109001,2,0,P|204:229|178:256,1,76,2|0,0:0|0:0,0:0:0:0:
91,43,109156,6,0,P|105:100|92:135,1,85.4999973907472,2|0,3:2|0:0,0:0:0:0:
177,256,109311,2,0,P|162:313|175:348,1,85.4999973907472,2|0,3:2|0:0,0:0:0:0:
421,43,109467,2,0,P|406:100|419:135,1,85.4999973907472,2|0,3:2|0:0,0:0:0:0:
335,256,109622,2,0,P|349:313|336:348,1,85.4999973907472,2|0,3:2|0:0,0:0:0:0:
236,7,109778,5,2,3:2:0:0:
291,29,109856,1,0,3:0:0:0:
306,86,109933,1,0,3:0:0:0:
276,138,110011,1,0,3:0:0:0:
216,142,110089,2,0,P|183:119|177:106,6,42.7499986953736,2|0|0|0|0|0|0,3:2|3:0|3:0|3:0|3:0|3:0|3:0,3:0:0:0:
335,256,110400,6,0,P|371:228|423:235,1,85.4999973907472,6|0,3:2|0:0,0:0:0:0:
238,77,110555,2,0,P|201:49|149:56,1,85.4999973907472
393,297,110710,2,0,P|425:323|467:323,1,85.4999973907472,6|0,3:2|0:0,0:0:0:0:
182,117,110866,2,0,P|149:143|107:143,1,85.4999973907472
412,124,111021,5,0,3:0:0:0:
100,260,111332,1,0,3:0:0:0:
256,192,111643,5,14,1:0:0:0:
