osu file format v14

[General]
AudioFilename: PxLight - Storm Buster.mp3
AudioLeadIn: 0
PreviewTime: 39519
Countdown: 0
SampleSet: Soft
StackLeniency: 0.7
Mode: 0
LetterboxInBreaks: 1
WidescreenStoryboard: 1

[Editor]
DistanceSpacing: 1
BeatDivisor: 4
GridSize: 32
TimelineZoom: 2.2

[Metadata]
Title:Storm Buster
TitleUnicode:Storm Buster
Artist:P*Light
ArtistUnicode:P*Light
Creator:Asphyxia
Version:Hard
Source:REFLEC BEAT VOLZZA
Tags:BENAMI KONAMI 悠久のリフレシア electronic instrumental video game english Xilver15 Xilver lcfc lowcombofc yf_bmp Axarious 09kami z1085684963 fanzhen0019 kiryu
BeatmapID:3008203
BeatmapSetID:454843

[Difficulty]
HPDrainRate:4
CircleSize:3.8
OverallDifficulty:7
ApproachRate:8
SliderMultiplier:1.5
SliderTickRate:1

[Events]
//Background and Video events
0,0,"bg.jpg",0,0
//Break Periods
2,60859,69546
//Storyboard Layer 0 (Background)
//Storyboard Layer 1 (Fail)
//Storyboard Layer 2 (Pass)
//Storyboard Layer 3 (Foreground)
//Storyboard Layer 4 (Overlay)
//Storyboard Sound Samples

[TimingPoints]
970,310.880829015544,4,2,1,60,1,0
970,-100,4,2,1,60,0,0
1280,-100,4,2,1,60,0,0
2213,-100,4,2,1,60,0,0
2524,-100,4,2,1,60,0,0
2679,-100,4,2,1,60,0,0
2835,-100,4,2,1,60,0,0
2990,-100,4,2,1,60,0,0
3767,-100,4,2,1,60,0,0
4078,-100,4,2,1,60,0,0
4700,-100,4,2,1,60,0,0
5011,-100,4,2,1,60,0,0
5166,-100,4,2,1,60,0,0
5322,-100,4,2,1,60,0,0
5633,-100,4,2,1,60,0,0
5944,-100,4,2,1,60,0,0
6254,-100,4,2,1,60,0,0
6565,-100,4,2,1,60,0,0
6876,-100,4,2,1,60,0,0
7187,-100,4,2,1,60,0,0
7498,-100,4,2,1,60,0,0
7809,-100,4,2,1,60,0,0
8120,-100,4,2,1,60,0,0
9674,-100,4,2,1,50,0,0
10607,-100,4,2,1,80,0,0
10918,-100,4,2,1,70,0,0
14648,-100,4,2,1,80,0,0
15892,-100,4,2,1,70,0,0
20555,-100,4,2,1,80,0,0
20866,-100,4,2,1,70,0,0
24596,-100,4,2,1,80,0,0
25840,-100,4,2,1,70,0,0
26462,-100,4,2,1,70,0,0
27083,-100,4,2,1,70,0,0
27705,-100,4,2,1,70,0,0
28327,-100,4,2,1,70,0,0
29571,-100,4,2,1,70,0,0
30503,-100,4,2,2,100,0,0
30814,-125,4,2,1,60,0,0
31436,-125,4,2,2,60,0,0
32058,-125,4,2,1,60,0,0
33923,-125,4,2,2,60,0,0
34545,-125,4,2,1,60,0,0
35166,-125,4,2,1,60,0,0
35477,-125,4,2,1,60,0,0
35788,-100,4,2,1,70,0,0
39519,-100,4,2,1,60,0,0
40451,-100,4,2,1,80,0,0
40762,-83.3333333333333,4,2,1,70,0,1
42006,-83.3333333333333,4,2,1,80,0,1
43249,-83.3333333333333,4,2,1,70,0,1
44493,-83.3333333333333,4,2,1,80,0,1
45736,-83.3333333333333,4,2,1,70,0,1
46980,-83.3333333333333,4,2,1,70,0,1
47602,-83.3333333333333,4,2,1,60,0,1
48223,-83.3333333333333,4,2,1,70,0,1
49467,-83.3333333333333,4,2,1,80,0,1
50710,-100,4,2,1,60,0,0
55685,-83.3333333333333,4,2,1,70,0,1
55995,-83.3333333333333,4,2,1,70,0,1
56306,-83.3333333333333,4,2,1,70,0,1
56617,-83.3333333333333,4,2,1,70,0,1
56928,-83.3333333333333,4,2,1,70,0,1
57239,-83.3333333333333,4,2,1,70,0,1
57550,-83.3333333333333,4,2,1,70,0,1
57861,-83.3333333333333,4,2,1,70,0,1
59415,-83.3333333333333,4,2,1,80,0,1
60659,-100,4,2,1,60,0,0
70296,-100,4,2,1,50,0,0
72783,-100,4,2,1,60,0,0
73094,-100,4,2,1,50,0,0
74337,-100,4,2,1,60,0,0
75581,-100,4,2,1,50,0,0
78068,-100,4,2,1,60,0,0
79311,-100,4,2,1,70,0,0
80244,-100,4,2,1,50,0,0
81177,-100,4,2,1,60,0,0
81488,-100,4,2,1,80,0,0
81799,-100,4,2,1,70,0,0
85529,-100,4,2,1,80,0,0
86773,-100,4,2,1,70,0,0
90503,-100,4,2,1,80,0,0
91125,-100,4,2,1,60,0,0
91436,-100,4,2,1,80,0,0
91747,-100,4,2,1,70,0,0
95477,-100,4,2,1,80,0,0
96721,-100,4,2,1,70,0,0
100451,-100,4,2,1,80,0,0
101073,-100,4,2,1,70,0,0
101384,-100,4,2,1,80,0,0
101695,-83.3333333333333,4,2,1,70,0,1
105425,-83.3333333333333,4,2,1,80,0,1
106669,-83.3333333333333,4,2,1,70,0,1
107913,-83.3333333333333,4,2,1,70,0,1
109156,-83.3333333333333,4,2,1,70,0,1
110400,-83.3333333333333,4,2,1,80,0,1
111021,-100,4,2,1,70,0,0
111643,-100,4,2,1,70,0,1
111721,-100,4,2,1,70,0,0

[Colours]
Combo1 : 212,212,212
Combo2 : 175,210,250
Combo3 : 212,212,212
Combo4 : 116,177,245
Combo5 : 212,212,212
Combo6 : 55,145,242
Combo7 : 212,212,212
Combo8 : 13,112,221

[HitObjects]
79,100,970,6,0,L|165:88,1,75,4|0,3:1|0:0,0:0:0:0:
239,66,1280,2,0,L|227:152,1,75,8|0,3:0|0:0,0:0:0:0:
211,228,1591,2,0,B|269:235|269:235|287:250|287:250|354:259,1,150,0|8,3:0|3:0,0:0:0:0:
497,369,2213,2,0,B|512:362|512:362|502:288,1,75,4|0,3:2|0:0,0:0:0:0:
411,150,2679,2,0,B|402:83|402:83|387:65|387:65|380:7,1,150,4|0,3:2|0:0,0:0:0:0:
489,68,3146,2,0,B|504:75|504:75|496:132,1,75,8|0,3:2|0:0,0:0:0:0:
469,219,3457,6,0,B|411:226|411:226|393:241|393:241|326:250,1,150,0|8,3:0|3:0,0:0:0:0:
236,263,3923,1,0,0:0:0:0:
161,212,4078,2,0,P|144:271|180:334,2,112.5,2|0|0,0:0|0:0|0:0,0:0:0:0:
178,198,4622,1,0,0:0:0:0:
199,190,4700,2,0,P|201:150|186:119,1,75,4|0,3:2|0:0,0:0:0:0:
160,37,5011,1,0,0:0:0:0:
160,37,5166,2,0,P|124:55|105:83,1,75,4|0,3:2|0:0,0:0:0:0:
43,149,5477,1,0,0:0:0:0:
43,149,5633,2,0,P|76:170|110:173,1,75,4|0,0:0|0:0,0:0:0:0:
186,119,5944,5,0,3:0:0:0:
222,201,6099,2,0,L|210:287,2,75,0|8|0,0:0|3:0|0:0,0:0:0:0:
304,163,6565,1,0,3:0:0:0:
268,81,6721,2,0,L|280:-5,2,75,0|8|0,0:0|3:0|0:0,0:0:0:0:
357,94,7187,1,0,3:0:0:0:
393,176,7343,2,0,L|381:262,2,75,0|8|0,0:0|3:0|0:0,0:0:0:0:
481,155,7809,1,0,3:0:0:0:
445,73,7964,2,0,L|457:-13,2,75,0|8|0,0:0|3:0|0:0,0:0:0:0:
481,155,8431,6,0,B|494:194|494:194|475:232,1,75,8|0,3:0|0:0,0:0:0:0:
398,265,8742,2,0,B|385:304|385:304|404:342,1,75,8|0,3:0|0:0,0:0:0:0:
320,364,9052,1,8,3:0:0:0:
320,364,9130,1,0,3:0:0:0:
320,364,9208,2,0,L|283:357,5,37.5,0|0|8|0|0|0,3:0|3:0|3:0|3:0|3:0|3:0,0:0:0:0:
238,352,9674,2,0,B|265:324|265:324|245:193,2,150,0|0|0,3:0|3:0|3:0,0:0:0:0:
238,352,10607,2,0,L|163:341,1,75,4|0,1:0|0:0,0:0:0:0:
82,315,10918,5,6,3:1:0:0:
82,315,11073,1,0,0:0:0:0:
50,229,11229,2,0,L|39:154,1,75,8|0,3:0|0:0,0:0:0:0:
115,107,11539,2,0,L|125:181,1,75,0|0,3:0|0:0,0:0:0:0:
215,180,11850,2,0,L|221:219,2,37.5,8|0|0,3:0|0:0|0:0,0:0:0:0:
271,109,12161,1,0,3:0:0:0:
330,177,12317,1,0,0:0:0:0:
411,139,12472,2,0,P|426:105|423:68,1,75,8|0,3:0|0:0,0:0:0:0:
330,177,12783,2,0,P|314:210|317:247,1,75,0|0,3:0|0:0,0:0:0:0:
392,296,13094,2,0,L|431:290,2,37.5,8|0|0,3:0|0:0|0:0,0:0:0:0:
311,337,13405,5,0,3:0:0:0:
234,290,13560,1,0,0:0:0:0:
174,357,13716,2,0,L|99:368,1,75,8|0,3:0|0:0,0:0:0:0:
34,275,14026,2,0,L|109:286,1,75,0|0,3:0|0:0,0:0:0:0:
165,215,14337,2,0,L|171:176,2,37.5,8|0|0,3:0|0:0|0:0,0:0:0:0:
77,191,14648,2,0,B|67:129|67:129|55:112|55:112|45:46,1,150,6|8,3:1|3:0,0:0:0:0:
284,54,15270,2,0,B|274:120|274:120|262:137|262:137|252:199,1,150,6|0,0:0|1:0,0:0:0:0:
324,268,15736,1,0,0:0:0:0:
324,268,15814,1,0,0:0:0:0:
324,268,15892,5,4,3:1:0:0:
393,211,16047,1,0,0:0:0:0:
460,270,16203,2,0,B|471:311|471:311|455:346,1,75,8|0,3:0|0:0,0:0:0:0:
369,360,16514,2,0,L|294:349,1,75,0|0,3:0|0:0,0:0:0:0:
208,325,16824,2,0,L|213:362,2,37.5,8|0|0,3:0|0:0|0:0,0:0:0:0:
180,238,17135,1,0,3:0:0:0:
119,305,17291,1,0,0:0:0:0:
41,259,17446,2,0,P|56:225|53:188,1,75,8|0,3:0|0:0,0:0:0:0:
47,97,17757,2,0,P|83:101|114:122,1,75,0|0,3:0|0:0,0:0:0:0:
201,96,18068,2,0,L|196:59,2,37.5,8|0|0,3:0|0:0|0:0,0:0:0:0:
216,185,18379,5,0,3:0:0:0:
290,134,18534,1,0,0:0:0:0:
363,186,18690,2,0,B|374:227|374:227|358:262,1,75,8|0,3:0|0:0,0:0:0:0:
278,321,19001,2,0,B|267:280|267:280|283:245,1,75,0|0,3:0|0:0,0:0:0:0:
440,291,19311,2,0,L|477:296,2,37.5,8|0|0,3:0|0:0|0:0,0:0:0:0:
360,256,19622,1,6,3:1:0:0:
360,256,19778,1,0,0:0:0:0:
433,204,19933,2,0,L|508:215,1,75,4|0,2:0|0:0,0:0:0:0:
474,130,20244,2,0,L|399:119,1,75,8|2,3:0|0:0,0:0:0:0:
510,48,20555,1,4,1:0:0:0:
320,68,20866,6,0,L|315:30,2,37.5,4|0|0,3:1|0:0|0:0,0:0:0:0:
319,163,21177,2,0,L|312:216,2,37.5,8|0|0,3:0|0:0|0:0,0:0:0:0:
229,150,21488,2,0,L|218:75,1,75,0|0,3:0|0:0,0:0:0:0:
128,62,21799,1,8,3:0:0:0:
59,119,21954,1,0,0:0:0:0:
45,39,22109,1,0,3:0:0:0:
45,39,22187,1,0,0:0:0:0:
45,39,22265,1,0,0:0:0:0:
140,157,22420,2,0,L|135:194,2,37.5,8|0|0,3:0|0:0|0:0,0:0:0:0:
110,274,22731,2,0,P|147:276|180:261,1,75,0|0,3:0|0:0,0:0:0:0:
293,173,23042,2,0,P|255:170|222:186,1,75,8|0,3:0|0:0,0:0:0:0:
251,301,23353,6,0,L|246:338,2,37.5,0|0|0,3:0|0:0|0:0,0:0:0:0:
350,278,23664,2,0,L|345:241,2,37.5,8|0|0,3:0|0:0|0:0,0:0:0:0:
449,345,23975,2,0,L|461:270,1,75,0|0,3:0|0:0,0:0:0:0:
501,189,24286,1,8,3:0:0:0:
438,124,24441,1,0,0:0:0:0:
494,53,24596,2,0,B|432:43|432:43|415:31|415:31|349:21,1,150,6|4,1:1|3:0,0:0:0:0:
211,138,25218,2,0,B|273:128|273:128|290:116|290:116|356:106,1,150,6|6,0:0|3:2,0:0:0:0:
376,203,25685,1,0,0:0:0:0:
376,203,25762,1,0,0:0:0:0:
376,203,25840,6,0,L|371:240,2,37.5,0|0|0,3:0|0:0|0:0,0:0:0:0:
287,221,26151,2,0,B|277:259|277:259|292:297,1,75,8|0,3:0|0:0,0:0:0:0:
369,335,26462,2,0,L|406:330,2,37.5,0|0|0,3:0|0:0|0:0,0:0:0:0:
288,374,26773,2,0,L|251:379,2,37.5,8|0|0,3:0|0:0|0:0,0:0:0:0:
209,307,27083,2,0,L|135:297,1,75,0|0,3:0|0:0,0:0:0:0:
53,285,27394,1,8,3:0:0:0:
53,285,27472,1,0,0:0:0:0:
53,285,27550,1,0,0:0:0:0:
107,213,27705,2,0,L|181:203,1,75,0|0,3:0|0:0,0:0:0:0:
182,119,28016,2,0,L|108:109,1,75,8|0,3:0|0:0,0:0:0:0:
271,110,28327,6,0,L|266:73,2,37.5,8|0|0,3:0|0:0|0:0,0:0:0:0:
365,77,28638,2,0,L|360:114,2,37.5,8|0|0,3:0|0:0|0:0,0:0:0:0:
459,113,28949,2,0,L|454:76,2,37.5,8|0|0,3:0|3:0|3:0,0:0:0:0:
428,197,29260,1,8,3:0:0:0:
428,197,29337,1,0,3:0:0:0:
428,197,29415,2,0,L|423:234,2,37.5,0|0|0,3:0|3:0|3:0,0:0:0:0:
428,197,30503,1,4,3:2:0:0:
267,247,30814,6,0,L|59:264,1,180,4|0,1:1|0:0,0:0:0:0:
3,266,31436,2,0,L|18:195,1,60,0|0,3:2|0:0,0:0:0:0:
96,178,31747,1,8,3:2:0:0:
96,178,31902,1,0,0:0:0:0:
79,95,32058,2,0,B|189:81|142:141|258:124,1,180,0|0,3:0|0:0,0:0:0:0:
268,118,32602,1,0,0:0:0:0:
280,104,32679,2,0,L|265:33,1,60,8|0,3:0|0:0,0:0:0:0:
353,31,32990,1,6,0:0:0:0:
353,31,33146,1,0,0:0:0:0:
366,113,33301,6,0,L|335:256,2,120,0|0|8,1:1|0:0|3:0,0:0:0:0:
497,7,34234,2,0,P|511:40|509:77,1,60
469,136,34545,2,0,P|455:169|457:206,1,60,0|0,3:0|0:0,0:0:0:0:
477,273,34856,2,0,P|491:306|489:343,1,60,8|0,3:0|0:0,0:0:0:0:
408,323,35166,1,0,3:0:0:0:
408,323,35322,1,0,0:0:0:0:
337,368,35477,2,0,P|323:335|325:298,1,60,12|0,1:0|0:0,0:0:0:0:
241,271,35788,6,0,L|230:346,2,75,0|2|8,3:0|0:0|3:0,0:0:0:0:
259,182,36254,1,2,0:0:0:0:
173,210,36410,2,0,L|98:221,1,75,0|2,3:0|3:0,0:0:0:0:
0,127,36721,2,0,L|75:138,1,75,10|2,3:0|3:0,0:0:0:0:
122,61,37032,2,0,L|47:50,2,75,0|2|8,3:0|0:0|3:0,0:0:0:0:
191,118,37498,1,2,0:0:0:0:
268,72,37653,2,0,B|282:36|282:36|272:-4,1,75,0|2,3:0|0:0,0:0:0:0:
358,84,37964,2,0,B|343:119|343:119|353:160,1,75,8|2,3:0|0:0,0:0:0:0:
437,126,38275,5,8,3:0:0:0:
437,126,38431,1,0,0:0:0:0:
423,217,38586,1,8,3:0:0:0:
423,217,38742,1,0,0:0:0:0:
489,277,38897,2,0,L|498:339,7,37.5,8|0|0|0|8|0|0|0,3:0|3:0|3:0|3:0|3:0|3:0|3:0|3:0,0:0:0:0:
500,358,39519,1,4,3:2:0:0:
500,358,40451,1,2,1:3:0:0:
377,226,40762,6,0,L|466:238,1,89.9999972534181,4|0,3:1|0:0,0:0:0:0:
357,304,41073,2,0,L|262:317,1,89.9999972534181,8|0,3:0|0:0,0:0:0:0:
178,330,41384,1,0,3:0:0:0:
213,252,41539,1,0,0:0:0:0:
213,252,41617,1,0,0:0:0:0:
213,252,41695,2,0,L|205:195,2,44.999998626709,8|0|0,3:0|0:0|0:0,0:0:0:0:
178,330,42006,2,0,B|87:357|87:357|13:290,1,179.999994506836,6|8,3:1|3:0,0:0:0:0:
72,224,42472,1,0,0:0:0:0:
11,156,42628,2,0,B|74:98|74:98|165:125,1,179.999994506836,6|8,3:1|3:0,0:0:0:0:
235,69,43094,1,0,0:0:0:0:
312,113,43249,6,0,L|401:100,1,89.9999972534181,0|0,3:0|0:0,0:0:0:0:
344,193,43560,2,0,L|331:282,1,89.9999972534181,8|0,3:0|0:0,0:0:0:0:
315,371,43871,1,0,3:0:0:0:
407,348,44026,1,0,0:0:0:0:
407,348,44104,1,0,0:0:0:0:
407,348,44182,2,0,L|464:340,2,44.999998626709,8|0|0,3:0|0:0|0:0,0:0:0:0:
418,259,44493,2,0,L|507:272,1,89.9999972534181,6|0,3:1|0:0,0:0:0:0:
512,163,44804,2,0,L|423:176,1,89.9999972534181,8|0,3:0|0:0,0:0:0:0:
374,98,45115,1,4,3:2:0:0:
420,22,45270,1,0,0:0:0:0:
420,22,45425,2,0,L|509:35,1,89.9999972534181,6|0,3:1|0:0,0:0:0:0:
328,27,45736,6,0,P|287:45|242:46,1,89.9999972534181,0|0,3:0|0:0,0:0:0:0:
168,97,46047,2,0,P|166:52|148:11,1,89.9999972534181,8|0,3:0|0:0,0:0:0:0:
86,78,46358,1,0,3:0:0:0:
100,175,46514,1,0,0:0:0:0:
100,175,46591,1,0,0:0:0:0:
100,175,46669,2,0,L|93:219,2,44.999998626709,8|0|0,3:0|0:0|0:0,0:0:0:0:
0,90,46980,2,0,L|26:288,1,179.999994506836,6|8,1:1|3:0,0:0:0:0:
33,358,47446,1,0,0:0:0:0:
114,318,47602,1,2,0:0:0:0:
194,369,47757,1,2,0:0:0:0:
194,369,47913,2,0,L|289:382,1,89.9999972534181,10|0,3:0|0:0,0:0:0:0:
365,345,48223,6,0,L|352:255,1,89.9999972534181,0|0,3:0|0:0,0:0:0:0:
329,169,48534,2,0,L|418:181,1,89.9999972534181,8|0,3:0|0:0,0:0:0:0:
507,196,48845,1,0,3:0:0:0:
496,115,49001,1,0,0:0:0:0:
496,115,49078,1,0,0:0:0:0:
496,115,49156,2,0,L|489:70,2,44.999998626709,8|0|0,3:0|0:0|0:0,0:0:0:0:
405,148,49467,2,0,B|299:165|336:102|232:117,2,179.999994506836,12|8|8,3:1|3:0|3:0,0:0:0:0:
405,148,50400,1,6,1:0:0:0:
275,23,50710,6,0,P|221:29|174:60,1,100,4|0,3:2|0:0,0:0:0:0:
152,92,51021,1,8,3:0:0:0:
40,192,51332,2,0,P|94:198|140:229,1,100,0|0,3:0|0:0,0:0:0:0:
162,261,51643,1,8,3:0:0:0:
56,367,51954,2,0,L|6:360,2,50,0|0|0,3:0|0:0|0:0,0:0:0:0:
104,378,52265,1,4,3:2:0:0:
201,347,52472,1,0,0:0:0:0:
201,347,52576,2,0,L|300:360,1,100,0|0,3:0|0:0,0:0:0:0:
349,370,52887,2,0,P|373:327|378:277,1,100,8|0,3:0|0:0,0:0:0:0:
337,248,53197,6,0,P|312:205|307:155,1,100,4|0,3:2|0:0,0:0:0:0:
331,111,53508,1,8,3:0:0:0:
478,84,53819,2,0,P|502:126|507:176,1,100,0|0,3:0|0:0,0:0:0:0:
482,220,54130,1,8,3:0:0:0:
331,220,54441,2,0,L|324:270,3,50,8|0|0|4,3:0|0:0|0:0|3:2,0:0:0:0:
189,202,55063,2,0,L|182:252,3,50,0|0|0|2,3:0|0:0|0:0|0:0,0:0:0:0:
81,101,55685,6,0,L|170:89,1,89.9999972534181,4|0,3:1|0:0,0:0:0:0:
235,27,55995,2,0,L|324:39,1,89.9999972534181,8|0,3:0|0:0,0:0:0:0:
355,123,56306,2,0,L|367:212,1,89.9999972534181,0|0,3:0|0:0,0:0:0:0:
290,260,56617,2,0,L|297:312,2,44.999998626709,8|0|0,3:0|0:0|0:0,0:0:0:0:
200,270,56928,2,0,P|155:268|114:250,1,89.9999972534181,4|0,3:2|0:0,0:0:0:0:
89,163,57239,2,0,P|133:164|174:182,1,89.9999972534181,8|0,3:0|0:0,0:0:0:0:
271,166,57550,2,0,L|256:71,1,89.9999972534181,0|0,3:0|0:0,0:0:0:0:
169,58,57861,2,0,L|124:51,2,44.999998626709,8|0|0,3:0|0:0|0:0,0:0:0:0:
256,77,58172,5,8,3:0:0:0:
329,23,58327,1,2,0:0:0:0:
374,100,58482,2,0,L|419:93,2,44.999998626709,8|0|2,3:0|0:0|0:0,0:0:0:0:
306,159,58793,1,8,3:0:0:0:
359,231,58948,1,2,0:0:0:0:
314,309,59104,2,0,L|269:301,2,44.999998626709,8|0|2,3:0|0:0|0:0,0:0:0:0:
393,371,59415,5,8,3:0:0:0:
393,371,59493,1,0,0:0:0:0:
393,371,59571,1,6,0:0:0:0:
421,286,59726,2,0,L|466:279,2,44.999998626709,8|0|6,3:0|0:0|0:2,0:0:0:0:
359,231,60037,1,8,3:0:0:0:
359,231,60115,1,0,0:0:0:0:
359,231,60192,1,6,0:0:0:0:
305,158,60348,2,0,L|260:151,2,44.999998626709,8|0|6,3:0|0:0|0:2,0:0:0:0:
374,100,60659,1,6,1:0:0:0:
20,19,70296,6,0,L|104:30,1,75,2|0,0:0|0:0,0:0:0:0:
183,45,70607,1,8,1:2:0:0:
76,190,70918,2,0,L|150:180,1,75,8|0,0:0|0:0,0:0:0:0:
239,166,71229,1,8,0:0:0:0:
148,321,71539,2,0,L|222:330,1,75,8|0,0:0|0:0,0:0:0:0:
315,344,71850,1,10,0:0:0:0:
315,344,72006,1,0,0:0:0:0:
403,359,72161,2,0,L|395:322,2,37.5,8|0|0,0:0|0:0|0:0,0:0:0:0:
493,366,72472,1,2,0:0:0:0:
419,201,72783,2,0,L|428:127,1,75,8|0,1:0|0:0,0:0:0:0:
456,40,73094,6,0,P|418:37|385:52,1,75,8|0,0:0|0:0,0:0:0:0:
338,129,73405,2,0,P|300:131|267:116,1,75,8|0,0:0|0:0,0:0:0:0:
247,28,73716,2,0,P|209:25|176:40,1,75,10|0,0:0|0:0,0:0:0:0:
136,120,74026,2,0,L|128:157,2,37.5,8|0|0,0:0|0:0|0:0,0:0:0:0:
48,98,74337,2,0,B|34:135|34:135|50:174,1,75,0|0,1:0|0:0,0:0:0:0:
94,311,74648,2,0,B|107:278|107:278|93:241,1,75,10|0,1:0|0:0,0:0:0:0:
21,358,74959,1,2,1:0:0:0:
21,358,75270,1,8,0:0:0:0:
105,327,75425,1,0,0:0:0:0:
188,362,75581,6,0,P|221:377|259:375,1,75,8|0,1:2|0:0,0:0:0:0:
310,301,75892,2,0,L|302:264,2,37.5,12|0|0,0:0|0:0|0:0,0:0:0:0:
373,365,76203,1,0,1:0:0:0:
508,246,76514,2,0,P|470:248|436:232,1,75,8|0,0:0|0:0,0:0:0:0:
442,143,76824,2,0,P|479:140|513:156,1,75,8|0,1:2|0:0,0:0:0:0:
351,175,77135,2,0,L|343:138,2,37.5,12|0|0,0:0|0:0|0:0,0:0:0:0:
260,181,77446,1,0,1:0:0:0:
80,164,77757,2,0,P|95:130|92:93,1,75,8|0,0:0|0:0,0:0:0:0:
14,48,78068,6,0,P|-1:81|1:118,1,75,10|0,1:2|0:0,0:0:0:0:
0,227,78379,1,8,1:0:0:0:
0,227,78534,1,0,0:0:0:0:
87,249,78690,2,0,L|124:241,2,37.5,10|0|0,1:2|0:2|0:2,0:0:0:0:
41,323,79001,2,0,L|4:315,2,37.5,8|0|0,1:2|0:2|0:2,0:0:0:0:
128,341,79311,1,4,3:2:0:0:
202,289,79467,1,0,3:0:0:0:
278,336,79622,2,0,L|270:373,2,37.5,8|0|0,3:2|3:0|3:0,3:0:0:0:
368,340,79933,2,0,L|360:303,4,37.5,0|0|0|0|6,3:0|3:0|3:0|3:0|3:0,3:0:0:0:
476,198,80555,5,0,3:0:0:0:
476,198,80866,1,0,3:0:0:0:
476,198,81177,1,0,0:0:0:0:
303,145,81488,2,0,B|290:112|290:112|304:75,1,75,6|0,1:2|0:0,0:0:0:0:
365,9,81799,6,0,B|431:19|431:19|448:31|448:31|510:41,1,150,4|8,3:1|3:0,0:0:0:0:
457,114,82265,1,0,0:0:0:0:
503,190,82420,2,0,B|437:200|437:200|420:212|420:212|358:222,1,150,0|8,3:0|3:0,0:0:0:0:
411,295,82887,1,0,0:0:0:0:
436,380,83042,2,0,L|362:371,1,75,0|0,3:0|0:0,0:0:0:0:
280,361,83353,1,8,3:0:0:0:
280,361,83431,1,0,0:0:0:0:
280,361,83508,1,0,0:0:0:0:
190,373,83664,1,0,3:0:0:0:
21,310,83975,2,0,B|8:277|8:277|22:240,1,75,8|0,3:0|0:0,0:0:0:0:
102,280,84286,6,0,L|176:289,1,75,0|0,3:0|0:0,0:0:0:0:
170,199,84596,2,0,L|96:190,1,75,8|0,3:0|0:0,0:0:0:0:
16,146,84907,2,0,B|30:109|30:109|17:76,1,75,0|0,3:0|0:0,0:0:0:0:
97,35,85218,2,0,L|171:44,1,75,8|0,3:0|0:0,0:0:0:0:
257,70,85529,2,0,B|282:86|282:86|422:69,1,150,4|4,3:1|0:0,0:0:0:0:
491,227,86151,2,0,B|507:252|507:252|490:392,1,150,4|4,3:1|1:0,0:0:0:0:
414,348,86617,1,0,0:0:0:0:
414,348,86695,1,0,0:0:0:0:
414,348,86773,6,0,L|340:339,1,75,0|0,3:0|0:0,0:0:0:0:
251,320,87083,2,0,L|259:357,2,37.5,8|0|0,3:0|0:0|0:0,0:0:0:0:
160,321,87394,2,0,B|170:254|170:254|182:237|182:237|192:175,1,150,0|8,3:0|3:0,0:0:0:0:
207,86,87861,1,0,0:0:0:0:
135,32,88016,2,0,B|96:27|96:27|61:50,1,75,0|0,3:0|0:0,0:0:0:0:
38,137,88327,1,8,3:0:0:0:
38,137,88405,1,0,0:0:0:0:
38,137,88482,1,0,0:0:0:0:
125,113,88638,1,0,3:0:0:0:
5,343,88949,2,0,B|34:362|34:362|73:357,1,75,8|0,3:0|0:0,0:0:0:0:
163,364,89260,6,0,L|154:290,1,75,0|0,3:0|0:0,0:0:0:0:
244,283,89571,2,0,L|253:357,1,75,8|0,3:0|0:0,0:0:0:0:
339,333,89881,2,0,L|413:342,1,75,0|0,3:0|0:0,0:0:0:0:
460,264,90192,2,0,L|386:255,1,75,8|0,3:0|0:0,0:0:0:0:
317,195,90503,1,4,3:1:0:0:
376,126,90659,1,0,0:0:0:0:
294,88,90814,2,0,L|285:14,1,75,6|0,0:0|0:0,0:0:0:0:
375,14,91125,1,8,3:0:0:0:
145,17,91436,2,0,L|136:91,1,75,4|0,1:0|0:0,0:0:0:0:
63,145,91747,6,0,B|122:191|122:191|192:163,1,150,4|8,3:1|3:0,0:0:0:0:
271,120,92213,1,0,0:0:0:0:
271,209,92368,2,0,L|453:231,1,150,0|8,3:0|3:0,0:0:0:0:
509,241,92835,1,0,0:0:0:0:
455,312,92990,2,0,L|380:302,1,75,0|0,3:0|0:0,0:0:0:0:
314,363,93301,1,8,3:0:0:0:
314,363,93379,1,0,0:0:0:0:
314,363,93457,1,0,0:0:0:0:
250,299,93612,1,0,3:0:0:0:
77,281,93923,2,0,B|60:319|60:319|75:351,1,75,8|0,3:0|0:0,0:0:0:0:
161,328,94234,6,0,L|151:253,1,75,0|0,3:0|0:0,0:0:0:0:
240,224,94545,2,0,L|249:298,1,75,8|0,3:0|0:0,0:0:0:0:
323,188,94856,2,0,L|332:113,1,75,0|0,3:0|0:0,0:0:0:0:
255,66,95166,2,0,L|245:140,1,75,8|0,3:0|0:0,0:0:0:0:
162,175,95477,2,0,B|95:185|95:185|78:197|78:197|17:206,1,150,6|6,1:2|1:0,0:0:0:0:
3,26,96099,2,0,B|70:36|70:36|87:48|87:48|147:57,1,150,4|12,3:2|1:0,0:0:0:0:
301,30,96565,1,0,0:0:0:0:
301,30,96643,1,0,0:0:0:0:
301,30,96721,6,0,L|227:21,1,75,0|0,3:0|0:0,0:0:0:0:
226,111,97032,2,0,L|269:116,2,37.5,8|0|0,3:0|0:0|0:0,0:0:0:0:
143,147,97343,2,0,L|165:329,1,150,0|8,3:0|3:0,0:0:0:0:
241,337,97809,1,0,0:0:0:0:
285,258,97964,2,0,B|324:263|324:263|353:243,1,75,0|0,3:0|0:0,0:0:0:0:
432,306,98275,1,8,3:0:0:0:
432,306,98353,1,0,0:0:0:0:
432,306,98430,1,0,0:0:0:0:
453,218,98586,1,0,3:0:0:0:
386,50,98897,2,0,P|419:34|456:37,1,75,8|0,3:0|0:0,0:0:0:0:
475,125,99208,6,0,P|441:140|404:137,1,75,0|0,3:0|0:0,0:0:0:0:
317,112,99519,2,0,P|283:96|246:99,1,75,8|0,3:0|0:0,0:0:0:0:
234,188,99830,2,0,P|267:203|304:200,1,75,0|0,3:0|0:0,0:0:0:0:
384,241,100140,2,0,L|393:315,1,75,8|0,3:0|0:0,0:0:0:0:
325,375,100451,1,4,1:2:0:0:
254,318,100607,1,0,0:0:0:0:
179,367,100762,2,0,L|105:358,1,75,6|0,3:2|0:0,0:0:0:0:
15,342,101073,1,8,3:0:0:0:
41,163,101384,2,0,B|29:176|29:176|41:246,1,75,4|0,1:0|0:0,0:0:0:0:
124,205,101695,6,0,B|225:193|192:253|313:236,1,179.999994506836,4|8,3:1|3:0,0:0:0:0:
382,208,102161,1,0,0:0:0:0:
412,292,102317,2,0,P|456:290|497:272,1,89.9999972534181,0|0,3:0|0:0,0:0:0:0:
486,183,102628,2,0,P|503:142|505:97,1,89.9999972534181,8|0,3:0|0:0,0:0:0:0:
444,38,102938,1,2,3:2:0:0:
386,107,103094,1,0,0:0:0:0:
298,88,103249,2,0,L|311:-1,1,89.9999972534181,8|0,3:0|0:0,0:0:0:0:
222,14,103560,1,2,3:2:0:0:
150,69,103716,1,0,0:0:0:0:
64,43,103871,2,0,L|77:132,1,89.9999972534181,8|0,3:0|0:0,0:0:0:0:
49,218,104182,6,0,B|-4:292|-4:292|68:364,1,179.999994506836,4|8,3:1|3:0,0:0:0:0:
149,326,104648,1,0,0:0:0:0:
149,326,104726,1,0,0:0:0:0:
149,326,104804,2,0,B|222:334|222:334|251:354|251:354|326:364,1,179.999994506836,0|8,3:0|3:0,0:0:0:0:
398,313,105270,1,0,0:0:0:0:
398,313,105348,1,0,0:0:0:0:
398,313,105425,2,0,L|487:300,1,89.9999972534181,6|0,1:1|0:0,0:0:0:0:
445,219,105736,2,0,L|356:206,1,89.9999972534181,6|0,3:0|0:0,0:0:0:0:
401,128,106047,2,0,L|490:115,1,89.9999972534181,4|0,1:2|0:0,0:0:0:0:
446,35,106358,2,0,L|357:22,1,89.9999972534181,8|0,3:0|0:0,0:0:0:0:
289,81,106669,5,4,3:1:0:0:
210,36,106824,2,0,B|190:80|190:80|211:124,2,89.9999972534181,2|8|2,0:0|3:0|0:0,0:0:0:0:
289,81,107291,1,0,3:0:0:0:
278,170,107446,2,0,L|265:259,2,89.9999972534181,2|8|2,0:0|3:0|0:0,0:0:0:0:
191,196,107913,1,0,3:0:0:0:
135,266,108068,2,0,L|148:355,2,89.9999972534181,2|8|2,0:0|3:0|0:0,0:0:0:0:
48,238,108534,1,0,3:0:0:0:
101,165,108690,2,0,L|114:76,2,89.9999972534181,2|8|2,0:0|3:0|0:0,0:0:0:0:
48,238,109156,6,0,B|32:282|32:282|51:330,1,89.9999972534181,2|2,3:2|3:2,0:0:0:0:
128,362,109467,2,0,B|144:318|144:318|125:270,1,89.9999972534181,2|2,3:2|3:2,0:0:0:0:
208,237,109778,2,0,L|261:244,2,44.999998626709,2|0|0,3:2|3:0|3:0,0:0:0:0:
248,136,110089,2,0,L|203:142,2,44.999998626709,2|0|0,3:2|3:0|3:0,3:0:0:0:
340,124,110400,1,6,3:2:0:0:
340,124,110555,1,0,0:0:0:0:
373,207,110710,1,6,3:2:0:0:
443,150,110866,1,0,0:0:0:0:
487,227,111021,2,0,B|464:335|464:335|493:364,1,150,0|0,3:0|3:0,0:0:0:0:
312,346,111643,5,4,1:0:0:0:
