osu file format v14

[General]
AudioFilename: PxLight - Storm Buster.mp3
AudioLeadIn: 0
PreviewTime: 39519
Countdown: 0
SampleSet: Soft
StackLeniency: 0.7
Mode: 0
LetterboxInBreaks: 1
WidescreenStoryboard: 1

[Editor]
DistanceSpacing: 1
BeatDivisor: 2
GridSize: 32
TimelineZoom: 1.1

[Metadata]
Title:Storm Buster
TitleUnicode:Storm Buster
Artist:P*Light
ArtistUnicode:P*Light
Creator:Asphyxia
Version:Easy
Source:REFLEC BEAT VOLZZA
Tags:BENAMI KONAMI 悠久のリフレシア electronic instrumental video game english Xilver15 Xilver lcfc lowcombofc yf_bmp Axarious 09kami z1085684963 fanzhen0019 kiryu
BeatmapID:1136007
BeatmapSetID:454843

[Difficulty]
HPDrainRate:2
CircleSize:3
OverallDifficulty:3
ApproachRate:4
SliderMultiplier:0.899999999999999
SliderTickRate:1

[Events]
//Background and Video events
0,0,"bg.jpg",0,0
//Break Periods
2,60858,68976
//Storyboard Layer 0 (Background)
//Storyboard Layer 1 (Fail)
//Storyboard Layer 2 (Pass)
//Storyboard Layer 3 (Foreground)
//Storyboard Layer 4 (Overlay)
//Storyboard Sound Samples

[TimingPoints]
970,310.880829015544,4,2,1,60,1,0
970,-100,4,2,1,60,0,0
1280,-100,4,2,1,60,0,0
2213,-100,4,2,1,60,0,0
2524,-100,4,2,1,60,0,0
2679,-100,4,2,1,60,0,0
2835,-100,4,2,1,60,0,0
2990,-100,4,2,1,60,0,0
3767,-100,4,2,1,60,0,0
4078,-100,4,2,1,60,0,0
4700,-100,4,2,1,60,0,0
5011,-100,4,2,1,60,0,0
5166,-100,4,2,1,60,0,0
5322,-100,4,2,1,60,0,0
5633,-100,4,2,1,60,0,0
5944,-100,4,2,1,60,0,0
6254,-100,4,2,1,60,0,0
6565,-100,4,2,1,60,0,0
6876,-100,4,2,1,60,0,0
7187,-100,4,2,1,60,0,0
7498,-100,4,2,1,60,0,0
7809,-100,4,2,1,60,0,0
8120,-100,4,2,1,60,0,0
9674,-100,4,2,1,50,0,0
10607,-100,4,2,1,80,0,0
10918,-100,4,2,1,70,0,0
14648,-100,4,2,1,80,0,0
15892,-100,4,2,1,70,0,0
20555,-100,4,2,1,80,0,0
20866,-100,4,2,1,70,0,0
24596,-100,4,2,1,80,0,0
25840,-100,4,2,1,70,0,0
26462,-100,4,2,1,70,0,0
27083,-100,4,2,1,70,0,0
27705,-100,4,2,1,70,0,0
28327,-100,4,2,1,70,0,0
29571,-100,4,2,1,70,0,0
30503,-100,4,2,2,100,0,0
30814,-100,4,2,1,60,0,0
31436,-100,4,2,2,60,0,0
32058,-100,4,2,1,60,0,0
33923,-100,4,2,2,60,0,0
34545,-100,4,2,1,60,0,0
35166,-100,4,2,1,60,0,0
35477,-100,4,2,1,60,0,0
35788,-100,4,2,1,70,0,0
39519,-100,4,2,1,60,0,0
40451,-100,4,2,1,80,0,0
40762,-100,4,2,1,70,0,1
42006,-100,4,2,1,80,0,1
43249,-100,4,2,1,70,0,1
44493,-100,4,2,1,80,0,1
45736,-100,4,2,1,70,0,1
46980,-100,4,2,1,70,0,1
47602,-100,4,2,1,60,0,1
48223,-100,4,2,1,70,0,1
49467,-100,4,2,1,80,0,1
50710,-100,4,2,1,60,0,0
55685,-100,4,2,1,70,0,1
55995,-100,4,2,1,70,0,1
56306,-100,4,2,1,70,0,1
56617,-100,4,2,1,70,0,1
56928,-100,4,2,1,70,0,1
57239,-100,4,2,1,70,0,1
57550,-100,4,2,1,70,0,1
57861,-100,4,2,1,70,0,1
59415,-100,4,2,1,80,0,1
60659,-100,4,2,1,60,0,0
70296,-100,4,2,1,50,0,0
72783,-100,4,2,1,60,0,0
73094,-100,4,2,1,50,0,0
74337,-100,4,2,1,60,0,0
75581,-100,4,2,1,50,0,0
78068,-100,4,2,1,60,0,0
79311,-100,4,2,1,70,0,0
80244,-100,4,2,1,50,0,0
81177,-100,4,2,1,60,0,0
81488,-100,4,2,1,80,0,0
81799,-100,4,2,1,70,0,0
85529,-100,4,2,1,80,0,0
86773,-100,4,2,1,70,0,0
90503,-100,4,2,1,80,0,0
91125,-100,4,2,1,60,0,0
91436,-100,4,2,1,80,0,0
91747,-100,4,2,1,70,0,0
95477,-100,4,2,1,80,0,0
96721,-100,4,2,1,70,0,0
100451,-100,4,2,1,80,0,0
101073,-100,4,2,1,70,0,0
101384,-100,4,2,1,80,0,0
101695,-100,4,2,1,70,0,1
105425,-100,4,2,1,80,0,1
106669,-100,4,2,1,70,0,1
107913,-100,4,2,1,70,0,1
109156,-100,4,2,1,70,0,1
110400,-100,4,2,1,80,0,1
111021,-100,4,2,1,70,0,0
111643,-100,4,2,1,70,0,1
111721,-100,4,2,1,70,0,0

[Colours]
Combo1 : 212,212,212
Combo2 : 175,210,250
Combo3 : 212,212,212
Combo4 : 116,177,245
Combo5 : 212,212,212
Combo6 : 55,145,242
Combo7 : 212,212,212
Combo8 : 13,112,221

[HitObjects]
16,238,970,6,0,B|85:215|161:243|112:276|191:306|277:274,1,270,4|8,3:1|3:0,0:0:0:0:
325,204,2213,2,0,P|356:248|336:337,2,135,4|4|8,3:2|3:2|3:2,0:0:0:0:
235,188,3457,2,0,P|227:126|390:84,1,270,0|0,3:0|0:0,0:0:0:0:
477,96,4700,2,0,P|459:155|455:251,2,135,4|4|4,3:2|3:2|0:0,0:0:0:0:
466,6,5944,6,0,P|420:27|370:24,1,89.9999999999999,0|8,3:0|3:0,0:0:0:0:
292,42,6565,2,0,P|246:21|196:24,1,89.9999999999999,0|8,3:0|3:0,0:0:0:0:
124,56,7187,2,0,L|139:153,1,89.9999999999999,0|8,3:0|3:0,0:0:0:0:
53,177,7809,1,0,3:0:0:0:
12,348,8431,1,8,3:0:0:0:
99,326,8742,1,8,3:0:0:0:
181,359,9052,2,0,P|238:312|342:330,1,180,8|0,3:0|3:0,0:0:0:0:
427,316,9985,2,0,P|410:274|414:229,1,89.9999999999999,0|0,3:0|3:0,0:0:0:0:
483,173,10607,1,4,1:0:0:0:
455,87,10918,6,0,B|406:70|352:90|387:113|331:134|271:112,1,180,6|0,3:1|3:0,0:0:0:0:
208,69,11850,1,8,3:0:0:0:
158,144,12161,2,0,P|175:209|186:353,1,180,0|0,3:0|3:0,0:0:0:0:
115,376,13094,1,8,3:0:0:0:
27,354,13405,2,0,P|10:289|-1:145,1,180,0|0,3:0|3:0,0:0:0:0:
62,114,14337,1,8,3:0:0:0:
4,44,14648,2,0,P|44:25|88:27,1,89.9999999999999,6|8,3:1|3:0,0:0:0:0:
168,68,15270,1,6,0:0:0:0:
234,128,15581,1,0,1:0:0:0:
316,91,15892,6,0,P|378:33|480:61,1,180,4|0,3:1|3:0,0:0:0:0:
500,131,16824,1,8,3:0:0:0:
506,223,17135,2,0,P|444:281|342:253,1,180,0|0,3:0|3:0,0:0:0:0:
318,184,18068,1,8,3:0:0:0:
241,232,18379,2,0,B|192:215|138:235|173:258|117:279|57:257,1,180,0|0,3:0|3:0,0:0:0:0:
2,203,19311,1,8,3:0:0:0:
52,128,19622,2,0,P|55:83|38:42,2,89.9999999999999,6|4|8,3:1|2:0|3:0,0:0:0:0:
2,203,20555,1,4,1:0:0:0:
71,261,20866,6,0,P|115:264|156:247,1,89.9999999999999,4|8,3:1|3:0,0:0:0:0:
227,189,21488,1,0,3:0:0:0:
301,238,21799,1,8,3:0:0:0:
387,215,22109,2,0,L|409:4,1,180,0|0,3:0|3:0,0:0:0:0:
489,1,23042,1,8,3:0:0:0:
495,90,23353,2,0,L|486:179,1,89.9999999999999,0|8,3:0|3:0,0:0:0:0:
442,258,23975,1,0,3:0:0:0:
476,341,24286,1,8,3:0:0:0:
390,367,24596,2,0,P|345:370|303:354,1,89.9999999999999,6|4,1:1|3:0,0:0:0:0:
245,285,25218,1,6,0:0:0:0:
168,331,25529,1,6,3:2:0:0:
80,343,25840,6,0,P|9:297|61:224,1,180,0|0,3:0|3:0,0:0:0:0:
129,191,26773,1,8,3:0:0:0:
57,136,27083,2,0,P|20:62|90:20,1,180,0|0,3:0|3:0,0:0:0:0:
178,4,28016,1,8,3:0:0:0:
244,65,28327,2,0,P|260:106|257:150,1,89.9999999999999,8|8,3:0|3:0,0:0:0:0:
191,213,28949,1,8,3:0:0:0:
258,272,29260,1,8,3:0:0:0:
216,350,29571,1,0,3:0:0:0:
441,201,30503,1,4,3:2:0:0:
496,130,30814,6,0,P|423:113|351:195,2,180,4|0|0,1:1|3:2|3:0,0:0:0:0:
500,310,32679,1,8,3:0:0:0:
324,348,33301,2,0,P|251:365|179:283,1,180,0|8,1:1|3:0,0:0:0:0:
156,210,34234,1,0,0:0:0:0:
76,252,34545,2,0,P|71:319|52:383,2,135,0|0|12,3:0|0:0|1:0,0:0:0:0:
21,180,35788,6,0,P|62:163|106:167,1,89.9999999999999,0|8,3:0|3:0,0:0:0:0:
192,194,36410,2,0,L|178:105,1,89.9999999999999,0|10,3:0|3:0,0:0:0:0:
166,15,37032,2,0,L|255:29,1,89.9999999999999,0|10,3:0|3:0,0:0:0:0:
342,47,37653,1,0,3:0:0:0:
360,135,37964,1,8,3:0:0:0:
299,201,38275,1,8,3:0:0:0:
356,270,38586,1,8,3:0:0:0:
289,334,38897,2,0,B|220:342|220:342|187:362|187:362|115:371,1,180,8|4,3:0|3:2,0:0:0:0:
128,93,40451,1,2,1:3:0:0:
159,8,40762,6,0,P|203:4|244:21,1,89.9999999999999,4|8,3:1|3:0,0:0:0:0:
302,90,41384,2,0,P|346:94|387:77,1,89.9999999999999,0|8,3:0|3:0,0:0:0:0:
444,6,42006,2,0,L|425:185,1,180,6|6,3:1|3:1,0:0:0:0:
416,274,42938,1,8,3:0:0:0:
403,363,43249,2,0,L|313:372,1,89.9999999999999,0|8,3:0|3:0,0:0:0:0:
238,320,43871,1,0,3:0:0:0:
160,366,44182,1,8,3:0:0:0:
88,310,44493,2,0,L|-2:320,2,89.9999999999999,6|8|4,3:1|3:0|3:2,0:0:0:0:
165,264,45425,1,6,3:1:0:0:
96,205,45736,6,0,P|92:160|110:119,1,89.9999999999999,0|8,3:0|3:0,0:0:0:0:
122,30,46358,1,0,3:0:0:0:
203,67,46669,1,8,3:0:0:0:
292,57,46980,2,0,B|337:74|393:53|358:30|412:10|461:27,1,180,6|2,1:1|0:0,0:0:0:0:
490,111,47913,1,10,3:0:0:0:
432,179,48223,2,0,L|423:269,1,89.9999999999999,0|8,3:0|3:0,0:0:0:0:
346,317,48845,1,0,3:0:0:0:
315,232,49156,1,8,3:0:0:0:
273,150,49467,2,0,P|198:133|156:295,1,270,12|6,3:1|1:0,0:0:0:0:
202,351,50710,6,0,P|140:374|57:285,2,180,4|0|0,3:2|3:0|3:0,0:0:0:0:
354,254,52576,1,0,3:0:0:0:
424,309,52887,1,8,3:0:0:0:
487,245,53197,2,0,L|506:38,2,180,4|0|8,3:2|3:0|3:0,0:0:0:0:
424,309,54752,1,4,3:2:0:0:
354,254,55063,2,0,P|310:250|269:267,1,89.9999999999999,0|2,3:0|0:0,0:0:0:0:
223,345,55685,6,0,P|179:349|138:332,1,89.9999999999999,4|8,3:1|3:0,0:0:0:0:
66,276,56306,1,0,3:0:0:0:
132,215,56617,1,8,3:0:0:0:
78,142,56928,2,0,P|119:124|163:128,1,89.9999999999999,4|8,3:2|3:0,0:0:0:0:
235,183,57550,1,0,3:0:0:0:
296,117,57861,1,8,3:0:0:0:
353,186,58172,2,0,L|442:177,1,89.9999999999999,8|8,3:0|3:0,0:0:0:0:
475,93,58793,2,0,L|385:102,1,89.9999999999999,8|8,3:0|3:0,0:0:0:0:
296,117,59415,2,0,P|228:109|215:9,2,180,8|8|6,3:0|3:0|1:0,0:0:0:0:
392,66,70296,5,2,0:0:0:0:
366,152,70607,2,0,P|410:154|450:135,2,89.9999999999999,8|8|8,1:2|0:0|0:0,0:0:0:0:
299,91,71539,1,8,0:0:0:0:
241,160,71850,2,0,P|155:141|84:192,1,180,10|2,0:0|0:0,0:0:0:0:
66,280,72783,1,8,1:0:0:0:
156,280,73094,2,0,P|221:297|365:308,1,180,8|10,0:0|0:0,0:0:0:0:
421,323,74026,1,8,0:0:0:0:
496,274,74337,1,0,1:0:0:0:
471,187,74648,1,10,1:0:0:0:
383,165,74959,2,0,P|381:120|400:80,1,89.9999999999999,2|8,1:0|0:0,0:0:0:0:
326,27,75581,6,0,P|240:8|169:59,1,180,8|0,1:2|1:0,0:0:0:0:
163,148,76514,1,8,0:0:0:0:
246,180,76824,2,0,P|263:245|274:389,1,180,8|0,1:2|1:0,0:0:0:0:
184,362,77757,1,8,0:0:0:0:
94,372,78068,2,0,L|5:358,1,89.9999999999999,10|8,1:2|1:0,0:0:0:0:
6,267,78690,1,10,1:2:0:0:
94,283,79001,1,8,1:2:0:0:
182,300,79311,2,0,P|229:275|136:137,1,270,4|6,3:2|3:0,3:0:0:0:
65,164,80555,1,0,3:0:0:0:
36,79,80866,1,0,3:0:0:0:
104,20,81177,2,0,L|193:34,1,89.9999999999999,0|6,0:0|1:2,0:0:0:0:
282,23,81799,6,0,L|296:112,1,89.9999999999999,4|8,3:1|3:0,0:0:0:0:
271,198,82420,2,0,L|360:212,1,89.9999999999999,0|8,3:0|3:0,0:0:0:0:
448,231,83042,2,0,P|467:271|465:315,2,89.9999999999999,0|8|0,3:0|3:0|3:0,0:0:0:0:
484,148,83975,1,8,3:0:0:0:
446,66,84286,2,0,L|357:80,1,89.9999999999999,0|8,3:0|3:0,0:0:0:0:
267,92,84907,1,0,3:0:0:0:
214,18,85218,1,8,3:0:0:0:
126,39,85529,2,0,P|81:38|41:57,2,89.9999999999999,4|4|4,3:1|0:0|3:1,0:0:0:0:
181,105,86462,1,4,1:0:0:0:
128,178,86773,6,0,L|114:267,1,89.9999999999999,0|8,3:0|3:0,0:0:0:0:
96,355,87394,2,0,P|182:360|239:286,1,180,0|0,3:0|3:0,0:0:0:0:
221,203,88327,1,8,3:0:0:0:
309,217,88638,2,0,L|398:231,1,89.9999999999999,0|8,3:0|3:0,0:0:0:0:
485,252,89260,2,0,P|486:207|467:167,2,89.9999999999999,0|8|0,3:0|3:0|3:0,0:0:0:0:
421,315,90192,1,8,3:0:0:0:
331,318,90503,2,0,L|242:304,1,89.9999999999999,4|6,3:1|0:0,0:0:0:0:
154,280,91125,1,8,3:0:0:0:
93,346,91436,1,4,1:0:0:0:
30,280,91747,6,0,L|16:191,1,89.9999999999999,4|8,3:1|3:0,0:0:0:0:
3,101,92368,2,0,P|47:99|87:118,1,89.9999999999999,0|8,3:0|3:0,0:0:0:0:
155,178,92990,2,0,P|174:137|171:93,2,89.9999999999999,0|8|0,3:0|3:0|3:0,0:0:0:0:
89,240,93923,1,8,3:0:0:0:
156,301,94234,2,0,L|245:287,1,89.9999999999999,0|8,3:0|3:0,0:0:0:0:
333,270,94856,1,0,3:0:0:0:
322,180,95166,1,8,3:0:0:0:
308,90,95477,2,0,P|263:89|223:108,2,89.9999999999999,6|6|4,1:2|1:0|3:2,0:0:0:0:
390,127,96410,1,12,1:0:0:0:
479,117,96721,6,0,L|493:28,1,89.9999999999999,0|8,3:0|3:0,0:0:0:0:
402,32,97343,2,0,B|353:15|299:35|334:58|278:79|233:62,1,180,0|0,3:0|3:0,0:0:0:0:
150,27,98275,1,8,3:0:0:0:
120,111,98586,2,0,L|134:200,1,89.9999999999999,0|8,3:0|3:0,0:0:0:0:
160,286,99208,2,0,P|115:287|75:267,2,89.9999999999999,0|8|0,3:0|3:0|3:0,0:0:0:0:
231,230,100140,1,8,3:0:0:0:
276,307,100451,2,0,L|365:293,1,89.9999999999999,4|6,1:2|3:2,0:0:0:0:
454,279,101073,1,8,3:0:0:0:
429,192,101384,1,4,1:0:0:0:
496,132,101695,6,0,L|510:43,1,89.9999999999999,4|8,3:1|3:0,0:0:0:0:
425,11,102317,2,0,L|411:100,1,89.9999999999999,0|8,3:0|3:0,0:0:0:0:
397,188,102938,1,2,3:2:0:0:
309,167,103249,1,8,3:0:0:0:
230,211,103560,1,2,3:2:0:0:
143,186,103871,1,8,3:0:0:0:
70,238,104182,2,0,P|20:210|42:92,2,180,4|0|6,3:1|3:0|1:1,0:0:0:0:
143,186,105736,1,6,3:0:0:0:
220,232,106047,2,0,L|206:321,1,89.9999999999999,4|8,1:2|3:0,0:0:0:0:
286,360,106669,6,0,P|323:309|439:315,1,180,4|0,3:1|3:0,0:0:0:0:
480,135,107913,2,0,P|443:84|327:90,1,180,0|0,3:0|3:0,0:0:0:0:
159,42,109156,2,0,P|139:82|141:126,1,89.9999999999999,2|2,3:2|3:2,0:0:0:0:
225,158,109778,1,2,3:2:0:0:
186,239,110089,1,2,3:2:0:0:
241,309,110400,2,0,P|201:329|157:327,2,89.9999999999999,6|6|0,3:2|3:2|3:0,0:0:0:0:
283,229,111332,1,0,3:0:0:0:
354,283,111643,5,4,1:0:0:0:
