osu file format v14

[General]
AudioFilename: audio.mp3
AudioLeadIn: 0
PreviewTime: 12848
Countdown: 0
SampleSet: None
StackLeniency: 0.2
Mode: 0
LetterboxInBreaks: 0
WidescreenStoryboard: 1

[Editor]
DistanceSpacing: 0.7
BeatDivisor: 4
GridSize: 4
TimelineZoom: 1.6

[Metadata]
Title:Sakura Reflection (P*Light Slayer Remix)
TitleUnicode:Sakura Reflection (P*Light Slayer Remix)
Artist:P*Light
ArtistUnicode:P*Light
Creator:Markden
Version:HEAVENLY AR9
Source:SOUND VOLTEX II -infinite infection-
Tags:QUICKIEZ RIFLESSIONE RYU STARLIGHT SEIRYU VALTRO EBIBRONZ
BeatmapID:1366883
BeatmapSetID:642646

[Difficulty]
HPDrainRate:5
CircleSize:5
OverallDifficulty:8
ApproachRate:9
SliderMultiplier:1.7
SliderTickRate:1

[Events]
//Background and Video events
0,0,"sakura.jpg",0,0
//Break Periods
//Storyboard Layer 0 (Background)
//Storyboard Layer 1 (Fail)
//Storyboard Layer 2 (Pass)
//Storyboard Layer 3 (Foreground)
//Storyboard Sound Samples

[TimingPoints]
429,322.58064516129,4,1,0,100,1,0
429,-83.3333333333333,4,1,0,50,0,0
993,-83.3333333333333,4,1,0,10,0,0
1074,-83.3333333333333,4,1,0,50,0,0
8816,-83.3333333333333,4,1,0,40,0,0
8977,-83.3333333333333,4,1,0,30,0,0
9138,-83.3333333333333,4,1,0,20,0,0
9783,-83.3333333333333,4,1,0,30,0,0
9945,-83.3333333333333,4,1,0,40,0,0
10106,-83.3333333333333,4,1,0,50,0,0
13009,-83.3333333333333,4,1,0,50,0,1
18170,-66.6666666666667,4,1,0,50,0,1
26880,-50,4,1,0,50,0,1
27606,-66.6666666666667,4,1,0,50,0,1
32041,-25,4,1,0,50,0,1
33654,-50,4,1,0,50,0,0
59138,-40,4,1,0,50,0,0
60106,-50,4,1,0,50,0,0
61719,-66.6666666666667,4,1,0,50,0,0
62041,-40,4,1,0,50,0,0
62687,-50,4,1,0,50,0,0
63332,-40,4,1,0,50,0,0
63654,-40,4,1,0,30,0,0
64945,-40,4,1,0,50,0,0
65267,-50,4,1,0,50,0,0
65912,-40,4,1,0,50,0,0
66235,-50,4,1,0,50,0,0
67525,-66.6666666666667,4,1,0,50,0,0
67848,-40,4,1,0,50,0,0
69783,-50,4,1,0,50,0,0
88816,-66.6666666666667,4,1,0,50,0,0
96880,-66.6666666666667,4,1,0,50,0,1
106396,-50,4,1,0,50,0,1
113977,-66.6666666666667,4,1,0,50,0,1
114461,-100,4,1,0,50,0,1
114945,-50,4,1,0,50,0,1
115267,-66.6666666666667,4,1,0,50,0,1
117041,-25,4,1,0,50,0,1
117525,-25,4,1,0,50,0,0

[Colours]
Combo1 : 0,128,255
Combo2 : 255,0,255
Combo3 : 0,128,192
Combo4 : 255,128,255

[HitObjects]
104,244,429,6,0,B|31:211|63:123|144:180|104:244|104:244|203:159|183:239|268:160,1,356.999989105225
255,170,1074,2,0,L|259:110,1,50.9999984436036
316,202,1235,2,0,L|320:142,1,50.9999984436036
368,32,1880,6,0,P|326:50|299:44,1,50.9999984436036
321,49,2041,2,0,P|285:39|259:42,1,50.9999984436036
271,39,2203,2,0,P|229:57|202:51,1,50.9999984436036
224,56,2364,2,0,P|188:46|162:49,1,50.9999984436036
117,288,2687,5,0,0:0:0:0:
173,244,2848,1,0,0:0:0:0:
245,236,3009,1,0,0:0:0:0:
121,97,3332,5,0,0:0:0:0:
191,105,3493,1,0,0:0:0:0:
248,150,3654,1,0,0:0:0:0:
321,163,3816,1,0,0:0:0:0:
329,163,3896,1,0,0:0:0:0:
336,160,3977,1,0,0:0:0:0:
386,98,4138,1,0,0:0:0:0:
309,25,4299,5,0,0:0:0:0:
235,45,4460,1,0,0:0:0:0:
191,105,4621,1,0,0:0:0:0:
193,181,4782,1,0,0:0:0:0:
241,238,4944,1,0,0:0:0:0:
113,290,5267,5,0,0:0:0:0:
169,246,5428,1,0,0:0:0:0:
241,238,5589,1,0,0:0:0:0:
121,97,5912,5,0,0:0:0:0:
191,105,6073,1,0,0:0:0:0:
248,150,6234,1,0,0:0:0:0:
324,162,6396,1,0,0:0:0:0:
332,162,6476,1,0,0:0:0:0:
339,159,6557,1,0,0:0:0:0:
389,97,6718,1,0,0:0:0:0:
305,20,6880,1,0,0:0:0:0:
191,105,7203,5,0,0:0:0:0:
213,129,7283,1,0,0:0:0:0:
201,160,7364,1,0,0:0:0:0:
228,183,7444,1,0,0:0:0:0:
221,213,7525,1,0,0:0:0:0:
431,214,7848,5,0,0:0:0:0:
375,170,8009,1,0,0:0:0:0:
303,162,8170,1,0,0:0:0:0:
303,162,8493,1,0,0:0:0:0:
200,105,8816,5,0,0:0:0:0:
182,122,8896,1,0,0:0:0:0:
182,141,8977,1,0,0:0:0:0:
166,163,9057,1,0,0:0:0:0:
166,177,9138,1,0,0:0:0:0:
166,177,9299,1,0,0:0:0:0:
243,180,9461,5,0,0:0:0:0:
220,247,9622,1,0,0:0:0:0:
136,259,9783,1,0,0:0:0:0:
75,183,9945,1,0,0:0:0:0:
163,96,10106,1,0,0:0:0:0:
346,325,10428,5,0,0:0:0:0:
285,249,10590,1,0,0:0:0:0:
355,158,10751,1,0,0:0:0:0:
355,158,10912,1,0,0:0:0:0:
355,158,11074,1,0,0:0:0:0:
355,158,11235,1,0,0:0:0:0:
268,59,11396,5,0,0:0:0:0:
257,91,11476,1,0,0:0:0:0:
260,111,11557,1,0,0:0:0:0:
248,137,11637,1,0,0:0:0:0:
253,159,11718,1,0,0:0:0:0:
245,182,11799,1,0,0:0:0:0:
252,205,11879,1,0,0:0:0:0:
252,205,11960,1,0,0:0:0:0:
336,274,12203,6,0,P|303:305|264:307,1,50.9999984436036
226,298,12364,2,0,P|191:245|185:231,1,50.9999984436036
174,156,12525,2,0,P|141:187|102:189,1,50.9999984436036
64,180,12686,2,0,P|29:127|23:113,1,50.9999984436036
341,7,13009,5,0,0:0:0:0:
265,46,13170,1,0,0:0:0:0:
266,133,13332,1,0,0:0:0:0:
159,147,13493,1,0,0:0:0:0:
159,147,13574,1,0,0:0:0:0:
92,57,13735,1,0,0:0:0:0:
57,182,13897,1,0,0:0:0:0:
153,243,14058,5,0,0:0:0:0:
161,274,14138,1,0,0:0:0:0:
185,283,14219,1,0,0:0:0:0:
181,304,14299,1,0,0:0:0:0:
195,318,14380,1,0,0:0:0:0:
197,332,14461,1,0,0:0:0:0:
217,340,14541,1,0,0:0:0:0:
217,340,14622,1,0,0:0:0:0:
329,232,14783,1,0,0:0:0:0:
329,232,14864,1,0,0:0:0:0:
246,94,15025,1,0,0:0:0:0:
453,100,15187,1,0,0:0:0:0:
491,204,15348,5,0,0:0:0:0:
460,211,15428,1,0,0:0:0:0:
427,202,15509,1,0,0:0:0:0:
390,164,15590,1,0,0:0:0:0:
394,201,15670,1,0,0:0:0:0:
384,223,15751,1,0,0:0:0:0:
385,258,15832,1,0,0:0:0:0:
385,258,15912,1,0,0:0:0:0:
113,156,16074,1,0,0:0:0:0:
113,156,16154,1,0,0:0:0:0:
262,150,16316,1,0,0:0:0:0:
230,246,16477,1,0,0:0:0:0:
385,258,16638,5,0,0:0:0:0:
385,258,16719,1,0,0:0:0:0:
376,224,16799,1,0,0:0:0:0:
384,206,16880,1,0,0:0:0:0:
378,177,16961,1,0,0:0:0:0:
395,148,17041,1,0,0:0:0:0:
383,106,17122,1,0,0:0:0:0:
408,63,17203,1,0,0:0:0:0:
356,69,17283,1,0,0:0:0:0:
311,94,17364,1,0,0:0:0:0:
260,98,17444,1,0,0:0:0:0:
214,125,17525,1,0,0:0:0:0:
67,187,17687,5,0,0:0:0:0:
120,194,17767,1,0,0:0:0:0:
164,218,17848,1,0,0:0:0:0:
216,223,17928,1,0,0:0:0:0:
261,249,18009,1,0,0:0:0:0:
395,325,18170,6,0,P|408:266|408:219,1,63.7500024318696
417,144,18332,1,0,0:0:0:0:
417,144,18412,1,0,0:0:0:0:
382,158,18493,1,0,0:0:0:0:
317,62,18654,1,0,0:0:0:0:
317,62,18735,1,0,0:0:0:0:
251,132,18896,1,0,0:0:0:0:
152,82,19058,1,0,0:0:0:0:
130,188,19219,5,0,0:0:0:0:
121,202,19299,1,0,0:0:0:0:
127,225,19380,1,0,0:0:0:0:
158,239,19461,1,0,0:0:0:0:
172,254,19541,1,0,0:0:0:0:
153,269,19622,1,0,0:0:0:0:
165,292,19703,1,0,0:0:0:0:
187,301,19783,1,0,0:0:0:0:
340,317,19945,1,0,0:0:0:0:
340,317,20025,1,0,0:0:0:0:
420,212,20187,1,0,0:0:0:0:
329,229,20348,1,0,0:0:0:0:
238,212,20509,5,0,0:0:0:0:
233,190,20590,1,0,0:0:0:0:
241,159,20670,1,0,0:0:0:0:
233,132,20751,1,0,0:0:0:0:
257,131,20832,1,0,0:0:0:0:
280,142,20912,1,0,0:0:0:0:
306,139,20993,1,0,0:0:0:0:
331,127,21074,1,0,0:0:0:0:
458,64,21235,1,0,0:0:0:0:
458,64,21316,1,0,0:0:0:0:
319,40,21477,1,0,0:0:0:0:
180,64,21638,5,0,0:0:0:0:
149,66,21719,1,0,0:0:0:0:
141,87,21799,1,0,0:0:0:0:
133,115,21880,1,0,0:0:0:0:
137,154,21961,1,0,0:0:0:0:
177,131,22041,1,0,0:0:0:0:
185,168,22122,1,0,0:0:0:0:
168,208,22202,1,0,0:0:0:0:
118,222,22283,1,0,0:0:0:0:
222,323,22525,6,0,L|302:306,1,63.7500024318696
306,242,22687,1,0,0:0:0:0:
306,242,22767,1,0,0:0:0:0:
285,310,22928,2,0,B|349:349|382:323|382:323|368:230|466:237|422:202|439:152,1,255.000009727478
436,189,23332,5,0,0:0:0:0:
381,100,23493,1,0,0:0:0:0:
174,51,23654,1,0,0:0:0:0:
253,134,23816,1,0,0:0:0:0:
253,134,23896,1,0,0:0:0:0:
234,150,23977,1,0,0:0:0:0:
227,191,24057,1,0,0:0:0:0:
234,245,24138,1,0,0:0:0:0:
223,292,24218,1,0,0:0:0:0:
234,341,24299,1,0,0:0:0:0:
269,328,24380,1,0,0:0:0:0:
299,344,24461,1,0,0:0:0:0:
328,336,24542,1,0,0:0:0:0:
343,357,24622,1,0,0:0:0:0:
359,359,24702,1,0,0:0:0:0:
375,361,24783,1,0,0:0:0:0:
391,363,24863,1,0,0:0:0:0:
408,337,24944,1,0,0:0:0:0:
321,267,25106,5,0,0:0:0:0:
321,267,25186,1,0,0:0:0:0:
302,251,25267,1,0,0:0:0:0:
307,204,25347,1,0,0:0:0:0:
302,156,25428,1,0,0:0:0:0:
311,106,25508,1,0,0:0:0:0:
302,60,25590,2,0,L|385:53,1,63.7500024318696
263,33,25751,2,0,L|180:26,1,63.7500024318696
257,66,25912,1,0,0:0:0:0:
250,79,25992,1,0,0:0:0:0:
239,91,26073,1,0,0:0:0:0:
225,99,26153,1,0,0:0:0:0:
210,103,26234,1,0,0:0:0:0:
108,53,26396,5,0,0:0:0:0:
108,53,26477,1,0,0:0:0:0:
78,65,26558,1,0,0:0:0:0:
96,109,26638,1,0,0:0:0:0:
114,153,26719,1,0,0:0:0:0:
132,197,26799,1,0,0:0:0:0:
152,240,26880,2,0,B|188:279|186:243|190:199|190:199|218:185|234:218|212:258|212:258|245:252|250:197|312:203,1,255
286,213,27203,5,0,0:0:0:0:
309,238,27283,1,0,0:0:0:0:
345,244,27364,1,0,0:0:0:0:
379,227,27445,1,0,0:0:0:0:
401,190,27525,1,0,0:0:0:0:
417,235,27605,1,0,0:0:0:0:
432,279,27686,1,0,0:0:0:0:
448,325,27766,1,0,0:0:0:0:
467,371,27847,1,0,0:0:0:0:
111,190,28009,1,0,0:0:0:0:
95,235,28089,1,0,0:0:0:0:
80,279,28170,1,0,0:0:0:0:
64,325,28250,1,0,0:0:0:0:
45,371,28331,1,0,0:0:0:0:
178,267,28493,6,0,P|156:244|126:238,1,63.7500024318696
174,343,28654,1,0,0:0:0:0:
174,343,28735,1,0,0:0:0:0:
203,348,28816,1,0,0:0:0:0:
371,319,28977,5,0,0:0:0:0:
371,319,29058,1,0,0:0:0:0:
406,279,29138,1,0,0:0:0:0:
393,237,29219,1,0,0:0:0:0:
417,195,29299,1,0,0:0:0:0:
404,153,29380,1,0,0:0:0:0:
376,123,29461,1,0,0:0:0:0:
351,148,29541,1,0,0:0:0:0:
351,181,29622,1,0,0:0:0:0:
334,208,29702,1,0,0:0:0:0:
344,239,29783,1,0,0:0:0:0:
337,252,29863,1,0,0:0:0:0:
326,264,29944,1,0,0:0:0:0:
312,272,30024,1,0,0:0:0:0:
287,251,30105,1,0,0:0:0:0:
255,322,30187,1,0,0:0:0:0:
185,341,30267,1,0,0:0:0:0:
130,314,30348,1,0,0:0:0:0:
130,314,30428,1,0,0:0:0:0:
187,117,30590,5,0,0:0:0:0:
207,169,30670,1,0,0:0:0:0:
251,181,30752,1,0,0:0:0:0:
285,164,30833,1,0,0:0:0:0:
285,164,30913,1,0,0:0:0:0:
494,137,31074,6,0,P|494:105|477:79,1,63.7500024318696
465,246,31235,1,0,0:0:0:0:
465,246,31316,1,0,0:0:0:0:
465,246,31396,1,0,0:0:0:0:
367,280,31558,1,0,0:0:0:0:
282,204,31719,5,0,0:0:0:0:
236,191,31799,1,0,0:0:0:0:
178,209,31880,1,0,0:0:0:0:
130,230,31960,1,0,0:0:0:0:
70,217,32041,2,0,B|55:265|55:265|137:287,1,85
70,217,32122,2,0,B|118:232|118:232|140:150,1,85
70,217,32203,2,0,B|85:169|85:169|3:147,1,85
70,217,32283,2,0,B|22:202|22:202|0:284,1,85
78,235,32364,1,0,0:0:0:0:
86,210,32445,1,0,0:0:0:0:
58,206,32525,1,0,0:0:0:0:
54,232,32606,1,0,0:0:0:0:
201,332,32686,5,0,0:0:0:0:
201,332,32687,1,0,0:0:0:0:
335,101,32848,1,0,0:0:0:0:
335,101,32849,1,0,0:0:0:0:
268,212,33009,1,0,0:0:0:0:
268,212,33010,1,0,0:0:0:0:
268,212,33090,1,0,0:0:0:0:
268,212,33091,1,0,0:0:0:0:
333,210,33251,2,0,B|377:138|346:68|346:68|195:189|120:114|95:247|95:247|147:220|182:289|246:253|246:253|273:225|269:180,1,680
291,200,33654,6,0,B|312:166|297:134|297:134|227:190|192:155|181:217|181:217|205:204|221:236|251:220|251:220|263:207|262:186,1,255
215,220,33977,1,0,0:0:0:0:
215,220,34622,1,0,0:0:0:0:
117,308,35428,6,0,L|113:175,1,85
111,138,35590,2,0,L|115:271,1,85
311,286,35751,2,0,L|307:153,1,85
305,116,35912,2,0,L|309:249,1,85
215,220,36235,1,0,0:0:0:0:
215,112,36558,5,0,0:0:0:0:
181,128,36638,1,0,0:0:0:0:
160,125,36719,1,0,0:0:0:0:
138,124,36799,1,0,0:0:0:0:
103,140,36880,1,0,0:0:0:0:
422,210,37041,5,0,0:0:0:0:
220,61,37203,1,0,0:0:0:0:
345,102,37364,1,0,0:0:0:0:
266,237,37525,1,0,0:0:0:0:
385,332,37687,1,0,0:0:0:0:
261,144,37848,1,0,0:0:0:0:
427,173,38009,5,0,0:0:0:0:
399,240,38170,1,0,0:0:0:0:
394,195,38332,1,0,0:0:0:0:
387,273,38493,1,0,0:0:0:0:
387,273,38816,2,0,L|125:257,1,255
63,138,39138,5,0,0:0:0:0:
63,138,39299,1,0,0:0:0:0:
63,138,39461,1,0,0:0:0:0:
348,48,39622,1,0,0:0:0:0:
137,246,39783,1,0,0:0:0:0:
225,46,39945,1,0,0:0:0:0:
216,337,40106,1,0,0:0:0:0:
129,118,40267,1,0,0:0:0:0:
96,357,40428,1,0,0:0:0:0:
359,102,40590,5,0,0:0:0:0:
379,125,40751,1,0,0:0:0:0:
375,76,40913,1,0,0:0:0:0:
358,44,41074,1,0,0:0:0:0:
441,57,41235,1,0,0:0:0:0:
54,40,41396,1,0,0:0:0:0:
1,98,41557,1,0,0:0:0:0:
182,98,41719,5,0,0:0:0:0:
191,172,41826,1,0,0:0:0:0:
201,247,41934,1,0,0:0:0:0:
210,322,42041,1,0,0:0:0:0:
73,312,42203,5,0,0:0:0:0:
272,188,42364,1,0,0:0:0:0:
414,272,42525,1,0,0:0:0:0:
123,150,42687,1,0,0:0:0:0:
0,201,42848,1,0,0:0:0:0:
229,57,43009,1,0,0:0:0:0:
360,67,43170,5,0,0:0:0:0:
381,112,43332,1,0,0:0:0:0:
411,70,43493,1,0,0:0:0:0:
432,147,43654,1,0,0:0:0:0:
387,273,43977,2,0,L|125:257,1,255
24,216,44299,5,0,0:0:0:0:
51,178,44379,1,0,0:0:0:0:
96,153,44460,1,0,0:0:0:0:
143,173,44540,1,0,0:0:0:0:
190,159,44621,1,0,0:0:0:0:
217,57,44783,1,0,0:0:0:0:
371,46,44945,1,0,0:0:0:0:
403,201,45106,1,0,0:0:0:0:
178,277,45267,1,0,0:0:0:0:
277,131,45428,1,0,0:0:0:0:
450,111,45590,1,0,0:0:0:0:
255,223,45751,5,0,0:0:0:0:
304,192,45912,1,0,0:0:0:0:
248,174,46074,1,0,0:0:0:0:
299,268,46235,1,0,0:0:0:0:
206,265,46396,1,0,0:0:0:0:
117,195,46558,1,0,0:0:0:0:
91,55,46719,1,0,0:0:0:0:
189,41,46880,5,0,0:0:0:0:
228,93,47041,1,0,0:0:0:0:
288,64,47364,1,0,0:0:0:0:
344,96,47687,1,0,0:0:0:0:
401,63,48009,1,0,0:0:0:0:
431,120,48332,1,0,0:0:0:0:
481,77,48654,1,0,0:0:0:0:
480,188,48977,5,0,0:0:0:0:
419,233,49138,1,0,0:0:0:0:
342,241,49299,1,0,0:0:0:0:
354,71,49461,5,0,0:0:0:0:
319,124,49622,1,0,0:0:0:0:
267,82,49945,1,0,0:0:0:0:
220,128,50268,1,0,0:0:0:0:
167,82,50590,1,0,0:0:0:0:
109,113,50913,1,0,0:0:0:0:
59,70,51235,1,0,0:0:0:0:
225,127,51558,5,0,0:0:0:0:
270,188,51719,1,0,0:0:0:0:
278,265,51880,1,0,0:0:0:0:
110,200,52041,5,0,0:0:0:0:
110,200,52364,1,0,0:0:0:0:
110,200,52687,1,0,0:0:0:0:
363,252,53009,5,0,0:0:0:0:
354,175,53170,1,0,0:0:0:0:
345,98,53332,1,0,0:0:0:0:
345,98,53654,1,0,0:0:0:0:
345,98,53977,1,0,0:0:0:0:
19,154,54299,5,0,0:0:0:0:
28,231,54460,1,0,0:0:0:0:
37,308,54622,1,0,0:0:0:0:
166,267,54783,1,0,0:0:0:0:
295,308,54945,1,0,0:0:0:0:
424,267,55106,1,0,0:0:0:0:
436,165,55267,5,0,0:0:0:0:
307,206,55428,1,0,0:0:0:0:
178,165,55590,1,0,0:0:0:0:
49,206,55751,1,0,0:0:0:0:
259,95,56074,6,0,P|174:97|142:115,1,85
353,195,56235,2,0,P|351:110|333:78,1,85
253,289,56396,2,0,P|338:287|370:269,1,85
159,189,56558,2,0,P|161:274|179:306,1,85
175,96,56719,5,0,0:0:0:0:
351,111,56880,1,0,0:0:0:0:
336,287,57041,1,0,0:0:0:0:
160,272,57203,1,0,0:0:0:0:
83,133,57364,1,0,0:0:0:0:
160,272,57525,2,0,B|137:213|79:175|79:175|85:117,1,170
175,96,57848,1,0,0:0:0:0:
252,235,58009,1,0,0:0:0:0:
252,235,58170,2,0,B|256:193|256:193|198:155|175:96,1,170
419,61,58493,6,0,L|403:164,1,85
316,209,58654,1,0,0:0:0:0:
331,256,58735,1,0,0:0:0:0:
321,295,58816,2,0,B|298:187|364:242|317:95,1,170
233,37,59138,6,0,L|250:168,1,106.25
138,200,59299,1,0,0:0:0:0:
125,262,59380,1,0,0:0:0:0:
144,303,59461,2,0,B|179:158|115:222|150:77,1,212.5
322,120,59783,5,0,0:0:0:0:
322,120,59945,1,0,0:0:0:0:
164,67,60106,2,0,B|301:102|301:102|325:123,1,170
336,212,60428,5,0,0:0:0:0:
177,158,60590,1,0,0:0:0:0:
336,212,60751,2,0,B|199:177|199:177|175:156,1,170
287,98,61074,6,0,B|322:130|322:130|406:79,1,85
230,282,61235,2,0,B|209:262|209:262|111:301,1,85
152,155,61396,2,0,B|184:120|184:120|133:36,1,85
336,212,61557,2,0,B|316:233|316:233|355:331,1,85
336,285,61719,2,0,P|218:221|161:246,1,191.250007295609
182,52,62041,2,0,B|227:100|227:100|138:324,1,212.5
83,319,62364,5,0,0:0:0:0:
54,84,62525,1,0,0:0:0:0:
256,69,62687,2,0,L|220:312,1,170
336,334,63009,5,0,0:0:0:0:
381,23,63170,1,0,0:0:0:0:
118,54,63332,2,0,L|156:314,1,212.5
243,302,63654,6,0,P|301:311|314:255,1,106.25
319,275,63816,2,0,B|270:257|270:257|240:306,1,106.25
243,302,63977,6,0,P|301:311|314:255,1,106.25
319,275,64139,2,0,B|270:257|270:257|237:304,1,106.25
243,302,64299,6,0,P|301:311|314:255,1,106.25
319,275,64461,2,0,B|270:257|270:257|239:304,1,106.25
240,302,64622,6,0,B|150:250|285:157|139:83,1,212.5
88,49,64945,5,0,0:0:0:0:
111,319,65106,1,0,0:0:0:0:
42,194,65267,2,0,P|133:119|228:118,1,170
355,47,65590,5,0,0:0:0:0:
302,384,65751,1,0,0:0:0:0:
403,209,65912,2,0,P|312:134|229:208,1,212.5
126,384,66235,6,0,P|101:350|110:297,1,85
103,308,66396,2,0,P|128:274|119:221,1,85
125,232,66558,2,0,P|100:198|109:145,1,85
102,156,66719,2,0,P|127:122|118:69,1,85
76,18,66880,5,0,0:0:0:0:
132,11,66961,1,0,0:0:0:0:
176,48,67041,1,0,0:0:0:0:
219,49,67122,1,0,0:0:0:0:
230,97,67203,1,0,0:0:0:0:
276,112,67283,1,0,0:0:0:0:
294,147,67364,1,0,0:0:0:0:
325,160,67445,1,0,0:0:0:0:
318,181,67525,2,0,L|305:324,1,127.500004863739
406,115,67848,6,0,L|386:334,1,212.5
89,262,68170,1,0,0:0:0:0:
109,51,68332,1,0,0:0:0:0:
299,37,68493,1,0,0:0:0:0:
283,206,68655,1,0,0:0:0:0:
0,317,68816,5,0,0:0:0:0:
10,212,68978,1,0,0:0:0:0:
0,317,69138,1,0,0:0:0:0:
10,212,69299,1,0,0:0:0:0:
89,262,69461,5,0,0:0:0:0:
109,51,69623,1,0,0:0:0:0:
299,37,69783,2,0,L|278:267,1,170
295,304,70106,5,0,0:0:0:0:
168,293,70267,1,0,0:0:0:0:
394,251,70428,1,0,0:0:0:0:
233,207,70590,1,0,0:0:0:0:
72,238,70751,1,0,0:0:0:0:
249,136,70912,1,0,0:0:0:0:
447,196,71074,1,0,0:0:0:0:
65,81,71235,1,0,0:0:0:0:
444,93,71396,5,0,0:0:0:0:
485,167,71558,1,0,0:0:0:0:
444,93,71719,1,0,0:0:0:0:
485,167,71881,1,0,0:0:0:0:
383,234,72041,5,0,0:0:0:0:
270,191,72203,1,0,0:0:0:0:
206,85,72364,2,0,L|185:315,1,170
60,344,72687,6,0,P|78:270|-13:259,1,170
3,247,72928,2,0,B|88:143|88:143|91:82,1,170
89,106,73170,2,0,P|217:171|228:257,1,170
223,186,73412,2,0,P|173:287|264:303,1,170
197,308,73654,6,0,L|251:301,4,42.5
197,308,73977,6,0,L|37:220,1,170
48,226,74219,2,0,P|117:158|99:58,1,170
116,89,74461,2,0,B|152:146|152:146|286:152,1,170
255,150,74703,2,0,P|344:221|272:275,1,170
255,272,74945,5,0,0:0:0:0:
274,276,75025,1,0,0:0:0:0:
250,286,75106,1,0,0:0:0:0:
269,295,75187,1,0,0:0:0:0:
254,311,75267,1,0,0:0:0:0:
112,206,75428,1,0,0:0:0:0:
112,34,75590,1,0,0:0:0:0:
181,370,75751,5,0,0:0:0:0:
171,368,75832,1,0,0:0:0:0:
162,359,75912,1,0,0:0:0:0:
72,187,76073,1,0,0:0:0:0:
155,19,76235,1,0,0:0:0:0:
58,279,76396,5,0,0:0:0:0:
64,290,76477,1,0,0:0:0:0:
81,275,76558,1,0,0:0:0:0:
101,264,76638,1,0,0:0:0:0:
143,257,76719,1,0,0:0:0:0:
180,278,76799,1,0,0:0:0:0:
204,315,76880,1,0,0:0:0:0:
256,301,76961,1,0,0:0:0:0:
294,260,77041,1,0,0:0:0:0:
301,205,77122,1,0,0:0:0:0:
299,135,77203,5,0,0:0:0:0:
235,112,77283,1,0,0:0:0:0:
171,88,77364,1,0,0:0:0:0:
108,120,77445,1,0,0:0:0:0:
110,190,77525,1,0,0:0:0:0:
174,213,77605,1,0,0:0:0:0:
238,237,77686,1,0,0:0:0:0:
301,205,77767,1,0,0:0:0:0:
301,205,77848,6,0,L|368:228,1,42.5
342,218,79138,5,0,0:0:0:0:
261,22,79783,1,0,0:0:0:0:
185,195,80428,5,0,0:0:0:0:
24,282,80751,1,0,0:0:0:0:
85,314,80912,1,0,0:0:0:0:
153,306,81074,1,0,0:0:0:0:
206,258,81235,1,0,0:0:0:0:
225,258,81316,1,0,0:0:0:0:
240,270,81396,1,0,0:0:0:0:
283,328,81558,1,0,0:0:0:0:
303,98,81719,5,0,0:0:0:0:
294,174,81880,1,0,0:0:0:0:
317,248,82041,1,0,0:0:0:0:
366,308,82202,1,0,0:0:0:0:
434,344,82364,1,0,0:0:0:0:
24,282,82687,5,0,0:0:0:0:
85,314,82848,1,0,0:0:0:0:
153,306,83010,1,0,0:0:0:0:
488,102,83332,5,0,0:0:0:0:
417,82,83493,1,0,0:0:0:0:
356,125,83655,1,0,0:0:0:0:
286,162,83816,1,0,0:0:0:0:
259,160,83897,1,0,0:0:0:0:
244,142,83977,1,0,0:0:0:0:
173,122,84138,1,0,0:0:0:0:
112,165,84300,1,0,0:0:0:0:
8,59,84622,5,0,0:0:0:0:
31,106,84702,1,0,0:0:0:0:
24,147,84782,1,0,0:0:0:0:
17,189,84863,1,0,0:0:0:0:
41,234,84944,1,0,0:0:0:0:
432,308,85267,5,0,0:0:0:0:
350,269,85428,1,0,0:0:0:0:
340,178,85590,1,0,0:0:0:0:
181,153,85912,5,0,0:0:0:0:
244,229,86074,1,0,0:0:0:0:
237,331,86235,1,0,0:0:0:0:
213,296,86315,1,0,0:0:0:0:
175,288,86396,1,0,0:0:0:0:
133,284,86476,1,0,0:0:0:0:
100,310,86557,1,0,0:0:0:0:
34,371,86719,1,0,0:0:0:0:
157,30,86880,5,0,0:0:0:0:
260,44,87041,1,0,0:0:0:0:
341,111,87202,1,0,0:0:0:0:
372,211,87363,1,0,0:0:0:0:
346,313,87525,1,0,0:0:0:0:
100,310,87848,5,0,0:0:0:0:
61,254,88009,1,0,0:0:0:0:
69,187,88170,1,0,0:0:0:0:
267,86,88493,5,0,0:0:0:0:
230,142,88654,1,0,0:0:0:0:
236,209,88816,2,0,P|275:223|297:254,7,63.7500024318696
203,246,89461,5,0,0:0:0:0:
202,267,89542,1,0,0:0:0:0:
225,294,89622,1,0,0:0:0:0:
216,317,89703,1,0,0:0:0:0:
184,334,89784,1,0,0:0:0:0:
151,325,89864,1,0,0:0:0:0:
115,317,89945,1,0,0:0:0:0:
85,287,90025,1,0,0:0:0:0:
37,259,90106,2,0,P|39:181|68:148,2,85.0000032424928
37,259,90428,2,0,P|68:166|28:64,1,191.250007295609
125,52,90751,5,0,0:0:0:0:
170,104,91396,5,0,0:0:0:0:
169,174,92041,5,0,0:0:0:0:
132,237,92687,5,0,0:0:0:0:
125,52,93332,5,0,0:0:0:0:
170,104,93655,5,0,0:0:0:0:
169,174,93977,5,0,0:0:0:0:
132,237,94299,5,0,0:0:0:0:
256,38,94784,5,0,0:0:0:0:
336,300,94945,1,0,0:0:0:0:
176,300,95107,1,0,0:0:0:0:
256,159,95267,1,0,0:0:0:0:
384,32,95428,2,0,P|344:96|312:120,1,63.7500024318696
384,32,95590,2,0,P|388:128|416:164,1,127.500004863739
256,159,96074,6,0,L|256:60,1,63.7500024318696
176,300,96235,2,0,P|107:331|67:334,1,63.7500024318696
336,300,96396,2,0,P|404:331|444:334,1,63.7500024318696
253,324,96558,2,0,B|248:234|248:234|260:244|260:244|254:123,1,191.250007295609
216,39,96880,5,0,0:0:0:0:
203,121,97041,1,0,0:0:0:0:
140,176,97202,1,0,0:0:0:0:
57,178,97363,1,0,0:0:0:0:
57,178,97445,1,0,0:0:0:0:
149,243,97606,1,0,0:0:0:0:
146,349,97767,1,0,0:0:0:0:
250,188,97928,5,0,0:3:0:0:
241,214,98009,1,0,0:0:0:0:
286,207,98089,1,0,0:0:0:0:
323,187,98170,1,0,0:0:0:0:
359,164,98250,1,0,0:0:0:0:
397,164,98331,1,0,0:0:0:0:
376,192,98412,1,0,0:0:0:0:
393,222,98492,1,0,0:0:0:0:
463,327,98654,1,0,0:0:0:0:
463,327,98735,1,0,0:0:0:0:
336,297,98896,1,0,0:0:0:0:
209,327,99058,1,0,0:0:0:0:
56,306,99219,5,0,0:0:0:0:
98,307,99299,1,0,0:0:0:0:
108,265,99379,1,0,0:0:0:0:
108,223,99461,2,0,L|157:156,1,63.7500024318696
255,171,99622,2,0,L|303:103,1,63.7500024318696
397,70,99782,1,0,0:0:0:0:
379,184,99945,1,0,0:0:0:0:
379,184,100025,1,0,0:0:0:0:
272,246,100187,1,0,0:0:0:0:
160,207,100348,1,0,0:0:0:0:
54,133,100509,5,0,0:0:0:0:
28,106,100590,1,0,0:0:0:0:
50,96,100670,1,0,0:0:0:0:
85,99,100751,1,0,0:0:0:0:
125,90,100832,1,0,0:0:0:0:
153,110,100912,1,0,0:0:0:0:
196,89,100993,1,0,0:0:0:0:
238,115,101074,1,0,0:0:0:0:
248,171,101154,1,0,0:0:0:0:
216,211,101235,1,0,0:0:0:0:
184,249,101315,1,0,0:0:0:0:
153,213,101396,1,0,0:0:0:0:
354,115,101558,5,0,0:0:0:0:
344,171,101638,1,0,0:0:0:0:
376,211,101719,1,0,0:0:0:0:
407,249,101799,1,0,0:0:0:0:
438,213,101880,1,0,0:0:0:0:
186,347,102041,6,0,L|164:262,1,63.7500024318696
326,347,102203,2,0,L|348:262,1,63.7500024318696
247,83,102364,1,0,0:0:0:0:
154,126,102525,1,0,0:0:0:0:
154,126,102606,1,0,0:0:0:0:
349,103,102767,1,0,0:0:0:0:
262,192,102928,1,0,0:0:0:0:
106,212,103090,5,0,0:0:0:0:
100,227,103170,1,0,0:0:0:0:
144,234,103251,1,0,0:0:0:0:
176,263,103332,1,0,0:0:0:0:
187,302,103412,1,0,0:0:0:0:
217,322,103493,1,0,0:0:0:0:
261,317,103574,1,0,0:0:0:0:
286,283,103654,1,0,0:0:0:0:
358,155,103816,1,0,0:0:0:0:
358,155,103896,1,0,0:0:0:0:
252,75,104058,1,0,0:0:0:0:
123,81,104219,1,0,0:0:0:0:
214,146,104380,5,0,0:0:0:0:
231,185,104461,1,0,0:0:0:0:
211,226,104541,1,0,0:0:0:0:
228,266,104622,2,0,B|260:324|202:346|186:320|184:269|184:269|155:260|139:244,1,191.250007295609
79,169,104945,1,0,0:0:0:0:
70,285,105106,1,0,0:0:0:0:
70,285,105187,1,0,0:0:0:0:
168,346,105348,1,0,0:0:0:0:
292,311,105509,5,0,0:0:0:0:
332,308,105590,1,0,0:0:0:0:
345,281,105670,1,0,0:0:0:0:
356,244,105751,1,0,0:0:0:0:
347,194,105832,1,0,0:0:0:0:
314,225,105912,1,0,0:0:0:0:
301,170,105993,1,0,0:0:0:0:
328,113,106073,1,0,0:0:0:0:
393,92,106154,1,0,0:0:0:0:
286,12,106396,6,0,P|184:50|150:87,1,85
158,99,106558,1,0,0:0:0:0:
158,99,106638,1,0,0:0:0:0:
286,12,106799,2,0,B|203:55|118:41|118:41|104:83|66:99|66:99|75:159|20:201,1,340
44,180,107203,1,0,0:0:0:0:
116,268,107364,1,0,0:0:0:0:
225,222,107525,1,0,0:0:0:0:
369,64,107687,5,0,0:0:0:0:
372,78,107767,1,0,0:0:0:0:
349,88,107848,1,0,0:0:0:0:
336,140,107928,1,0,0:0:0:0:
360,193,108009,1,0,0:0:0:0:
347,245,108089,1,0,0:0:0:0:
374,264,108170,1,0,0:0:0:0:
354,271,108250,1,0,0:0:0:0:
334,278,108331,1,0,0:0:0:0:
314,286,108411,1,0,0:0:0:0:
285,310,108494,1,0,0:0:0:0:
296,266,108574,1,0,0:0:0:0:
293,222,108655,1,0,0:0:0:0:
285,178,108735,1,0,0:0:0:0:
293,134,108816,1,0,0:0:0:0:
159,57,108977,5,0,0:0:0:0:
159,57,109058,1,0,0:0:0:0:
205,69,109138,1,0,0:0:0:0:
169,124,109218,1,0,0:0:0:0:
157,187,109299,1,0,0:0:0:0:
124,242,109379,1,0,0:0:0:0:
154,298,109461,2,0,P|63:312|22:291,2,113.333333333333
373,280,109783,6,0,P|377:182|392:173,1,85
414,101,109945,1,0,0:0:0:0:
414,101,110025,1,0,0:0:0:0:
399,108,110106,1,0,0:0:0:0:
278,75,110267,5,0,0:0:0:0:
278,75,110348,1,0,0:0:0:0:
217,73,110428,1,0,0:0:0:0:
166,102,110509,1,0,0:0:0:0:
180,160,110590,1,0,0:0:0:0:
149,209,110670,1,0,0:0:0:0:
95,226,110751,2,0,B|42:222|5:250|5:250|32:262|69:261|69:261|44:286|5:283|5:283|17:316|64:334,1,255
77,348,111074,5,0,0:0:0:0:
111,343,111154,1,0,0:0:0:0:
141,311,111235,1,0,0:0:0:0:
185,322,111316,1,0,0:0:0:0:
221,293,111396,1,0,0:0:0:0:
204,229,111476,1,0,0:0:0:0:
221,165,111557,1,0,0:0:0:0:
241,103,111637,1,0,0:0:0:0:
221,38,111718,1,0,0:0:0:0:
352,360,111880,5,0,0:0:0:0:
372,296,111960,1,0,0:0:0:0:
352,232,112041,1,0,0:0:0:0:
330,168,112121,1,0,0:0:0:0:
352,105,112202,1,0,0:0:0:0:
221,38,112364,6,0,P|148:118|126:124,1,85
75,125,112525,1,0,0:0:0:0:
75,125,112606,1,0,0:0:0:0:
66,146,112687,1,0,0:0:0:0:
63,253,112848,5,0,0:0:0:0:
63,253,112928,1,0,0:0:0:0:
98,222,113009,1,0,0:0:0:0:
142,230,113090,1,0,0:0:0:0:
181,204,113170,1,0,0:0:0:0:
210,241,113251,1,0,0:0:0:0:
260,260,113332,2,0,L|234:353,1,85
298,232,113493,2,0,L|324:325,1,85
302,180,113654,1,0,0:0:0:0:
344,156,113735,1,0,0:0:0:0:
388,173,113816,1,0,0:0:0:0:
418,135,113896,1,0,0:0:0:0:
403,85,113977,6,0,B|403:42|368:26|296:18|296:89|328:132|226:163,1,255.000009727478
117,110,114461,6,0,B|116:82|139:71|185:66|185:112|165:140|231:160,1,170
157,295,114945,6,0,P|199:271|221:135,1,170
163,48,115267,6,0,P|152:88|103:111,2,85.0000032424928
236,26,115590,1,0,0:0:0:0:
286,76,115670,1,0,0:0:0:0:
261,135,115750,1,0,0:0:0:0:
237,194,115831,1,0,0:0:0:0:
213,253,115912,6,0,P|173:242|150:193,2,85.0000032424928
235,326,116235,1,0,0:0:0:0:
185,376,116315,1,0,0:0:0:0:
125,352,116395,1,0,0:0:0:0:
66,328,116476,1,0,0:0:0:0:
7,304,116558,5,0,0:0:0:0:
7,304,116559,1,0,0:0:0:0:
505,80,116719,1,0,0:0:0:0:
505,80,116720,1,0,0:0:0:0:
256,192,116880,1,0,0:0:0:0:
256,192,116881,1,0,0:0:0:0:
256,192,116961,1,0,0:0:0:0:
256,192,116962,1,0,0:0:0:0:
144,162,117122,38,0,B|157:204|205:212|205:212|178:254|188:296|188:296|233:282|257:247|257:247|284:284|330:288|330:288|340:244|307:208|307:208|355:188|369:150|369:150|329:132|286:148|286:148|284:99|251:71|251:71|223:106|223:153|223:153|189:143|153:154,1,850
256,192,117525,12,0,117524,0:0:0:0:
