osu file format v14

[General]
AudioFilename: audio.mp3
AudioLeadIn: 0
PreviewTime: 13581
Countdown: 0
SampleSet: Soft
StackLeniency: 0.7
Mode: 3
LetterboxInBreaks: 0
SpecialStyle: 0
WidescreenStoryboard: 0

[Editor]
DistanceSpacing: 0.5
BeatDivisor: 4
GridSize: 4
TimelineZoom: 4.099998

[Metadata]
Title:SAtAN
TitleUnicode:SAtAN
Artist:P*Light
ArtistUnicode:P*Light
Creator:riunosk
Version:ACCURSED
Source:SOUND VOLTEX IV HEAVENLY HAVEN
Tags:satan-p*l-iblis サタン-p*l-イヴリース the 7th kac original song contest オリジナル楽曲コンテスト pichnopop Pxlight speedcore hardstyle electronic instrumental sdvx iv alexdunk famoss jimmyreturnz Video Game
BeatmapID:2811967
BeatmapSetID:1358905

[Difficulty]
HPDrainRate:9
CircleSize:4
OverallDifficulty:8
ApproachRate:5
SliderMultiplier:1.4
SliderTickRate:1

[Events]
//Background and Video events
0,0,"ZOMG SATAN IS HERE TO TORTURE.png",0,0
//Break Periods
//Storyboard Layer 0 (Background)
//Storyboard Layer 1 (Fail)
//Storyboard Layer 2 (Pass)
//Storyboard Layer 3 (Foreground)
//Storyboard Layer 4 (Overlay)
//Storyboard Sound Samples
Sample,97981,0,"SC1.wav",100
Sample,100781,0,"soft-hitfinish.wav",70
Sample,101581,0,"soft-hitfinish.wav",70

[TimingPoints]
781,200,4,2,1,30,1,0
13581,-100,4,2,1,30,0,1
51981,-100,4,2,1,30,0,0
77581,-100,4,2,1,30,0,1
103181,-100,4,2,1,30,0,0

[HitObjects]
64,192,781,5,4,0:0:0:70:soft-hitfinish.wav
192,192,781,1,0,0:0:0:0:
448,192,781,1,0,0:0:0:0:
320,192,881,1,0,0:0:0:0:
192,192,981,1,0,0:0:0:0:
64,192,1081,1,0,0:0:0:0:
320,192,1181,1,0,0:0:0:0:
192,192,1281,1,0,0:0:0:0:
448,192,1381,1,0,0:0:0:0:
64,192,1481,1,0,0:0:0:0:
320,192,1481,1,0,0:0:0:0:
192,192,1581,1,0,0:0:0:0:
448,192,1581,1,0,0:0:0:0:
64,192,1681,1,0,0:0:0:0:
320,192,1781,1,0,0:0:0:0:
192,192,1881,1,0,0:0:0:0:
448,192,1981,1,0,0:0:0:0:
64,192,2081,1,0,0:0:0:0:
320,192,2081,1,0,0:0:0:0:
192,192,2181,1,0,0:0:0:0:
320,192,2281,1,0,0:0:0:0:
64,192,2381,1,0,0:0:0:0:
448,192,2381,1,0,0:0:0:0:
192,192,2481,1,0,0:0:0:0:
320,192,2481,1,0,0:0:0:0:
64,192,2581,1,0,0:0:0:0:
320,192,2681,1,0,0:0:0:0:
448,192,2681,1,0,0:0:0:0:
64,192,2781,1,0,0:0:0:0:
192,192,2881,1,0,0:0:0:0:
320,192,2981,1,0,0:0:0:0:
64,192,3081,1,0,0:0:0:0:
448,192,3081,1,0,0:0:0:0:
192,192,3131,1,0,0:0:0:0:
320,192,3181,1,0,0:0:0:0:
448,192,3181,1,0,0:0:0:0:
64,192,3281,1,0,0:0:0:0:
192,192,3331,1,0,0:0:0:0:
64,192,3381,1,0,0:0:0:0:
320,192,3481,1,0,0:0:0:0:
192,192,3581,1,0,0:0:0:0:
448,192,3681,1,0,0:0:0:0:
320,192,3781,1,0,0:0:0:0:
192,192,3881,1,0,0:0:0:0:
64,192,3981,1,0,0:0:0:0:
320,192,3981,1,0,0:0:0:0:
448,192,3981,1,0,0:0:0:0:
192,192,4081,1,0,0:0:0:0:
320,192,4181,1,0,0:0:0:0:
448,192,4281,1,0,0:0:0:0:
192,192,4381,1,0,0:0:0:0:
320,192,4481,1,0,0:0:0:0:
64,192,4581,1,0,0:0:0:0:
192,192,4681,1,0,0:0:0:0:
448,192,4681,1,0,0:0:0:0:
64,192,4781,1,0,0:0:0:0:
320,192,4781,1,0,0:0:0:0:
448,192,4881,1,0,0:0:0:0:
192,192,4981,1,0,0:0:0:0:
64,192,5081,1,0,0:0:0:0:
320,192,5181,1,0,0:0:0:0:
192,192,5281,1,0,0:0:0:0:
448,192,5281,1,0,0:0:0:0:
64,192,5381,1,0,0:0:0:0:
320,192,5481,1,0,0:0:0:0:
64,192,5581,1,0,0:0:0:0:
192,192,5581,1,0,0:0:0:0:
192,192,5681,1,0,0:0:0:0:
320,192,5681,1,0,0:0:0:0:
64,192,5781,1,0,0:0:0:0:
448,192,5781,1,0,0:0:0:0:
192,192,5881,1,0,0:0:0:0:
320,192,5881,1,0,0:0:0:0:
320,192,5981,1,0,0:0:0:0:
448,192,5981,1,0,0:0:0:0:
64,192,6081,1,0,0:0:0:0:
192,192,6081,1,0,0:0:0:0:
192,192,6181,1,0,0:0:0:0:
320,192,6181,1,0,0:0:0:0:
320,192,6281,1,0,0:0:0:0:
448,192,6281,1,0,0:0:0:0:
64,192,6381,1,0,0:0:0:0:
192,192,6381,1,0,0:0:0:0:
320,192,6481,1,0,0:0:0:0:
448,192,6481,1,0,0:0:0:0:
192,192,6531,1,0,0:0:0:0:
320,192,6581,1,0,0:0:0:0:
448,192,6581,1,0,0:0:0:0:
192,192,6681,1,0,0:0:0:0:
320,192,6681,1,0,0:0:0:0:
64,192,6781,1,0,0:0:0:0:
192,192,6781,1,0,0:0:0:0:
320,192,6881,1,0,0:0:0:0:
448,192,6881,1,0,0:0:0:0:
192,192,6981,1,0,0:0:0:0:
320,192,6981,1,0,0:0:0:0:
64,192,7081,1,0,0:0:0:0:
192,192,7081,1,0,0:0:0:0:
64,192,7181,128,2,7281:0:0:0:0:
320,192,7181,128,4,7381:0:0:0:70:soft-hitfinish.wav
448,192,7181,128,0,7281:0:0:0:0:
192,192,7281,128,0,7481:0:0:0:0:
64,192,7381,128,2,7481:0:0:0:0:
448,192,7381,128,0,7481:0:0:0:0:
320,192,7481,128,0,7681:0:0:0:0:
64,192,7581,128,2,7781:0:0:0:0:
448,192,7581,128,0,7681:0:0:0:0:
192,192,7681,128,0,7781:0:0:0:0:
320,192,7781,128,2,7881:0:0:0:0:
448,192,7781,128,0,7981:0:0:0:0:
192,192,7881,128,0,8081:0:0:0:0:
64,192,7981,128,2,8081:0:0:0:0:
320,192,7981,128,0,8181:0:0:0:0:
448,192,8081,128,0,8281:0:0:0:0:
64,192,8181,128,2,8281:0:0:0:0:
192,192,8181,128,0,8381:0:0:0:0:
320,192,8281,128,0,8481:0:0:0:0:
64,192,8381,128,2,8581:0:0:0:0:
448,192,8381,128,0,8481:0:0:0:0:
192,192,8481,128,0,8581:0:0:0:0:
320,192,8581,128,2,8681:0:0:0:0:
448,192,8581,128,0,8681:0:0:0:0:
192,192,8681,128,0,8781:0:0:0:0:
64,192,8781,128,2,8881:0:0:0:0:
320,192,8781,128,4,8981:0:0:0:70:soft-hitfinish.wav
448,192,8781,128,0,8881:0:0:0:0:
192,192,8881,128,0,9081:0:0:0:0:
64,192,8981,128,2,9081:0:0:0:0:
448,192,8981,128,0,9181:0:0:0:0:
320,192,9081,128,0,9181:0:0:0:0:
64,192,9181,128,2,9381:0:0:0:0:
192,192,9181,128,0,9281:0:0:0:0:
320,192,9281,128,0,9481:0:0:0:0:
192,192,9381,128,2,9581:0:0:0:0:
448,192,9381,128,0,9481:0:0:0:0:
64,192,9481,128,0,9581:0:0:0:0:
320,192,9581,128,2,9681:0:0:0:0:
448,192,9581,128,0,9681:0:0:0:0:
64,192,9681,1,0,0:0:0:0:
192,192,9681,1,0,0:0:0:0:
320,192,9731,1,0,0:0:0:0:
64,192,9781,128,2,9981:0:0:0:0:
192,192,9781,128,0,9881:0:0:0:0:
320,192,9881,128,0,10081:0:0:0:0:
192,192,9981,128,2,10081:0:0:0:0:
448,192,9981,128,0,10081:0:0:0:0:
64,192,10081,128,0,10281:0:0:0:0:
192,192,10181,128,2,10281:0:0:0:0:
448,192,10181,128,0,10281:0:0:0:0:
320,192,10281,1,0,0:0:0:0:
64,192,10381,128,2,10581:0:0:0:0:
192,192,10381,1,4,0:0:0:70:soft-hitfinish.wav
448,192,10381,128,0,10481:0:0:0:0:
192,192,10481,128,2,10581:0:0:0:0:
320,192,10481,1,0,0:0:0:0:
320,192,10581,128,2,10781:0:0:0:0:
448,192,10581,128,0,10681:0:0:0:0:
64,192,10681,1,2,0:0:0:0:
192,192,10681,128,0,10781:0:0:0:0:
64,192,10781,128,2,10981:0:0:0:0:
448,192,10781,128,0,10881:0:0:0:0:
192,192,10881,128,2,10981:0:0:0:0:
320,192,10881,1,0,0:0:0:0:
320,192,10981,128,2,11081:0:0:0:0:
448,192,10981,128,0,11181:0:0:0:0:
64,192,11081,128,2,11281:0:0:0:0:
192,192,11081,1,0,0:0:0:0:
192,192,11181,128,2,11281:0:0:0:0:
320,192,11181,1,0,0:0:0:0:
320,192,11281,128,2,11481:0:0:0:0:
448,192,11281,128,0,11381:0:0:0:0:
64,192,11381,1,2,0:0:0:0:
192,192,11381,128,0,11481:0:0:0:0:
64,192,11481,128,2,11681:0:0:0:0:
448,192,11481,128,0,11581:0:0:0:0:
192,192,11581,128,2,11681:0:0:0:0:
320,192,11581,1,0,0:0:0:0:
320,192,11681,128,2,11781:0:0:0:0:
448,192,11681,128,0,11881:0:0:0:0:
64,192,11781,128,2,11881:0:0:0:0:
192,192,11781,1,0,0:0:0:0:
192,192,11881,128,2,11981:0:0:0:0:
320,192,11881,1,0,0:0:0:0:
64,192,11981,128,2,13481:0:0:0:0:
320,192,11981,128,0,12981:0:0:0:100:SC2.wav
448,192,11981,128,0,13481:0:0:0:0:
192,192,12881,1,0,0:0:0:0:
192,192,12981,128,0,13181:0:0:0:0:
320,192,13081,1,0,0:0:0:0:
320,192,13181,128,0,13481:0:0:0:70:h03.wav
192,192,13281,1,0,0:0:0:0:
192,192,13381,128,0,13481:0:0:0:0:
64,192,13581,1,2,0:0:0:0:
192,192,13581,128,4,13681:0:0:0:70:soft-hitfinish.wav
320,192,13581,128,0,13681:0:0:0:0:
448,192,13581,128,0,13681:0:0:0:0:
64,192,13681,128,0,13881:0:0:0:0:
192,192,13781,128,2,13881:0:0:0:0:
320,192,13781,1,0,0:0:0:0:
448,192,13781,128,0,13881:0:0:0:0:
320,192,13881,128,0,14081:0:0:0:0:
64,192,13981,128,2,14081:0:0:0:0:
192,192,13981,1,0,0:0:0:0:
448,192,13981,128,0,14081:0:0:0:0:
192,192,14081,128,0,14281:0:0:0:0:
64,192,14181,128,2,14281:0:0:0:0:
320,192,14181,128,0,14281:0:0:0:0:
448,192,14181,1,0,0:0:0:0:
448,192,14281,128,0,14481:0:0:0:0:
64,192,14381,128,2,14481:0:0:0:0:
192,192,14381,1,0,0:0:0:0:
320,192,14381,128,0,14481:0:0:0:0:
192,192,14481,128,0,14681:0:0:0:0:
64,192,14581,128,2,14681:0:0:0:0:
320,192,14581,128,0,14681:0:0:0:0:
448,192,14581,1,0,0:0:0:0:
448,192,14681,128,0,14881:0:0:0:0:
64,192,14781,1,2,0:0:0:0:
192,192,14781,128,0,14881:0:0:0:0:
320,192,14781,128,0,14881:0:0:0:0:
64,192,14881,128,0,14981:0:0:0:0:
192,192,14981,1,2,0:0:0:0:
320,192,14981,1,0,0:0:0:0:
448,192,14981,1,0,0:0:0:0:
192,192,15081,1,2,0:0:0:0:
320,192,15081,1,0,0:0:0:0:
448,192,15081,1,0,0:0:0:0:
64,192,15181,1,2,0:0:0:0:
320,192,15181,128,0,15281:0:0:0:0:
448,192,15181,128,0,15281:0:0:0:0:
64,192,15281,128,0,15481:0:0:0:0:
192,192,15381,1,2,0:0:0:0:
320,192,15381,128,0,15481:0:0:0:0:
448,192,15381,128,0,15481:0:0:0:0:
192,192,15481,128,0,15681:0:0:0:0:
64,192,15581,128,2,15681:0:0:0:0:
320,192,15581,1,0,0:0:0:0:
448,192,15581,128,0,15681:0:0:0:0:
320,192,15681,128,0,15881:0:0:0:0:
64,192,15781,128,2,15881:0:0:0:0:
192,192,15781,128,0,15881:0:0:0:0:
448,192,15781,1,0,0:0:0:0:
448,192,15881,128,0,15981:0:0:0:0:
64,192,15981,1,2,0:0:0:0:
192,192,15981,1,0,0:0:0:0:
320,192,15981,1,0,0:0:0:0:
64,192,16081,1,2,0:0:0:0:
192,192,16081,1,0,0:0:0:0:
320,192,16081,1,0,0:0:0:0:
192,192,16181,1,2,0:0:0:0:
320,192,16181,1,0,0:0:0:0:
448,192,16181,1,0,0:0:0:0:
192,192,16281,1,2,0:0:0:0:
320,192,16281,1,0,0:0:0:0:
448,192,16281,1,0,0:0:0:0:
64,192,16381,1,2,0:0:0:0:
320,192,16381,128,0,16481:0:0:0:0:
448,192,16381,128,0,16481:0:0:0:0:
64,192,16481,128,0,16681:0:0:0:0:
192,192,16581,128,2,16681:0:0:0:0:
320,192,16581,128,0,16681:0:0:0:0:
448,192,16581,1,0,0:0:0:0:
448,192,16681,128,0,16881:0:0:0:0:
64,192,16781,128,2,16881:0:0:0:0:
192,192,16781,1,0,0:0:0:0:
320,192,16781,128,0,16881:0:0:0:0:
192,192,16881,128,0,17081:0:0:0:0:
64,192,16981,128,2,17081:0:0:0:0:
320,192,16981,1,0,0:0:0:0:
448,192,16981,128,0,17081:0:0:0:0:
320,192,17081,128,0,17281:0:0:0:0:
64,192,17181,1,2,0:0:0:0:
192,192,17181,128,0,17281:0:0:0:0:
448,192,17181,128,0,17281:0:0:0:0:
64,192,17281,128,0,17481:0:0:0:0:
192,192,17381,128,2,17481:0:0:0:0:
320,192,17381,128,0,17481:0:0:0:0:
448,192,17381,1,0,0:0:0:0:
448,192,17481,128,0,17681:0:0:0:0:
64,192,17581,128,2,17681:0:0:0:0:
192,192,17581,1,0,0:0:0:0:
320,192,17581,128,0,17681:0:0:0:0:
192,192,17681,128,0,17881:0:0:0:0:
64,192,17781,128,2,17881:0:0:0:0:
320,192,17781,128,0,17881:0:0:0:0:
448,192,17781,1,0,0:0:0:0:
448,192,17881,128,0,18081:0:0:0:0:
64,192,17981,1,2,0:0:0:0:
192,192,17981,128,0,18081:0:0:0:0:
320,192,17981,128,0,18081:0:0:0:0:
64,192,18081,128,0,18181:0:0:0:0:
192,192,18181,1,2,0:0:0:0:
320,192,18181,1,0,0:0:0:0:
448,192,18181,1,0,0:0:0:0:
192,192,18281,1,2,0:0:0:0:
320,192,18281,1,0,0:0:0:0:
448,192,18281,1,0,0:0:0:0:
64,192,18381,1,2,0:0:0:0:
320,192,18381,1,0,0:0:0:0:
448,192,18381,1,0,0:0:0:0:
64,192,18481,128,2,18581:0:0:0:0:
320,192,18481,128,0,18581:0:0:0:0:
448,192,18481,128,0,18581:0:0:0:0:
64,192,18681,1,2,0:0:0:0:
320,192,18681,1,0,0:0:0:0:
448,192,18681,1,0,0:0:0:0:
64,192,18781,128,2,18881:0:0:0:0:
320,192,18781,128,0,18881:0:0:0:0:
448,192,18781,128,0,18881:0:0:0:0:
64,192,18981,1,2,0:0:0:0:
192,192,18981,1,0,0:0:0:0:
448,192,18981,1,0,0:0:0:0:
64,192,19081,128,2,19181:0:0:0:0:
192,192,19081,128,0,19181:0:0:0:0:
448,192,19081,128,0,19181:0:0:0:0:
64,192,19281,1,2,0:0:0:0:
192,192,19281,1,0,0:0:0:0:
448,192,19281,1,0,0:0:0:0:
64,192,19381,128,2,19481:0:0:0:0:
192,192,19381,128,0,19481:0:0:0:0:
448,192,19381,128,0,19481:0:0:0:0:
64,192,19581,128,0,19881:0:0:0:70:clapwet.wav
192,192,19581,128,0,19881:0:0:0:0:
320,192,19581,128,0,19881:0:0:0:0:
448,192,19581,128,0,19881:0:0:0:0:
64,192,19981,128,2,20081:0:0:0:0:
192,192,19981,128,4,20081:0:0:0:70:soft-hitfinish.wav
320,192,19981,128,0,20081:0:0:0:0:
448,192,19981,1,0,0:0:0:0:
448,192,20081,128,0,20281:0:0:0:0:
64,192,20181,1,2,0:0:0:0:
192,192,20181,128,0,20281:0:0:0:0:
320,192,20181,128,0,20281:0:0:0:0:
64,192,20281,128,0,20481:0:0:0:0:
192,192,20381,128,2,20481:0:0:0:0:
320,192,20381,1,0,0:0:0:0:
448,192,20381,128,0,20481:0:0:0:0:
320,192,20481,128,0,20681:0:0:0:0:
64,192,20581,128,2,20681:0:0:0:0:
192,192,20581,1,0,0:0:0:0:
448,192,20581,128,0,20681:0:0:0:0:
192,192,20681,128,0,20881:0:0:0:0:
64,192,20781,128,2,20881:0:0:0:0:
320,192,20781,128,0,20881:0:0:0:0:
448,192,20781,1,0,0:0:0:0:
448,192,20881,128,0,21081:0:0:0:0:
64,192,20981,128,2,21081:0:0:0:0:
192,192,20981,1,0,0:0:0:0:
320,192,20981,128,0,21081:0:0:0:0:
192,192,21081,128,0,21281:0:0:0:0:
64,192,21181,128,2,21281:0:0:0:0:
320,192,21181,128,0,21281:0:0:0:0:
448,192,21181,1,0,0:0:0:0:
448,192,21281,128,0,21381:0:0:0:0:
64,192,21381,1,2,0:0:0:0:
192,192,21381,1,0,0:0:0:0:
320,192,21381,1,0,0:0:0:0:
64,192,21481,1,2,0:0:0:0:
192,192,21481,1,0,0:0:0:0:
320,192,21481,1,0,0:0:0:0:
64,192,21581,128,2,21681:0:0:0:0:
192,192,21581,128,0,21681:0:0:0:0:
448,192,21581,1,0,0:0:0:0:
448,192,21681,128,0,21881:0:0:0:0:
64,192,21781,1,2,0:0:0:0:
192,192,21781,128,0,21881:0:0:0:0:
320,192,21781,128,0,21881:0:0:0:0:
64,192,21881,128,0,22081:0:0:0:0:
192,192,21981,128,2,22081:0:0:0:0:
320,192,21981,1,0,0:0:0:0:
448,192,21981,128,0,22081:0:0:0:0:
320,192,22081,128,0,22281:0:0:0:0:
64,192,22181,128,2,22281:0:0:0:0:
192,192,22181,1,0,0:0:0:0:
448,192,22181,128,0,22281:0:0:0:0:
192,192,22281,128,0,22381:0:0:0:0:
64,192,22381,1,2,0:0:0:0:
320,192,22381,1,0,0:0:0:0:
448,192,22381,1,0,0:0:0:0:
64,192,22481,1,2,0:0:0:0:
320,192,22481,1,0,0:0:0:0:
448,192,22481,1,0,0:0:0:0:
64,192,22581,1,2,0:0:0:0:
192,192,22581,1,0,0:0:0:0:
448,192,22581,1,0,0:0:0:0:
64,192,22681,1,2,0:0:0:0:
192,192,22681,1,0,0:0:0:0:
448,192,22681,1,0,0:0:0:0:
64,192,22781,128,2,22881:0:0:0:0:
320,192,22781,1,0,0:0:0:0:
448,192,22781,128,0,22881:0:0:0:0:
320,192,22881,128,0,23081:0:0:0:0:
64,192,22981,128,2,23081:0:0:0:0:
192,192,22981,1,0,0:0:0:0:
448,192,22981,128,0,23081:0:0:0:0:
192,192,23081,1,0,0:0:0:0:
64,192,23181,1,2,0:0:0:0:
192,192,23181,1,4,0:0:0:70:soft-hitfinish.wav
320,192,23181,1,0,0:0:0:0:
448,192,23181,1,0,0:0:0:0:
64,192,23281,1,2,0:0:0:0:
320,192,23281,1,0,0:0:0:0:
448,192,23281,1,0,0:0:0:0:
64,192,23381,1,2,0:0:0:0:
192,192,23381,1,0,0:0:0:0:
448,192,23381,1,0,0:0:0:0:
64,192,23481,1,2,0:0:0:0:
192,192,23481,1,0,0:0:0:0:
320,192,23481,1,0,0:0:0:0:
448,192,23581,128,0,23881:0:0:0:80:SC2.wav
192,192,23681,128,0,23881:0:0:0:0:
320,192,23781,128,0,23881:0:0:0:0:
64,192,23881,1,0,0:0:0:0:
64,192,23981,1,2,0:0:0:0:
192,192,23981,1,4,0:0:0:70:soft-hitfinish.wav
320,192,23981,1,0,0:0:0:0:
448,192,23981,1,0,0:0:0:0:
64,192,24081,1,2,0:0:0:0:
192,192,24081,1,0,0:0:0:0:
448,192,24081,1,0,0:0:0:0:
64,192,24181,1,2,0:0:0:0:
320,192,24181,1,0,0:0:0:0:
448,192,24181,1,0,0:0:0:0:
192,192,24281,1,2,0:0:0:0:
320,192,24281,1,0,0:0:0:0:
448,192,24281,1,0,0:0:0:0:
64,192,24381,128,0,24681:0:0:0:80:SC2.wav
320,192,24481,128,0,24681:0:0:0:0:
192,192,24581,128,0,24681:0:0:0:0:
448,192,24681,1,0,0:0:0:0:
64,192,24781,1,2,0:0:0:0:
192,192,24781,1,0,0:0:0:0:
320,192,24781,1,0,0:0:0:0:
64,192,24881,128,2,24981:0:0:0:0:
192,192,24881,128,0,24981:0:0:0:0:
320,192,24881,128,0,24981:0:0:0:0:
64,192,25081,1,2,0:0:0:0:
192,192,25081,1,0,0:0:0:0:
320,192,25081,1,0,0:0:0:0:
64,192,25181,128,2,25281:0:0:0:0:
192,192,25181,128,0,25281:0:0:0:0:
320,192,25181,128,0,25281:0:0:0:0:
192,192,25381,1,2,0:0:0:0:
320,192,25381,1,0,0:0:0:0:
448,192,25381,1,0,0:0:0:0:
192,192,25481,128,2,25581:0:0:0:0:
320,192,25481,128,0,25581:0:0:0:0:
448,192,25481,128,0,25581:0:0:0:0:
192,192,25681,1,2,0:0:0:0:
320,192,25681,1,0,0:0:0:0:
448,192,25681,1,0,0:0:0:0:
192,192,25781,128,2,25881:0:0:0:0:
320,192,25781,128,0,25881:0:0:0:0:
448,192,25781,128,0,25881:0:0:0:0:
64,192,25981,128,0,26081:0:0:0:100:reload.wav
192,192,26006,128,0,26081:0:0:0:0:
320,192,26031,128,0,26081:0:0:0:0:
448,192,26181,128,0,26281:0:0:0:0:
320,192,26206,128,0,26281:0:0:0:0:
192,192,26231,128,0,26281:0:0:0:0:
64,192,26381,1,2,0:0:0:0:
192,192,26381,128,4,26481:0:0:0:70:soft-hitfinish.wav
320,192,26381,128,0,26481:0:0:0:0:
448,192,26381,128,0,26481:0:0:0:0:
64,192,26481,128,0,26681:0:0:0:0:
192,192,26581,128,2,26681:0:0:0:0:
320,192,26581,128,0,26681:0:0:0:0:
448,192,26581,1,0,0:0:0:0:
448,192,26681,128,0,26881:0:0:0:0:
64,192,26781,128,2,26881:0:0:0:0:
192,192,26781,1,0,0:0:0:0:
320,192,26781,128,0,26881:0:0:0:0:
192,192,26881,128,0,27081:0:0:0:0:
64,192,26981,128,2,27081:0:0:0:0:
320,192,26981,1,0,0:0:0:0:
448,192,26981,128,0,27081:0:0:0:0:
320,192,27081,128,0,27281:0:0:0:0:
64,192,27181,128,2,27281:0:0:0:0:
192,192,27181,1,0,0:0:0:0:
448,192,27181,128,0,27281:0:0:0:0:
192,192,27281,128,0,27481:0:0:0:0:
64,192,27381,128,2,27481:0:0:0:0:
320,192,27381,128,0,27481:0:0:0:0:
448,192,27381,1,0,0:0:0:0:
448,192,27481,128,0,27681:0:0:0:0:
64,192,27581,1,2,0:0:0:0:
192,192,27581,128,0,27681:0:0:0:0:
320,192,27581,128,0,27681:0:0:0:0:
64,192,27681,128,0,27781:0:0:0:0:
192,192,27781,1,2,0:0:0:0:
320,192,27781,1,0,0:0:0:0:
448,192,27781,1,0,0:0:0:0:
192,192,27881,1,2,0:0:0:0:
320,192,27881,1,0,0:0:0:0:
448,192,27881,1,0,0:0:0:0:
64,192,27981,1,2,0:0:0:0:
320,192,27981,128,0,28081:0:0:0:0:
448,192,27981,128,0,28081:0:0:0:0:
64,192,28081,128,0,28281:0:0:0:0:
192,192,28181,128,2,28281:0:0:0:0:
320,192,28181,1,0,0:0:0:0:
448,192,28181,128,0,28281:0:0:0:0:
320,192,28281,128,0,28481:0:0:0:0:
64,192,28381,128,2,28481:0:0:0:0:
192,192,28381,1,0,0:0:0:0:
448,192,28381,128,0,28481:0:0:0:0:
192,192,28481,128,0,28681:0:0:0:0:
64,192,28581,128,2,28681:0:0:0:0:
320,192,28581,1,0,0:0:0:0:
448,192,28581,128,0,28681:0:0:0:0:
320,192,28681,128,0,28781:0:0:0:0:
64,192,28781,1,2,0:0:0:0:
192,192,28781,1,0,0:0:0:0:
448,192,28781,1,0,0:0:0:0:
64,192,28881,1,2,0:0:0:0:
192,192,28881,1,0,0:0:0:0:
448,192,28881,1,0,0:0:0:0:
64,192,28981,1,2,0:0:0:0:
320,192,28981,1,0,0:0:0:0:
448,192,28981,1,0,0:0:0:0:
64,192,29081,1,2,0:0:0:0:
320,192,29081,1,0,0:0:0:0:
448,192,29081,1,0,0:0:0:0:
64,192,29181,1,2,0:0:0:0:
192,192,29181,1,0,0:0:0:0:
448,192,29231,1,2,0:0:0:0:
192,192,29281,1,2,0:0:0:0:
320,192,29281,1,0,0:0:0:0:
64,192,29331,1,2,0:0:0:0:
320,192,29381,1,2,0:0:0:0:
448,192,29381,1,0,0:0:0:0:
64,192,29431,1,2,0:0:0:0:
192,192,29481,1,2,0:0:0:0:
320,192,29481,1,0,0:0:0:0:
448,192,29531,1,2,0:0:0:0:
64,192,29581,128,2,29681:0:0:0:0:
192,192,29581,1,0,0:0:0:0:
192,192,29681,128,0,29881:0:0:0:0:
64,192,29781,128,2,29881:0:0:0:0:
320,192,29781,1,0,0:0:0:0:
448,192,29781,128,0,29881:0:0:0:0:
320,192,29881,128,0,30081:0:0:0:0:
64,192,29981,1,2,0:0:0:0:
192,192,29981,128,0,30081:0:0:0:0:
448,192,29981,128,0,30081:0:0:0:0:
64,192,30081,128,0,30281:0:0:0:0:
192,192,30181,128,2,30281:0:0:0:0:
320,192,30181,128,0,30281:0:0:0:0:
448,192,30181,1,0,0:0:0:0:
448,192,30281,128,0,30481:0:0:0:0:
64,192,30381,1,2,0:0:0:0:
192,192,30381,128,0,30481:0:0:0:0:
320,192,30381,128,0,30481:0:0:0:0:
64,192,30481,128,0,30681:0:0:0:0:
192,192,30581,128,2,30681:0:0:0:0:
320,192,30581,128,0,30681:0:0:0:0:
448,192,30581,1,0,0:0:0:0:
448,192,30681,128,0,30881:0:0:0:0:
64,192,30781,128,2,30881:0:0:0:0:
192,192,30781,1,0,0:0:0:0:
320,192,30781,128,0,30881:0:0:0:0:
192,192,30881,128,0,30981:0:0:0:0:
64,192,30981,1,2,0:0:0:0:
320,192,30981,1,0,0:0:0:0:
448,192,30981,1,0,0:0:0:0:
64,192,31081,1,2,0:0:0:0:
320,192,31081,1,0,0:0:0:0:
448,192,31081,1,0,0:0:0:0:
64,192,31181,128,2,31381:0:0:0:0:
192,192,31181,128,4,31281:0:0:0:70:soft-hitfinish.wav
448,192,31181,128,0,31381:0:0:0:0:
320,192,31281,128,0,31381:0:0:0:0:
192,192,31381,1,0,0:0:0:50:S1.wav
64,192,31481,128,2,31681:0:0:0:0:
320,192,31481,128,4,31581:0:0:0:70:soft-hitfinish.wav
448,192,31481,128,0,31681:0:0:0:0:
192,192,31581,128,0,31681:0:0:0:0:
320,192,31681,1,0,0:0:0:50:S1.wav
64,192,31781,128,2,31981:0:0:0:0:
192,192,31781,128,4,31881:0:0:0:70:soft-hitfinish.wav
448,192,31781,128,0,31981:0:0:0:0:
320,192,31881,128,0,31981:0:0:0:0:
192,192,31981,1,0,0:0:0:50:S1.wav
64,192,32081,1,2,0:0:0:0:
320,192,32081,1,4,0:0:0:70:soft-hitfinish.wav
448,192,32081,1,0,0:0:0:0:
64,192,32181,1,2,0:0:0:0:
320,192,32181,1,0,0:0:0:0:
448,192,32181,1,0,0:0:0:0:
64,192,32281,1,2,0:0:0:0:
320,192,32281,1,0,0:0:0:0:
448,192,32281,1,0,0:0:0:0:
192,192,32381,128,0,32481:0:0:0:100:SC1.wav
320,192,32481,128,0,32581:0:0:0:0:
192,192,32581,128,0,32681:0:0:0:100:SC1.wav
320,192,32681,128,0,32781:0:0:0:0:
64,192,32781,128,2,32881:0:0:0:0:
192,192,32781,128,4,32881:0:0:0:70:soft-hitfinish.wav
448,192,32781,1,0,0:0:0:0:
448,192,32881,128,0,33081:0:0:0:0:
64,192,32981,1,2,0:0:0:0:
192,192,32981,128,0,33081:0:0:0:0:
320,192,32981,128,0,33081:0:0:0:0:
64,192,33081,128,0,33281:0:0:0:0:
192,192,33181,128,2,33281:0:0:0:0:
320,192,33181,1,0,0:0:0:0:
448,192,33181,128,0,33281:0:0:0:0:
320,192,33281,128,0,33481:0:0:0:0:
64,192,33381,128,2,33481:0:0:0:0:
192,192,33381,1,0,0:0:0:0:
448,192,33381,128,0,33481:0:0:0:0:
192,192,33481,128,0,33681:0:0:0:0:
64,192,33581,128,2,33681:0:0:0:0:
320,192,33581,128,0,33681:0:0:0:0:
448,192,33581,1,0,0:0:0:0:
448,192,33681,128,0,33881:0:0:0:0:
64,192,33781,128,2,33881:0:0:0:0:
192,192,33781,1,0,0:0:0:0:
320,192,33781,128,0,33881:0:0:0:0:
192,192,33881,128,0,34081:0:0:0:0:
64,192,33981,128,2,34081:0:0:0:0:
320,192,33981,1,0,0:0:0:0:
448,192,33981,128,0,34081:0:0:0:0:
320,192,34081,128,0,34181:0:0:0:0:
64,192,34181,1,2,0:0:0:0:
192,192,34181,1,0,0:0:0:0:
448,192,34181,1,0,0:0:0:0:
64,192,34281,1,2,0:0:0:0:
192,192,34281,1,0,0:0:0:0:
448,192,34281,1,0,0:0:0:0:
64,192,34381,128,2,34481:0:0:0:0:
192,192,34381,128,4,34481:0:0:0:70:soft-hitfinish.wav
320,192,34381,1,0,0:0:0:0:
448,192,34381,128,0,34481:0:0:0:0:
320,192,34481,128,0,34681:0:0:0:0:
64,192,34581,128,2,34681:0:0:0:0:
192,192,34581,1,0,0:0:0:0:
448,192,34581,128,0,34681:0:0:0:0:
192,192,34681,128,0,34881:0:0:0:0:
64,192,34781,128,2,34881:0:0:0:0:
320,192,34781,128,0,34881:0:0:0:0:
448,192,34781,1,0,0:0:0:0:
448,192,34881,128,0,35081:0:0:0:0:
64,192,34981,1,2,0:0:0:0:
192,192,34981,128,0,35081:0:0:0:0:
320,192,34981,128,0,35081:0:0:0:0:
64,192,35081,128,0,35181:0:0:0:0:
192,192,35181,1,2,0:0:0:0:
320,192,35181,1,0,0:0:0:0:
448,192,35181,1,0,0:0:0:0:
192,192,35281,1,2,0:0:0:0:
320,192,35281,1,0,0:0:0:0:
448,192,35281,1,0,0:0:0:0:
64,192,35381,1,2,0:0:0:0:
192,192,35381,1,0,0:0:0:0:
320,192,35381,1,0,0:0:0:0:
64,192,35481,1,2,0:0:0:0:
192,192,35481,1,0,0:0:0:0:
320,192,35481,1,0,0:0:0:0:
320,192,35581,1,2,0:0:0:0:
448,192,35581,1,0,0:0:0:0:
64,192,35631,1,2,0:0:0:0:
192,192,35681,1,2,0:0:0:0:
320,192,35681,1,0,0:0:0:0:
448,192,35731,1,2,0:0:0:0:
64,192,35781,1,2,0:0:0:0:
192,192,35781,1,0,0:0:0:0:
448,192,35831,1,2,0:0:0:0:
192,192,35881,1,2,0:0:0:0:
320,192,35881,1,0,0:0:0:0:
64,192,35931,1,2,0:0:0:0:
320,192,35981,1,2,0:0:0:0:
448,192,35981,1,4,0:0:0:70:soft-hitfinish.wav
64,192,36081,1,2,0:0:0:0:
448,192,36081,1,0,0:0:0:0:
64,192,36181,1,2,0:0:0:0:
192,192,36181,1,0,0:0:0:0:
320,192,36181,1,0,0:0:0:0:
192,192,36281,1,2,0:0:0:0:
448,192,36281,1,0,0:0:0:0:
64,192,36381,1,2,0:0:0:0:
320,192,36381,1,0,0:0:0:0:
448,192,36381,1,0,0:0:0:0:
64,192,36481,1,2,0:0:0:0:
192,192,36481,1,0,0:0:0:0:
192,192,36581,1,2,0:0:0:0:
320,192,36581,1,0,0:0:0:0:
448,192,36581,1,0,0:0:0:0:
64,192,36681,1,2,0:0:0:0:
448,192,36681,1,0,0:0:0:0:
64,192,36781,1,2,0:0:0:0:
192,192,36781,1,4,0:0:0:70:soft-hitfinish.wav
320,192,36781,1,0,0:0:0:0:
320,192,36881,1,2,0:0:0:0:
448,192,36881,1,0,0:0:0:0:
64,192,36981,1,2,0:0:0:0:
192,192,36981,1,0,0:0:0:0:
448,192,36981,1,0,0:0:0:0:
192,192,37081,1,2,0:0:0:0:
320,192,37081,1,0,0:0:0:0:
64,192,37181,1,2,0:0:0:0:
320,192,37181,1,0,0:0:0:0:
448,192,37181,1,0,0:0:0:0:
64,192,37281,1,2,0:0:0:0:
192,192,37281,1,0,0:0:0:0:
192,192,37381,1,2,0:0:0:0:
320,192,37381,1,0,0:0:0:0:
448,192,37381,1,0,0:0:0:0:
64,192,37481,1,2,0:0:0:0:
448,192,37481,1,0,0:0:0:0:
64,192,37581,1,2,0:0:0:0:
192,192,37581,1,4,0:0:0:70:soft-hitfinish.wav
320,192,37581,1,0,0:0:0:0:
320,192,37681,1,2,0:0:0:0:
448,192,37681,1,0,0:0:0:0:
64,192,37781,1,2,0:0:0:0:
192,192,37781,1,0,0:0:0:0:
448,192,37781,1,0,0:0:0:0:
192,192,37881,1,2,0:0:0:0:
320,192,37881,1,0,0:0:0:0:
320,192,37981,1,2,0:0:0:0:
448,192,37981,1,0,0:0:0:0:
64,192,38031,1,2,0:0:0:0:
192,192,38081,1,2,0:0:0:0:
320,192,38081,1,0,0:0:0:0:
448,192,38131,1,2,0:0:0:0:
64,192,38181,1,2,0:0:0:0:
192,192,38181,1,0,0:0:0:0:
448,192,38231,1,2,0:0:0:0:
192,192,38281,1,2,0:0:0:0:
320,192,38281,1,0,0:0:0:0:
64,192,38331,1,2,0:0:0:0:
320,192,38381,128,2,38481:0:0:0:0:
448,192,38381,1,0,0:0:0:0:
320,192,38581,1,0,0:0:0:0:
320,192,38681,128,0,38781:0:0:0:0:
320,192,38881,1,0,0:0:0:0:
320,192,38981,128,0,39081:0:0:0:0:
64,192,39181,128,2,39281:0:0:0:0:
192,192,39181,1,4,0:0:0:70:soft-hitfinish.wav
320,192,39181,128,0,39281:0:0:0:0:
448,192,39181,128,0,39281:0:0:0:0:
192,192,39281,128,0,39481:0:0:0:0:
64,192,39381,128,2,39481:0:0:0:0:
320,192,39381,128,0,39481:0:0:0:0:
448,192,39381,1,0,0:0:0:0:
448,192,39481,128,0,39681:0:0:0:0:
64,192,39581,1,2,0:0:0:0:
192,192,39581,128,0,39681:0:0:0:0:
320,192,39581,128,0,39681:0:0:0:0:
64,192,39681,128,0,39881:0:0:0:0:
192,192,39781,128,2,39881:0:0:0:0:
320,192,39781,1,0,0:0:0:0:
448,192,39781,128,0,39881:0:0:0:0:
320,192,39881,128,0,40081:0:0:0:0:
64,192,39981,128,2,40081:0:0:0:0:
192,192,39981,1,0,0:0:0:0:
448,192,39981,128,0,40081:0:0:0:0:
192,192,40081,128,0,40281:0:0:0:0:
64,192,40181,128,2,40281:0:0:0:0:
320,192,40181,128,0,40281:0:0:0:0:
448,192,40181,1,0,0:0:0:0:
448,192,40281,128,0,40481:0:0:0:0:
64,192,40381,1,2,0:0:0:0:
192,192,40381,128,0,40481:0:0:0:0:
320,192,40381,128,0,40481:0:0:0:0:
64,192,40481,128,0,40581:0:0:0:0:
192,192,40581,1,2,0:0:0:0:
320,192,40581,1,0,0:0:0:0:
448,192,40581,1,0,0:0:0:0:
192,192,40681,1,2,0:0:0:0:
320,192,40681,1,0,0:0:0:0:
448,192,40681,1,0,0:0:0:0:
64,192,40781,1,2,0:0:0:0:
320,192,40781,128,0,40881:0:0:0:0:
448,192,40781,128,0,40881:0:0:0:0:
64,192,40881,128,0,41081:0:0:0:0:
192,192,40981,128,2,41081:0:0:0:0:
320,192,40981,1,0,0:0:0:0:
448,192,40981,128,0,41081:0:0:0:0:
320,192,41081,128,0,41281:0:0:0:0:
64,192,41181,128,2,41281:0:0:0:0:
192,192,41181,1,0,0:0:0:0:
448,192,41181,128,0,41281:0:0:0:0:
192,192,41281,128,0,41481:0:0:0:0:
64,192,41381,128,2,41481:0:0:0:0:
320,192,41381,128,0,41481:0:0:0:0:
448,192,41381,1,0,0:0:0:0:
448,192,41481,128,0,41581:0:0:0:0:
64,192,41581,1,2,0:0:0:0:
192,192,41581,1,0,0:0:0:0:
320,192,41581,1,0,0:0:0:0:
64,192,41681,1,2,0:0:0:0:
192,192,41681,1,0,0:0:0:0:
320,192,41681,1,0,0:0:0:0:
192,192,41781,1,2,0:0:0:0:
320,192,41781,1,0,0:0:0:0:
448,192,41781,1,0,0:0:0:0:
192,192,41881,1,2,0:0:0:0:
320,192,41881,1,0,0:0:0:0:
448,192,41881,1,0,0:0:0:0:
64,192,41981,1,2,0:0:0:0:
320,192,41981,128,0,42081:0:0:0:0:
448,192,41981,128,0,42081:0:0:0:0:
64,192,42081,128,0,42281:0:0:0:0:
192,192,42181,128,2,42281:0:0:0:0:
320,192,42181,128,0,42281:0:0:0:0:
448,192,42181,1,0,0:0:0:0:
448,192,42281,128,0,42481:0:0:0:0:
64,192,42381,128,2,42481:0:0:0:0:
192,192,42381,1,0,0:0:0:0:
320,192,42381,128,0,42481:0:0:0:0:
192,192,42481,128,0,42681:0:0:0:0:
64,192,42581,128,2,42681:0:0:0:0:
320,192,42581,1,0,0:0:0:0:
448,192,42581,128,0,42681:0:0:0:0:
320,192,42681,128,0,42881:0:0:0:0:
64,192,42781,1,2,0:0:0:0:
192,192,42781,128,0,42881:0:0:0:0:
448,192,42781,128,0,42881:0:0:0:0:
64,192,42881,128,0,43081:0:0:0:0:
192,192,42981,128,2,43081:0:0:0:0:
320,192,42981,128,0,43081:0:0:0:0:
448,192,42981,1,0,0:0:0:0:
448,192,43081,128,0,43281:0:0:0:0:
64,192,43181,1,2,0:0:0:0:
192,192,43181,128,0,43281:0:0:0:0:
320,192,43181,128,0,43281:0:0:0:0:
64,192,43281,128,0,43481:0:0:0:0:
192,192,43381,128,2,43481:0:0:0:0:
320,192,43381,1,0,0:0:0:0:
448,192,43381,128,0,43481:0:0:0:0:
320,192,43481,128,0,43681:0:0:0:0:
64,192,43581,128,2,43681:0:0:0:0:
192,192,43581,1,0,0:0:0:0:
448,192,43581,128,0,43681:0:0:0:0:
192,192,43681,128,0,43781:0:0:0:0:
64,192,43781,1,2,0:0:0:0:
320,192,43781,1,0,0:0:0:0:
448,192,43781,1,0,0:0:0:0:
64,192,43881,1,2,0:0:0:0:
320,192,43881,1,0,0:0:0:0:
448,192,43881,1,0,0:0:0:0:
64,192,43981,1,2,0:0:0:0:
192,192,43981,1,0,0:0:0:0:
320,192,43981,1,0,0:0:0:0:
64,192,44081,128,2,44181:0:0:0:0:
192,192,44081,128,0,44181:0:0:0:0:
320,192,44081,128,0,44181:0:0:0:0:
448,192,44181,1,0,0:0:0:50:S1.wav
64,192,44281,1,2,0:0:0:0:
192,192,44281,1,0,0:0:0:0:
320,192,44281,1,0,0:0:0:0:
64,192,44381,128,2,44481:0:0:0:0:
192,192,44381,128,0,44481:0:0:0:0:
320,192,44381,128,0,44481:0:0:0:0:
448,192,44481,1,0,0:0:0:50:S1.wav
192,192,44581,1,2,0:0:0:0:
320,192,44581,1,0,0:0:0:0:
448,192,44581,1,0,0:0:0:0:
192,192,44681,128,2,44781:0:0:0:0:
320,192,44681,128,0,44781:0:0:0:0:
448,192,44681,128,0,44781:0:0:0:0:
64,192,44781,1,0,0:0:0:50:S1.wav
192,192,44881,1,2,0:0:0:0:
320,192,44881,1,0,0:0:0:0:
448,192,44881,1,0,0:0:0:0:
192,192,44981,128,2,45081:0:0:0:0:
320,192,44981,128,0,45081:0:0:0:0:
448,192,44981,128,0,45081:0:0:0:0:
64,192,45181,128,0,45481:0:0:0:70:clapwet.wav
192,192,45181,128,0,45481:0:0:0:0:
320,192,45181,128,0,45481:0:0:0:0:
448,192,45181,128,0,45481:0:0:0:0:
64,192,45581,128,2,45681:0:0:0:0:
192,192,45581,128,4,45681:0:0:0:70:soft-hitfinish.wav
320,192,45581,1,0,0:0:0:0:
448,192,45581,128,0,45681:0:0:0:0:
320,192,45681,128,0,45881:0:0:0:0:
64,192,45781,128,2,45881:0:0:0:0:
192,192,45781,1,0,0:0:0:0:
448,192,45781,128,0,45881:0:0:0:0:
192,192,45881,128,0,46081:0:0:0:0:
64,192,45981,128,2,46081:0:0:0:0:
320,192,45981,128,0,46081:0:0:0:0:
448,192,45981,1,0,0:0:0:0:
448,192,46081,128,0,46281:0:0:0:0:
64,192,46181,1,2,0:0:0:0:
192,192,46181,128,0,46281:0:0:0:0:
320,192,46181,128,0,46281:0:0:0:0:
64,192,46281,128,0,46481:0:0:0:0:
192,192,46381,128,2,46481:0:0:0:0:
320,192,46381,1,0,0:0:0:0:
448,192,46381,128,0,46481:0:0:0:0:
320,192,46481,128,0,46681:0:0:0:0:
64,192,46581,1,2,0:0:0:0:
192,192,46581,128,0,46681:0:0:0:0:
448,192,46581,128,0,46681:0:0:0:0:
64,192,46681,128,0,46881:0:0:0:0:
192,192,46781,128,2,46881:0:0:0:0:
320,192,46781,128,0,46881:0:0:0:0:
448,192,46781,1,0,0:0:0:0:
448,192,46881,128,0,46981:0:0:0:0:
64,192,46981,1,2,0:0:0:0:
192,192,46981,1,0,0:0:0:0:
320,192,46981,1,0,0:0:0:0:
64,192,47081,1,2,0:0:0:0:
192,192,47081,1,0,0:0:0:0:
320,192,47081,1,0,0:0:0:0:
64,192,47181,128,2,47281:0:0:0:0:
192,192,47181,128,0,47281:0:0:0:0:
448,192,47181,1,0,0:0:0:0:
448,192,47281,128,0,47481:0:0:0:0:
64,192,47381,128,2,47481:0:0:0:0:
192,192,47381,1,0,0:0:0:0:
320,192,47381,128,0,47481:0:0:0:0:
192,192,47481,128,0,47681:0:0:0:0:
64,192,47581,128,2,47681:0:0:0:0:
320,192,47581,1,0,0:0:0:0:
448,192,47581,128,0,47681:0:0:0:0:
320,192,47681,128,0,47881:0:0:0:0:
64,192,47781,1,2,0:0:0:0:
192,192,47781,128,0,47881:0:0:0:0:
448,192,47781,128,0,47881:0:0:0:0:
64,192,47881,128,0,47981:0:0:0:0:
192,192,47981,1,2,0:0:0:0:
320,192,47981,1,0,0:0:0:0:
448,192,47981,1,0,0:0:0:0:
192,192,48081,1,2,0:0:0:0:
320,192,48081,1,0,0:0:0:0:
448,192,48081,1,0,0:0:0:0:
64,192,48181,1,2,0:0:0:0:
192,192,48181,1,0,0:0:0:0:
320,192,48181,1,0,0:0:0:0:
64,192,48281,1,2,0:0:0:0:
192,192,48281,1,0,0:0:0:0:
320,192,48281,1,0,0:0:0:0:
64,192,48381,128,2,48481:0:0:0:0:
192,192,48381,128,0,48481:0:0:0:0:
448,192,48381,1,0,0:0:0:0:
448,192,48481,128,0,48681:0:0:0:0:
64,192,48581,1,2,0:0:0:0:
192,192,48581,128,0,48681:0:0:0:0:
320,192,48581,128,0,48681:0:0:0:0:
64,192,48681,1,0,0:0:0:0:
64,192,48781,1,2,0:0:0:0:
192,192,48781,1,4,0:0:0:70:soft-hitfinish.wav
320,192,48781,1,0,0:0:0:0:
448,192,48781,1,0,0:0:0:0:
192,192,48881,1,2,0:0:0:0:
320,192,48881,1,0,0:0:0:0:
448,192,48881,1,0,0:0:0:0:
64,192,48981,1,2,0:0:0:0:
320,192,48981,1,0,0:0:0:0:
448,192,48981,1,0,0:0:0:0:
64,192,49081,1,2,0:0:0:0:
192,192,49081,1,0,0:0:0:0:
448,192,49081,1,0,0:0:0:0:
448,192,49181,128,0,49481:0:0:0:80:SC2.wav
192,192,49281,128,0,49481:0:0:0:0:
320,192,49381,128,0,49481:0:0:0:0:
64,192,49481,1,0,0:0:0:0:
64,192,49581,1,2,0:0:0:0:
192,192,49581,1,4,0:0:0:70:soft-hitfinish.wav
320,192,49581,1,0,0:0:0:0:
448,192,49581,1,0,0:0:0:0:
64,192,49681,1,2,0:0:0:0:
192,192,49681,1,0,0:0:0:0:
320,192,49681,1,0,0:0:0:0:
64,192,49781,1,2,0:0:0:0:
192,192,49781,1,0,0:0:0:0:
448,192,49781,1,0,0:0:0:0:
64,192,49881,1,2,0:0:0:0:
320,192,49881,1,0,0:0:0:0:
448,192,49881,1,0,0:0:0:0:
64,192,49981,128,0,50281:0:0:0:80:SC2.wav
320,192,50081,128,0,50281:0:0:0:0:
192,192,50181,128,0,50281:0:0:0:0:
448,192,50281,1,0,0:0:0:0:
64,192,50381,1,2,0:0:0:0:
192,192,50381,1,4,0:0:0:70:soft-hitfinish.wav
320,192,50381,1,0,0:0:0:0:
448,192,50381,1,0,0:0:0:0:
64,192,50481,1,2,0:0:0:0:
192,192,50481,1,0,0:0:0:0:
64,192,50581,1,2,0:0:0:0:
320,192,50581,1,0,0:0:0:0:
448,192,50581,1,0,0:0:0:0:
320,192,50681,1,2,0:0:0:0:
448,192,50681,1,0,0:0:0:0:
64,192,50781,1,2,0:0:0:0:
192,192,50781,1,0,0:0:0:0:
448,192,50781,1,0,0:0:0:0:
64,192,50881,1,2,0:0:0:0:
192,192,50881,1,0,0:0:0:0:
64,192,50981,1,2,0:0:0:0:
448,192,50981,1,0,0:0:0:0:
192,192,51031,1,2,0:0:0:0:
320,192,51081,1,2,0:0:0:0:
448,192,51081,1,0,0:0:0:0:
192,192,51131,1,2,0:0:0:0:
64,192,51181,128,0,51981:0:0:0:100:A#3S_Bb3S.wav
448,192,51181,1,0,0:0:0:0:
192,192,51981,1,2,0:0:0:0:
320,192,51981,128,4,52181:0:0:0:70:soft-hitfinish.wav
448,192,51981,128,0,52181:0:0:0:100:Bell.wav
448,192,52581,128,0,52781:0:0:0:0:
64,192,52781,128,0,53181:0:0:0:70:Tick.wav
320,192,52781,128,0,52981:0:0:0:0:
192,192,52981,128,0,53181:0:0:0:0:
320,192,53181,128,0,53281:0:0:0:0:
320,192,53381,1,0,0:0:0:0:
320,192,53481,128,0,53581:0:0:0:0:
64,192,53581,128,0,53781:0:0:0:70:Tick.wav
448,192,53581,128,0,53781:0:0:0:0:
448,192,54181,128,0,54381:0:0:0:0:
64,192,54381,128,0,54581:0:0:0:70:Tick.wav
192,192,54381,128,0,54681:0:0:0:0:
320,192,54581,128,0,54781:0:0:0:0:
448,192,54681,128,0,54981:0:0:0:0:
64,192,54781,128,0,55181:0:0:0:0:
192,192,54981,128,0,55181:0:0:0:0:
320,192,55181,128,0,55381:0:0:0:70:Tick.wav
448,192,55181,128,0,55381:0:0:0:0:
448,192,55781,128,0,55981:0:0:0:0:
64,192,55981,128,0,56181:0:0:0:70:Tick.wav
320,192,55981,128,0,56181:0:0:0:0:
192,192,56181,128,0,56381:0:0:0:0:
320,192,56381,128,0,56481:0:0:0:0:
320,192,56581,1,0,0:0:0:0:
320,192,56681,128,0,56781:0:0:0:0:
64,192,56781,128,0,56981:0:0:0:70:Tick.wav
192,192,56781,128,0,57131:0:0:0:0:
320,192,56981,128,0,57381:0:0:0:0:
448,192,57131,128,0,57381:0:0:0:0:
192,192,57381,128,0,57581:0:0:0:0:
320,192,57581,128,0,57981:0:0:0:70:Tick.wav
448,192,57581,128,0,57781:0:0:0:0:
64,192,57781,128,0,58381:0:0:0:0:
192,192,57981,128,0,58381:0:0:0:0:
320,192,58381,128,0,58581:0:0:0:70:Tick.wav
448,192,58381,128,0,58581:0:0:0:0:
448,192,58981,128,0,59181:0:0:0:0:
64,192,59181,128,0,59581:0:0:0:70:Tick.wav
320,192,59181,128,0,59381:0:0:0:0:
192,192,59381,128,0,59581:0:0:0:0:
320,192,59581,128,0,59681:0:0:0:0:
320,192,59781,1,0,0:0:0:0:
320,192,59881,128,0,59981:0:0:0:0:
64,192,59981,128,0,60181:0:0:0:70:Tick.wav
448,192,59981,128,0,60181:0:0:0:0:
448,192,60581,128,0,60781:0:0:0:0:
64,192,60781,128,0,60981:0:0:0:70:Tick.wav
192,192,60781,128,0,61081:0:0:0:0:
320,192,60981,128,0,61181:0:0:0:0:
448,192,61081,128,0,61381:0:0:0:0:
64,192,61181,128,0,61581:0:0:0:0:
192,192,61381,128,0,61581:0:0:0:0:
320,192,61581,128,0,61781:0:0:0:70:Tick.wav
448,192,61581,128,0,61781:0:0:0:0:
448,192,62181,128,0,62381:0:0:0:0:
64,192,62381,128,0,62581:0:0:0:70:Tick.wav
320,192,62381,128,0,62581:0:0:0:0:
192,192,62581,128,0,62781:0:0:0:0:
320,192,62781,128,0,62881:0:0:0:0:
320,192,62981,1,0,0:0:0:0:
320,192,63081,128,0,63181:0:0:0:0:
64,192,63181,128,0,63531:0:0:0:70:clapwet.wav
192,192,63181,1,0,0:0:0:0:
448,192,63181,1,0,0:0:0:0:
192,192,63381,128,0,63781:0:0:0:0:
320,192,63531,128,0,63981:0:0:0:0:
448,192,63781,128,0,63981:0:0:0:0:
192,192,63981,128,0,64731:0:0:0:0:
64,192,64181,128,0,64731:0:0:0:0:
448,192,64381,128,0,64731:0:0:0:0:
64,192,64781,1,4,0:0:0:70:soft-hitfinish.wav
192,192,64781,1,0,0:0:0:50:boom.wav
320,192,64781,1,0,0:0:0:0:
448,192,64781,128,0,64881:0:0:0:0:
320,192,64881,128,0,64981:0:0:0:0:
192,192,64981,128,0,65081:0:0:0:0:
64,192,65081,128,0,65181:0:0:0:0:
320,192,65181,128,0,65281:0:0:0:0:
192,192,65281,128,0,65381:0:0:0:0:
448,192,65381,128,0,65481:0:0:0:0:
320,192,65481,128,0,65581:0:0:0:0:
192,192,65581,128,0,65681:0:0:0:0:
64,192,65681,128,0,65781:0:0:0:0:
320,192,65781,128,0,65881:0:0:0:0:
192,192,65881,128,0,65981:0:0:0:0:
448,192,65981,128,0,66081:0:0:0:0:
320,192,66081,128,0,66181:0:0:0:0:
64,192,66181,128,0,66281:0:0:0:0:
192,192,66281,128,0,66381:0:0:0:0:
320,192,66381,128,0,66481:0:0:0:0:
64,192,66481,128,0,66581:0:0:0:0:
320,192,66581,128,0,66681:0:0:0:0:
192,192,66681,128,0,66781:0:0:0:0:
64,192,66781,128,0,66881:0:0:0:0:
192,192,66881,128,0,66981:0:0:0:0:
320,192,66981,128,0,67081:0:0:0:0:
448,192,67081,128,0,67181:0:0:0:0:
448,192,67281,1,0,0:0:0:0:
320,192,67331,1,0,0:0:0:0:
448,192,67381,1,0,0:0:0:0:
448,192,67481,128,0,67581:0:0:0:0:
320,192,67581,128,0,67681:0:0:0:0:
448,192,67681,128,0,67781:0:0:0:0:
320,192,67781,128,0,67881:0:0:0:0:
192,192,67881,128,0,67981:0:0:0:0:
64,192,67981,128,0,68081:0:0:0:0:
320,192,68081,128,0,68181:0:0:0:0:
192,192,68181,128,0,68281:0:0:0:0:
64,192,68281,128,0,68381:0:0:0:0:
320,192,68381,128,0,68481:0:0:0:0:
192,192,68481,128,0,68581:0:0:0:0:
448,192,68581,128,0,68681:0:0:0:0:
320,192,68681,128,0,68781:0:0:0:0:
64,192,68781,128,0,68881:0:0:0:0:
192,192,68881,128,0,68981:0:0:0:0:
320,192,68981,128,0,69081:0:0:0:0:
64,192,69081,128,0,69181:0:0:0:0:
448,192,69181,128,0,69281:0:0:0:0:
320,192,69281,128,0,69381:0:0:0:0:
192,192,69381,128,0,69481:0:0:0:0:
64,192,69481,128,0,69581:0:0:0:0:
448,192,69581,128,0,69681:0:0:0:0:
320,192,69681,128,0,69781:0:0:0:0:
192,192,69781,128,0,69881:0:0:0:0:
320,192,69881,128,0,69981:0:0:0:0:
64,192,69981,128,0,70081:0:0:0:0:
192,192,70081,128,0,70181:0:0:0:0:
320,192,70181,128,0,70281:0:0:0:0:
448,192,70281,128,0,70381:0:0:0:0:
448,192,70481,1,0,0:0:0:0:
320,192,70531,1,0,0:0:0:0:
448,192,70581,1,0,0:0:0:0:
448,192,70681,128,0,70781:0:0:0:0:
320,192,70781,128,0,70881:0:0:0:0:
64,192,70881,128,0,70981:0:0:0:0:
192,192,70981,128,0,71081:0:0:0:0:
64,192,71081,128,0,71181:0:0:0:0:
192,192,71181,1,4,0:0:0:70:soft-hitfinish.wav
448,192,71181,128,0,71281:0:0:0:70:S2.wav
320,192,71181,1,0,0:0:0:0:
320,192,71281,128,0,71381:0:0:0:0:
192,192,71381,128,0,71481:0:0:0:70:S2.wav
448,192,71381,1,0,0:0:0:0:
64,192,71481,128,0,71581:0:0:0:0:
320,192,71581,128,0,71681:0:0:0:50:S3.wav
448,192,71581,1,0,0:0:0:0:
192,192,71681,128,0,71781:0:0:0:0:
64,192,71781,1,0,0:0:0:70:S2.wav
448,192,71781,128,0,71881:0:0:0:0:
320,192,71881,128,0,71981:0:0:0:0:
64,192,71981,128,0,72081:0:0:0:70:S2.wav
448,192,71981,1,0,0:0:0:0:
192,192,72081,128,0,72181:0:0:0:0:
320,192,72181,128,0,72281:0:0:0:70:S2.wav
448,192,72181,1,0,0:0:0:0:
64,192,72281,128,0,72381:0:0:0:0:
320,192,72381,128,0,72481:0:0:0:50:S3.wav
448,192,72381,1,0,0:0:0:0:
192,192,72481,128,0,72581:0:0:0:0:
64,192,72581,128,0,72681:0:0:0:70:S2.wav
320,192,72581,1,0,0:0:0:0:
192,192,72681,128,0,72781:0:0:0:70:S2.wav
448,192,72681,1,0,0:0:0:0:
64,192,72781,1,4,0:0:0:70:soft-hitfinish.wav
320,192,72781,128,0,72881:0:0:0:70:S2.wav
448,192,72781,1,0,0:0:0:0:
192,192,72881,128,0,72981:0:0:0:0:
64,192,72981,128,0,73081:0:0:0:70:S2.wav
448,192,72981,1,0,0:0:0:0:
320,192,73081,128,0,73181:0:0:0:0:
64,192,73181,128,0,73281:0:0:0:50:S3.wav
448,192,73181,1,0,0:0:0:0:
192,192,73281,128,0,73381:0:0:0:0:
64,192,73381,1,0,0:0:0:70:S2.wav
320,192,73381,128,0,73481:0:0:0:0:
448,192,73481,128,0,73581:0:0:0:0:
64,192,73581,1,0,0:0:0:70:S2.wav
192,192,73681,1,0,0:0:0:70:S2.wav
448,192,73681,1,0,0:0:0:0:
320,192,73781,1,0,0:0:0:70:S2.wav
448,192,73781,1,0,0:0:0:0:
192,192,73881,1,0,0:0:0:70:S2.wav
448,192,73881,1,0,0:0:0:0:
64,192,73981,1,0,0:0:0:50:S3.wav
448,192,73981,128,0,74081:0:0:0:0:
320,192,74081,128,0,74181:0:0:0:0:
192,192,74181,128,0,74281:0:0:0:50:S3.wav
448,192,74181,1,0,0:0:0:0:
64,192,74281,128,0,74381:0:0:0:50:S3.wav
320,192,74281,1,0,0:0:0:0:
192,192,74381,1,4,0:0:0:70:soft-hitfinish.wav
320,192,74381,128,0,74481:0:0:0:70:S2.wav
448,192,74381,1,0,0:0:0:0:
64,192,74481,128,0,74581:0:0:0:70:S2.wav
192,192,74581,128,0,74681:0:0:0:70:S2.wav
448,192,74581,1,0,0:0:0:0:
320,192,74681,128,0,74781:0:0:0:70:S2.wav
64,192,74781,1,0,0:0:0:50:S3.wav
448,192,74781,128,0,74881:0:0:0:0:
192,192,74881,128,0,74981:0:0:0:70:S2.wav
320,192,74981,128,0,75081:0:0:0:70:S2.wav
448,192,74981,1,0,0:0:0:0:
64,192,75081,128,0,75181:0:0:0:70:S2.wav
192,192,75181,128,0,75281:0:0:0:70:S2.wav
448,192,75181,1,0,0:0:0:0:
320,192,75281,128,0,75381:0:0:0:70:S2.wav
64,192,75381,1,0,0:0:0:70:S2.wav
448,192,75381,128,0,75481:0:0:0:0:
192,192,75481,128,0,75581:0:0:0:70:S2.wav
448,192,75581,1,0,0:0:0:50:S3.wav
320,192,75581,128,0,75681:0:0:0:0:
64,192,75681,128,0,75781:0:0:0:50:S3.wav
192,192,75681,1,0,0:0:0:0:
192,192,75781,128,0,75881:0:0:0:50:S3.wav
320,192,75781,1,0,0:0:0:0:
320,192,75881,128,0,75981:0:0:0:50:S3.wav
448,192,75881,1,0,0:0:0:0:
64,192,75981,128,2,77481:0:0:0:0:
192,192,75981,128,0,77481:0:0:0:100:SC2.wav
320,192,76881,1,0,0:0:0:0:
320,192,76981,1,0,0:0:0:0:
320,192,77081,128,0,77181:0:0:0:0:
448,192,77181,128,0,77481:0:0:0:70:h03.wav
320,192,77281,1,0,0:0:0:0:
320,192,77381,128,0,77481:0:0:0:0:
64,192,77581,1,2,0:0:0:0:
192,192,77581,1,4,0:0:0:70:soft-hitfinish.wav
320,192,77581,128,0,77681:0:0:0:0:
448,192,77581,128,0,77681:0:0:0:0:
64,192,77681,128,2,77781:0:0:0:0:
192,192,77681,128,0,77881:0:0:0:0:
320,192,77781,128,2,77881:0:0:0:0:
448,192,77781,1,0,0:0:0:0:
64,192,77881,128,2,78081:0:0:0:0:
448,192,77881,128,0,77981:0:0:0:0:
192,192,77981,1,2,0:0:0:0:
320,192,77981,128,0,78081:0:0:0:0:
192,192,78081,128,2,78281:0:0:0:0:
448,192,78081,128,0,78181:0:0:0:0:
64,192,78181,1,2,0:0:0:0:
320,192,78181,128,0,78381:0:0:0:0:
64,192,78281,128,2,78381:0:0:0:0:
448,192,78281,1,0,0:0:0:0:
192,192,78381,128,2,78581:0:0:0:0:
448,192,78381,128,0,78481:0:0:0:0:
64,192,78481,128,2,78581:0:0:0:0:
320,192,78481,1,0,0:0:0:0:
320,192,78581,128,2,78781:0:0:0:0:
448,192,78581,128,0,78681:0:0:0:0:
64,192,78681,1,2,0:0:0:0:
192,192,78681,128,0,78781:0:0:0:0:
64,192,78781,128,2,78881:0:0:0:0:
448,192,78781,128,0,78881:0:0:0:0:
192,192,78881,1,2,0:0:0:0:
320,192,78881,1,0,0:0:0:0:
64,192,78981,1,2,0:0:0:0:
192,192,78981,1,0,0:0:0:0:
448,192,79031,1,2,0:0:0:0:
192,192,79081,1,2,0:0:0:0:
320,192,79081,1,0,0:0:0:0:
64,192,79131,1,2,0:0:0:0:
320,192,79181,128,2,79381:0:0:0:0:
448,192,79181,128,0,79281:0:0:0:0:
64,192,79281,1,2,0:0:0:0:
192,192,79281,128,0,79381:0:0:0:0:
64,192,79381,128,2,79581:0:0:0:0:
448,192,79381,128,0,79481:0:0:0:0:
192,192,79481,128,2,79581:0:0:0:0:
320,192,79481,1,0,0:0:0:0:
320,192,79581,128,2,79681:0:0:0:0:
448,192,79581,128,0,79781:0:0:0:0:
64,192,79681,128,2,79981:0:0:0:0:
192,192,79681,1,0,0:0:0:0:
192,192,79781,128,2,79981:0:0:0:0:
320,192,79781,1,0,0:0:0:0:
320,192,79881,128,2,79981:0:0:0:0:
448,192,79881,128,0,79981:0:0:0:0:
64,192,80081,1,2,0:0:0:0:
320,192,80081,1,0,0:0:0:0:
448,192,80081,1,0,0:0:0:0:
64,192,80181,1,2,0:0:0:0:
320,192,80181,1,0,0:0:0:0:
448,192,80181,1,0,0:0:0:0:
64,192,80281,1,2,0:0:0:0:
192,192,80281,1,0,0:0:0:0:
448,192,80281,1,0,0:0:0:0:
64,192,80381,1,2,0:0:0:0:
192,192,80381,1,0,0:0:0:0:
448,192,80381,1,0,0:0:0:0:
64,192,80481,1,2,0:0:0:0:
320,192,80481,1,0,0:0:0:0:
448,192,80481,1,0,0:0:0:0:
64,192,80581,1,2,0:0:0:0:
192,192,80581,1,0,0:0:0:0:
448,192,80631,1,2,0:0:0:0:
192,192,80681,1,2,0:0:0:0:
320,192,80681,1,0,0:0:0:0:
64,192,80731,1,2,0:0:0:0:
320,192,80781,128,2,80881:0:0:0:0:
448,192,80781,1,0,0:0:0:0:
64,192,80881,128,2,80981:0:0:0:0:
448,192,80881,128,0,81081:0:0:0:0:
192,192,80981,1,2,0:0:0:0:
320,192,80981,128,0,81081:0:0:0:0:
64,192,81081,128,2,81181:0:0:0:0:
192,192,81081,128,0,81281:0:0:0:0:
320,192,81181,128,2,81281:0:0:0:0:
448,192,81181,1,0,0:0:0:0:
64,192,81281,128,2,81481:0:0:0:0:
448,192,81281,128,0,81381:0:0:0:0:
192,192,81381,1,2,0:0:0:0:
320,192,81381,128,0,81481:0:0:0:0:
192,192,81481,128,2,81681:0:0:0:0:
448,192,81481,128,0,81581:0:0:0:0:
64,192,81581,1,2,0:0:0:0:
320,192,81581,128,0,81681:0:0:0:0:
64,192,81681,128,2,81881:0:0:0:0:
448,192,81681,128,0,81781:0:0:0:0:
192,192,81781,128,2,81881:0:0:0:0:
320,192,81781,1,0,0:0:0:0:
320,192,81881,128,2,82081:0:0:0:0:
448,192,81881,128,0,81981:0:0:0:0:
64,192,81981,1,2,0:0:0:0:
192,192,81981,128,0,82181:0:0:0:0:
64,192,82081,128,2,82181:0:0:0:0:
448,192,82081,1,0,0:0:0:0:
320,192,82181,1,2,0:0:0:0:
448,192,82181,1,0,0:0:0:0:
64,192,82231,1,2,0:0:0:0:
192,192,82281,1,2,0:0:0:0:
320,192,82281,1,0,0:0:0:0:
448,192,82331,1,2,0:0:0:0:
64,192,82381,1,2,0:0:0:0:
192,192,82381,1,0,0:0:0:0:
64,192,82481,128,2,82581:0:0:0:0:
192,192,82481,128,0,82581:0:0:0:0:
320,192,82481,128,0,82581:0:0:0:0:
64,192,82681,1,2,0:0:0:0:
192,192,82681,1,0,0:0:0:0:
320,192,82681,1,0,0:0:0:0:
64,192,82781,128,2,82881:0:0:0:0:
192,192,82781,128,0,82881:0:0:0:0:
320,192,82781,128,0,82881:0:0:0:0:
192,192,82981,1,2,0:0:0:0:
320,192,82981,1,0,0:0:0:0:
448,192,82981,1,0,0:0:0:0:
192,192,83081,128,2,83181:0:0:0:0:
320,192,83081,128,0,83181:0:0:0:0:
448,192,83081,128,0,83181:0:0:0:0:
192,192,83281,1,2,0:0:0:0:
320,192,83281,1,0,0:0:0:0:
448,192,83281,1,0,0:0:0:0:
192,192,83381,128,2,83481:0:0:0:0:
320,192,83381,128,0,83481:0:0:0:0:
448,192,83381,128,0,83481:0:0:0:0:
64,192,83581,128,0,83881:0:0:0:70:clapwet.wav
192,192,83581,128,0,83881:0:0:0:0:
320,192,83581,128,0,83881:0:0:0:0:
448,192,83581,128,0,83881:0:0:0:0:
64,192,83981,1,2,0:0:0:0:
192,192,83981,1,4,0:0:0:70:soft-hitfinish.wav
320,192,83981,128,0,84081:0:0:0:0:
448,192,83981,128,0,84081:0:0:0:0:
64,192,84081,128,2,84181:0:0:0:0:
192,192,84081,128,0,84281:0:0:0:0:
320,192,84181,128,2,84281:0:0:0:0:
448,192,84181,1,0,0:0:0:0:
64,192,84281,128,2,84481:0:0:0:0:
448,192,84281,128,0,84381:0:0:0:0:
192,192,84381,1,2,0:0:0:0:
320,192,84381,128,0,84481:0:0:0:0:
192,192,84481,128,2,84581:0:0:0:0:
448,192,84481,128,0,84681:0:0:0:0:
64,192,84581,1,2,0:0:0:0:
320,192,84581,128,0,84681:0:0:0:0:
64,192,84681,128,2,84781:0:0:0:0:
192,192,84681,128,0,84881:0:0:0:0:
320,192,84781,1,2,0:0:0:0:
448,192,84781,128,0,84881:0:0:0:0:
64,192,84881,128,2,84981:0:0:0:0:
320,192,84881,128,0,85081:0:0:0:0:
192,192,84981,128,2,85081:0:0:0:0:
448,192,84981,1,0,0:0:0:0:
64,192,85081,128,2,85181:0:0:0:0:
448,192,85081,128,0,85281:0:0:0:0:
192,192,85181,1,2,0:0:0:0:
320,192,85181,128,0,85281:0:0:0:0:
64,192,85281,1,2,0:0:0:0:
192,192,85281,1,0,0:0:0:0:
320,192,85381,1,2,0:0:0:0:
448,192,85381,1,0,0:0:0:0:
64,192,85431,1,2,0:0:0:0:
192,192,85481,1,2,0:0:0:0:
320,192,85481,1,0,0:0:0:0:
448,192,85531,1,2,0:0:0:0:
64,192,85581,128,2,85681:0:0:0:0:
192,192,85581,128,0,85781:0:0:0:0:
320,192,85681,128,2,85881:0:0:0:0:
448,192,85681,1,0,0:0:0:0:
64,192,85781,1,2,0:0:0:0:
448,192,85781,128,0,85881:0:0:0:0:
64,192,85881,128,2,85981:0:0:0:0:
192,192,85881,128,0,85981:0:0:0:0:
320,192,85981,128,2,86081:0:0:0:0:
448,192,85981,128,0,86181:0:0:0:0:
64,192,86081,128,2,86381:0:0:0:0:
192,192,86081,1,0,0:0:0:0:
192,192,86181,128,2,86381:0:0:0:0:
320,192,86181,1,0,0:0:0:0:
320,192,86281,128,2,86381:0:0:0:0:
448,192,86281,128,0,86381:0:0:0:0:
64,192,86481,1,2,0:0:0:0:
192,192,86481,1,0,0:0:0:0:
448,192,86481,1,0,0:0:0:0:
64,192,86581,1,2,0:0:0:0:
192,192,86581,1,0,0:0:0:0:
448,192,86581,1,0,0:0:0:0:
64,192,86681,1,2,0:0:0:0:
320,192,86681,1,0,0:0:0:0:
448,192,86681,1,0,0:0:0:0:
64,192,86781,1,2,0:0:0:0:
320,192,86781,1,0,0:0:0:0:
448,192,86781,1,0,0:0:0:0:
64,192,86881,1,2,0:0:0:0:
192,192,86881,1,0,0:0:0:0:
448,192,86881,1,0,0:0:0:0:
320,192,86981,1,2,0:0:0:0:
448,192,86981,1,0,0:0:0:0:
64,192,87031,1,2,0:0:0:0:
192,192,87081,1,2,0:0:0:0:
320,192,87081,1,0,0:0:0:0:
448,192,87131,1,2,0:0:0:0:
64,192,87181,1,2,0:0:0:0:
192,192,87181,1,4,0:0:0:70:soft-hitfinish.wav
64,192,87281,1,2,0:0:0:0:
192,192,87281,1,0,0:0:0:0:
320,192,87281,1,0,0:0:0:0:
192,192,87381,1,2,0:0:0:0:
320,192,87381,1,0,0:0:0:0:
448,192,87381,1,0,0:0:0:0:
192,192,87481,1,2,0:0:0:0:
320,192,87481,1,0,0:0:0:0:
448,192,87481,1,0,0:0:0:0:
448,192,87581,128,0,87881:0:0:0:80:SC2.wav
192,192,87681,128,0,87881:0:0:0:0:
320,192,87781,128,0,87881:0:0:0:0:
64,192,87881,1,0,0:0:0:0:
64,192,87981,1,2,0:0:0:0:
192,192,87981,1,4,0:0:0:70:soft-hitfinish.wav
448,192,87981,1,0,0:0:0:0:
64,192,88081,1,2,0:0:0:0:
192,192,88081,1,0,0:0:0:0:
448,192,88081,1,0,0:0:0:0:
64,192,88181,1,2,0:0:0:0:
320,192,88181,1,0,0:0:0:0:
448,192,88181,1,0,0:0:0:0:
64,192,88281,1,2,0:0:0:0:
320,192,88281,1,0,0:0:0:0:
448,192,88281,1,0,0:0:0:0:
64,192,88381,128,0,88681:0:0:0:80:SC2.wav
320,192,88481,128,0,88681:0:0:0:0:
192,192,88581,128,0,88681:0:0:0:0:
448,192,88681,1,0,0:0:0:0:
64,192,88781,1,2,0:0:0:0:
192,192,88781,1,0,0:0:0:0:
320,192,88781,1,0,0:0:0:0:
64,192,88881,128,2,88981:0:0:0:0:
192,192,88881,128,0,88981:0:0:0:0:
320,192,88881,128,0,88981:0:0:0:0:
64,192,89081,1,2,0:0:0:0:
192,192,89081,1,0,0:0:0:0:
320,192,89081,1,0,0:0:0:0:
64,192,89181,128,2,89281:0:0:0:0:
192,192,89181,128,0,89281:0:0:0:0:
320,192,89181,128,0,89281:0:0:0:0:
192,192,89381,1,2,0:0:0:0:
320,192,89381,1,0,0:0:0:0:
448,192,89381,1,0,0:0:0:0:
192,192,89481,128,2,89581:0:0:0:0:
320,192,89481,128,0,89581:0:0:0:0:
448,192,89481,128,0,89581:0:0:0:0:
192,192,89681,1,2,0:0:0:0:
320,192,89681,1,0,0:0:0:0:
448,192,89681,1,0,0:0:0:0:
192,192,89781,128,2,89881:0:0:0:0:
320,192,89781,128,0,89881:0:0:0:0:
448,192,89781,128,0,89881:0:0:0:0:
64,192,89981,128,0,90081:0:0:0:100:reload.wav
192,192,90006,128,0,90081:0:0:0:0:
320,192,90031,128,0,90081:0:0:0:0:
448,192,90181,128,0,90281:0:0:0:0:
320,192,90206,128,0,90281:0:0:0:0:
192,192,90231,128,0,90281:0:0:0:0:
64,192,90381,1,2,0:0:0:0:
192,192,90381,128,4,90481:0:0:0:70:soft-hitfinish.wav
320,192,90381,128,0,90481:0:0:0:0:
448,192,90381,128,0,90481:0:0:0:0:
64,192,90481,128,0,90681:0:0:0:0:
192,192,90581,128,2,90681:0:0:0:0:
320,192,90581,1,0,0:0:0:0:
448,192,90581,128,0,90681:0:0:0:0:
320,192,90681,128,0,90881:0:0:0:0:
64,192,90781,128,2,90881:0:0:0:0:
192,192,90781,1,0,0:0:0:0:
448,192,90781,128,0,90881:0:0:0:0:
192,192,90881,128,0,91081:0:0:0:0:
64,192,90981,128,2,91081:0:0:0:0:
320,192,90981,128,0,91081:0:0:0:0:
448,192,90981,1,0,0:0:0:0:
448,192,91081,128,0,91281:0:0:0:0:
64,192,91181,128,2,91281:0:0:0:0:
192,192,91181,1,0,0:0:0:0:
320,192,91181,128,0,91281:0:0:0:0:
192,192,91281,128,0,91481:0:0:0:0:
64,192,91381,128,2,91481:0:0:0:0:
320,192,91381,128,0,91481:0:0:0:0:
448,192,91381,1,0,0:0:0:0:
448,192,91481,128,0,91681:0:0:0:0:
64,192,91581,1,2,0:0:0:0:
192,192,91581,128,0,91681:0:0:0:0:
320,192,91581,128,0,91681:0:0:0:0:
64,192,91681,128,0,91781:0:0:0:0:
192,192,91781,1,2,0:0:0:0:
320,192,91781,1,0,0:0:0:0:
448,192,91781,1,0,0:0:0:0:
192,192,91881,1,2,0:0:0:0:
320,192,91881,1,0,0:0:0:0:
448,192,91881,1,0,0:0:0:0:
64,192,91981,1,2,0:0:0:0:
320,192,91981,128,0,92081:0:0:0:0:
448,192,91981,128,0,92081:0:0:0:0:
64,192,92081,128,0,92281:0:0:0:0:
192,192,92181,128,2,92281:0:0:0:0:
320,192,92181,128,0,92281:0:0:0:0:
448,192,92181,1,0,0:0:0:0:
448,192,92281,128,0,92481:0:0:0:0:
64,192,92381,128,2,92481:0:0:0:0:
192,192,92381,1,0,0:0:0:0:
320,192,92381,128,0,92481:0:0:0:0:
192,192,92481,128,0,92681:0:0:0:0:
64,192,92581,128,2,92681:0:0:0:0:
320,192,92581,1,0,0:0:0:0:
448,192,92581,128,0,92781:0:0:0:0:
320,192,92681,128,0,92881:0:0:0:0:
64,192,92781,1,2,0:0:0:0:
192,192,92781,128,0,92981:0:0:0:0:
64,192,92881,128,2,93081:0:0:0:0:
448,192,92881,1,0,0:0:0:0:
320,192,92981,1,2,0:0:0:0:
448,192,92981,128,0,93081:0:0:0:0:
192,192,93081,1,2,0:0:0:0:
320,192,93081,1,0,0:0:0:0:
64,192,93181,1,2,0:0:0:0:
192,192,93181,1,0,0:0:0:0:
448,192,93231,1,2,0:0:0:0:
192,192,93281,1,2,0:0:0:0:
320,192,93281,1,0,0:0:0:0:
64,192,93331,1,2,0:0:0:0:
320,192,93381,1,2,0:0:0:0:
448,192,93381,1,0,0:0:0:0:
64,192,93431,1,2,0:0:0:0:
192,192,93481,1,2,0:0:0:0:
320,192,93481,1,0,0:0:0:0:
448,192,93531,1,2,0:0:0:0:
64,192,93581,128,2,93681:0:0:0:0:
192,192,93581,1,0,0:0:0:0:
192,192,93681,128,0,93881:0:0:0:0:
64,192,93781,128,2,93881:0:0:0:0:
320,192,93781,1,0,0:0:0:0:
448,192,93781,128,0,93881:0:0:0:0:
320,192,93881,128,0,94081:0:0:0:0:
64,192,93981,1,2,0:0:0:0:
192,192,93981,128,0,94081:0:0:0:0:
448,192,93981,128,0,94081:0:0:0:0:
64,192,94081,128,0,94281:0:0:0:0:
192,192,94181,128,2,94281:0:0:0:0:
320,192,94181,128,0,94281:0:0:0:0:
448,192,94181,1,0,0:0:0:0:
448,192,94281,128,0,94481:0:0:0:0:
64,192,94381,1,2,0:0:0:0:
192,192,94381,128,0,94481:0:0:0:0:
320,192,94381,128,0,94481:0:0:0:0:
64,192,94481,128,0,94681:0:0:0:0:
192,192,94581,128,2,94681:0:0:0:0:
320,192,94581,1,0,0:0:0:0:
448,192,94581,128,0,94681:0:0:0:0:
320,192,94681,128,0,94881:0:0:0:0:
64,192,94781,1,2,0:0:0:0:
192,192,94781,1,0,0:0:0:0:
448,192,94781,128,0,94881:0:0:0:0:
64,192,94881,1,2,0:0:0:0:
192,192,94881,128,0,95081:0:0:0:0:
64,192,94981,128,2,95081:0:0:0:0:
320,192,94981,1,0,0:0:0:0:
448,192,94981,1,0,0:0:0:0:
320,192,95081,1,2,0:0:0:0:
448,192,95081,128,0,95181:0:0:0:0:
64,192,95181,1,2,0:0:0:0:
192,192,95181,1,0,0:0:0:0:
320,192,95181,1,0,0:0:0:0:
64,192,95281,128,0,95381:0:0:0:0:
192,192,95281,128,0,95381:0:0:0:0:
320,192,95281,128,0,95381:0:0:0:0:
448,192,95381,1,0,0:0:0:50:S1.wav
64,192,95481,1,2,0:0:0:0:
192,192,95481,1,0,0:0:0:0:
320,192,95481,1,0,0:0:0:0:
64,192,95581,128,0,95681:0:0:0:0:
192,192,95581,128,0,95681:0:0:0:0:
320,192,95581,128,0,95681:0:0:0:0:
448,192,95681,1,0,0:0:0:50:S1.wav
192,192,95781,1,2,0:0:0:0:
320,192,95781,1,0,0:0:0:0:
448,192,95781,1,0,0:0:0:0:
192,192,95881,128,0,95981:0:0:0:0:
320,192,95881,128,0,95981:0:0:0:0:
448,192,95881,128,0,95981:0:0:0:0:
64,192,95981,1,0,0:0:0:50:S1.wav
192,192,96081,1,2,0:0:0:0:
320,192,96081,1,0,0:0:0:0:
448,192,96081,1,0,0:0:0:0:
192,192,96181,128,2,96281:0:0:0:0:
320,192,96181,128,0,96281:0:0:0:0:
448,192,96181,128,0,96281:0:0:0:0:
64,192,96381,128,0,96681:0:0:0:70:clapwet.wav
192,192,96381,128,0,96681:0:0:0:0:
320,192,96381,128,0,96681:0:0:0:0:
448,192,96381,128,0,96681:0:0:0:0:
64,192,96781,128,2,96981:0:0:0:0:
192,192,96781,1,4,0:0:0:70:soft-hitfinish.wav
320,192,96781,1,0,0:0:0:0:
448,192,96781,128,0,96881:0:0:0:0:
192,192,96881,128,2,96981:0:0:0:0:
320,192,96881,1,0,0:0:0:0:
320,192,96981,128,2,97181:0:0:0:0:
448,192,96981,128,0,97081:0:0:0:0:
64,192,97081,1,2,0:0:0:0:
192,192,97081,128,0,97181:0:0:0:0:
64,192,97181,128,2,97281:0:0:0:0:
448,192,97181,128,0,97381:0:0:0:0:
192,192,97281,128,2,97381:0:0:0:0:
320,192,97281,1,0,0:0:0:0:
64,192,97381,128,2,97481:0:0:0:0:
320,192,97381,128,0,97581:0:0:0:0:
192,192,97481,1,2,0:0:0:0:
448,192,97481,128,0,97581:0:0:0:0:
64,192,97581,128,2,97681:0:0:0:0:
192,192,97581,128,0,97681:0:0:0:0:
320,192,97681,1,2,0:0:0:0:
448,192,97681,1,0,0:0:0:0:
64,192,97781,1,2,0:0:0:0:
192,192,97806,1,2,0:0:0:0:
320,192,97831,1,2,0:0:0:0:
448,192,97856,1,2,0:0:0:0:
64,192,97881,1,2,0:0:0:0:
192,192,97906,1,2,0:0:0:0:
320,192,97931,1,2,0:0:0:0:
448,192,97956,1,2,0:0:0:0:
64,192,97981,128,2,98081:0:0:0:0:
192,192,98081,128,0,98181:0:0:0:0:
320,192,98181,128,0,98281:0:0:0:0:
448,192,98281,128,0,98381:0:0:0:0:
64,192,98381,128,2,98481:0:0:0:0:
192,192,98381,128,4,98481:0:0:0:70:soft-hitfinish.wav
320,192,98381,1,0,0:0:0:0:
320,192,98481,128,2,98581:0:0:0:0:
448,192,98481,128,0,98681:0:0:0:0:
64,192,98581,1,2,0:0:0:0:
192,192,98581,128,0,98681:0:0:0:0:
64,192,98681,128,2,98781:0:0:0:0:
320,192,98681,128,0,98881:0:0:0:0:
192,192,98781,128,2,98881:0:0:0:0:
448,192,98781,1,0,0:0:0:0:
64,192,98881,128,2,98981:0:0:0:0:
448,192,98881,128,0,99081:0:0:0:0:
192,192,98981,128,2,99081:0:0:0:0:
320,192,98981,1,0,0:0:0:0:
64,192,99081,128,2,99281:0:0:0:0:
320,192,99081,128,0,99181:0:0:0:0:
192,192,99181,128,2,99281:0:0:0:0:
448,192,99181,1,0,0:0:0:0:
320,192,99281,1,2,0:0:0:0:
448,192,99281,1,0,0:0:0:0:
64,192,99381,128,0,99481:0:0:0:70:clapwet.wav
192,192,99381,128,0,99481:0:0:0:0:
320,192,99381,128,0,99481:0:0:0:0:
448,192,99381,128,0,99481:0:0:0:0:
320,192,99581,1,2,0:0:0:0:
448,192,99581,1,0,0:0:0:0:
64,192,99681,1,2,0:0:0:0:
192,192,99681,1,0,0:0:0:0:
64,192,99781,128,0,99881:0:0:0:70:clapwet.wav
192,192,99781,128,0,99881:0:0:0:0:
320,192,99781,128,0,99881:0:0:0:0:
448,192,99781,128,0,99881:0:0:0:0:
64,192,99981,1,2,0:0:0:0:
320,192,99981,1,4,0:0:0:70:soft-hitfinish.wav
448,192,99981,1,0,0:0:0:0:
192,192,100031,1,2,0:0:0:0:
320,192,100081,1,2,0:0:0:0:
448,192,100081,1,0,0:0:0:0:
64,192,100131,1,2,0:0:0:0:
192,192,100181,1,2,0:0:0:0:
448,192,100181,1,0,0:0:0:0:
320,192,100231,1,2,0:0:0:0:
64,192,100281,1,2,0:0:0:0:
192,192,100281,1,0,0:0:0:0:
448,192,100331,1,2,0:0:0:0:
64,192,100381,1,2,0:0:0:0:
320,192,100381,1,0,0:0:0:0:
192,192,100431,1,2,0:0:0:0:
320,192,100481,1,2,0:0:0:0:
448,192,100481,1,0,0:0:0:0:
192,192,100531,1,2,0:0:0:0:
64,192,100581,1,2,0:0:0:0:
448,192,100606,1,2,0:0:0:0:
320,192,100631,1,2,0:0:0:0:
192,192,100656,1,2,0:0:0:0:
64,192,100681,1,2,0:0:0:0:
448,192,100706,1,2,0:0:0:0:
320,192,100731,1,2,0:0:0:0:
192,192,100756,1,2,0:0:0:0:
64,192,100781,1,2,0:0:0:0:
448,192,100831,1,2,0:0:0:0:
64,192,100881,1,2,0:0:0:0:
192,192,100881,1,0,0:0:0:0:
320,192,100931,1,2,0:0:0:0:
448,192,100981,1,2,0:0:0:0:
64,192,101006,1,2,0:0:0:0:
192,192,101031,1,2,0:0:0:0:
320,192,101056,1,2,0:0:0:0:
448,192,101081,1,2,0:0:0:0:
64,192,101106,1,2,0:0:0:0:
192,192,101131,1,2,0:0:0:0:
320,192,101156,1,2,0:0:0:0:
448,192,101181,1,2,0:0:0:0:
64,192,101231,1,2,0:0:0:0:
320,192,101281,1,2,0:0:0:0:
448,192,101281,1,0,0:0:0:0:
192,192,101331,1,2,0:0:0:0:
64,192,101381,1,2,0:0:0:0:
448,192,101406,1,2,0:0:0:0:
320,192,101431,1,2,0:0:0:0:
192,192,101456,1,2,0:0:0:0:
64,192,101481,1,2,0:0:0:0:
448,192,101506,1,2,0:0:0:0:
320,192,101531,1,2,0:0:0:0:
192,192,101556,1,2,0:0:0:0:
64,192,101581,1,2,0:0:0:0:
320,192,101681,128,2,101781:0:0:0:0:
448,192,101681,128,0,101881:0:0:0:0:
64,192,101781,128,2,101981:0:0:0:0:
192,192,101781,1,0,0:0:0:0:
192,192,101881,128,2,101981:0:0:0:0:
320,192,101881,1,0,0:0:0:0:
320,192,101981,128,2,102081:0:0:0:0:
448,192,101981,128,0,102181:0:0:0:0:
64,192,102081,128,2,102281:0:0:0:0:
192,192,102081,1,0,0:0:0:0:
192,192,102181,128,2,102281:0:0:0:0:
320,192,102181,1,0,0:0:0:0:
320,192,102281,128,2,102381:0:0:0:0:
448,192,102281,128,0,102381:0:0:0:0:
64,192,102381,128,2,103131:0:0:0:0:
192,192,102381,128,0,103131:0:0:0:100:A#3S_Bb3S.wav
64,192,103181,1,2,0:0:0:0:
192,192,103181,1,4,0:0:0:70:soft-hitfinish.wav
320,192,103181,128,0,103381:0:0:0:100:Bell.wav
448,192,103181,128,0,103381:0:0:0:0:
320,192,103781,128,0,103981:0:0:0:0:
192,192,103981,128,0,104181:0:0:0:0:
64,192,104181,128,0,104381:0:0:0:0:
192,192,104381,128,0,104481:0:0:0:0:
192,192,104581,1,0,0:0:0:0:
192,192,104681,128,0,104781:0:0:0:0:
320,192,104781,128,0,104981:0:0:0:0:
448,192,105381,128,0,105581:0:0:0:0:
192,192,105581,128,0,105881:0:0:0:0:
320,192,105781,128,0,105981:0:0:0:0:
448,192,105881,128,0,106181:0:0:0:0:
64,192,105981,128,0,106381:0:0:0:0:
192,192,106181,128,0,106381:0:0:0:0:
320,192,106381,128,0,106581:0:0:0:0:
320,192,106981,128,0,107181:0:0:0:0:
192,192,107181,128,0,107381:0:0:0:0:
64,192,107381,128,0,107581:0:0:0:0:
192,192,107581,128,0,107681:0:0:0:0:
192,192,107781,1,0,0:0:0:0:
192,192,107881,128,0,107981:0:0:0:0:
64,192,107981,128,0,108331:0:0:0:0:
192,192,108181,128,0,108581:0:0:0:0:
320,192,108331,128,0,108781:0:0:0:0:
448,192,108581,128,0,108981:0:0:0:0:
192,192,108781,128,0,109181:0:0:0:0:
64,192,108981,128,0,109581:0:0:0:0:
448,192,109181,128,0,109581:0:0:0:0:
192,192,109581,1,0,0:0:0:0:
320,192,109581,128,0,109781:0:0:0:0:
320,192,110181,128,0,110381:0:0:0:0:
192,192,110381,128,0,110581:0:0:0:0:
64,192,110581,128,0,110781:0:0:0:0:
192,192,110781,128,0,110881:0:0:0:0:
192,192,110981,1,0,0:0:0:0:
192,192,111081,128,0,111181:0:0:0:0:
320,192,111181,128,0,111381:0:0:0:0:
448,192,111781,128,0,111981:0:0:0:0:
192,192,111981,128,0,112281:0:0:0:0:
320,192,112181,128,0,112381:0:0:0:0:
448,192,112281,128,0,112581:0:0:0:0:
64,192,112381,128,0,112781:0:0:0:0:
192,192,112581,128,0,112781:0:0:0:0:
320,192,112781,128,0,112981:0:0:0:0:
320,192,113381,128,0,113581:0:0:0:0:
192,192,113581,128,0,113781:0:0:0:0:
64,192,113781,128,0,113981:0:0:0:0:
192,192,113981,128,0,114081:0:0:0:0:
192,192,114181,1,0,0:0:0:0:
192,192,114281,128,0,114381:0:0:0:0:
64,192,114381,128,0,114731:0:0:0:0:
192,192,114581,128,0,114981:0:0:0:0:
320,192,114731,128,0,115181:0:0:0:0:
448,192,114981,128,0,115381:0:0:0:0:
64,192,115181,128,0,115581:0:0:0:0:
192,192,115381,128,0,115981:0:0:0:0:
320,192,115581,128,0,115981:0:0:0:0:
