osu file format v14

[General]
AudioFilename: audio.mp3
AudioLeadIn: 0
PreviewTime: 77320
Countdown: 0
SampleSet: Normal
StackLeniency: 0.7
Mode: 1
LetterboxInBreaks: 0
WidescreenStoryboard: 0

[Editor]
DistanceSpacing: 1
BeatDivisor: 6
GridSize: 32
TimelineZoom: 3.599999

[Metadata]
Title:SAtAN
TitleUnicode:SAtAN
Artist:P*Light
ArtistUnicode:P*Light
Creator:komasy
Version:YAbAI
Source:SOUND VOLTEX IV HEAVENLY HAVEN
Tags:
BeatmapID:1673312
BeatmapSetID:787532

[Difficulty]
HPDrainRate:7.62
CircleSize:7.62
OverallDifficulty:7.62
ApproachRate:7.62
SliderMultiplier:1.4
SliderTickRate:1

[Events]
//Background and Video events
0,0,"bg.jpg",0,100
//Break Periods
//Storyboard Layer 0 (Background)
//Storyboard Layer 1 (Fail)
//Storyboard Layer 2 (Pass)
//Storyboard Layer 3 (Foreground)
//Storyboard Sound Samples

[TimingPoints]
570,200,4,1,0,80,1,0
570,-200,4,1,0,80,0,0
6920,-133.333333333333,4,1,0,90,0,0
10170,-117.647058823529,4,1,0,90,0,0
10570,-105.263157894737,4,1,0,90,0,0
10970,-95.2380952380952,4,1,0,90,0,0
11370,-86.9565217391304,4,1,0,90,0,0
11770,-66.6666666666667,4,1,0,90,0,1
12970,-80,4,1,0,90,0,0
13370,-100,4,1,0,100,0,0
18170,-100,4,1,0,100,0,1
19370,-100,4,1,0,100,0,0
22970,-100,4,1,0,100,0,1
23370,-100,4,1,0,100,0,0
23770,-100,4,1,0,100,0,1
24170,-100,4,1,0,100,0,0
24570,-100,4,1,0,100,0,1
25620,-100,4,1,0,50,0,1
25770,-100,4,1,0,50,0,0
26120,-100,4,1,0,100,0,0
32120,-100,4,1,0,50,0,0
32170,200,4,1,0,50,1,1
32170,-83.3333333333333,4,1,0,50,0,1
32270,200,4,1,0,50,1,1
32270,-86.9565217391304,4,1,0,50,0,1
32370,200,4,1,0,50,1,1
32370,-90.9090909090909,4,1,0,50,0,1
32470,200,4,1,0,50,1,1
32470,-95.2380952380952,4,1,0,50,0,1
32520,-95.2380952380952,4,1,0,100,0,1
32570,200,4,1,0,100,1,0
32570,-100,4,1,0,100,0,0
38170,-100,4,1,0,100,0,1
38970,-100,4,1,0,100,0,0
43770,-100,4,1,0,100,0,1
44970,-100,4,1,0,100,0,0
48570,-100,4,1,0,100,0,1
48970,-100,4,1,0,100,0,0
49370,-100,4,1,0,100,0,1
49770,-100,4,1,0,100,0,0
50170,-100,4,1,0,100,0,1
51720,-100,4,1,0,70,0,1
51770,-200,4,1,0,70,0,0
62970,-200,4,1,0,70,0,1
63020,-200,4,1,0,10,0,1
63770,-100,4,1,0,10,0,1
64520,-50,4,1,0,80,0,1
64570,-200,4,1,0,80,0,0
70970,-133.333333333333,4,1,0,90,0,0
74170,-117.647058823529,4,1,0,90,0,0
74570,-105.263157894737,4,1,0,90,0,0
74970,-95.2380952380952,4,1,0,90,0,0
75370,-86.9565217391304,4,1,0,90,0,0
75770,-66.6666666666667,4,1,0,90,0,1
76970,-80,4,1,0,90,0,0
77320,-100,4,1,0,100,0,0
77370,-100,4,1,0,100,0,1
83370,-100,4,1,0,100,0,0
83770,-100,4,1,0,100,0,1
87370,-100,4,1,0,100,0,0
87770,-100,4,1,0,100,0,1
88170,-100,4,1,0,100,0,0
88570,-100,4,1,0,100,0,1
89770,-100,4,1,0,100,0,0
90170,-100,4,1,0,100,0,1
96170,-100,4,1,0,100,0,0
96570,-100,4,1,0,100,0,1
97770,200,4,1,0,100,1,0
97870,200,4,1,0,100,1,0
97970,200,4,1,0,100,1,0
98070,200,4,1,0,100,1,0
98170,200,4,1,0,100,1,1
99170,-100,4,1,0,100,0,0
99370,-100,4,1,0,100,0,1
99570,-100,4,1,0,100,0,0
99770,-100,4,1,0,100,0,1
101470,-95.2380952380952,4,1,0,100,0,1
101570,-90.9090909090909,4,1,0,100,0,1
101670,-86.9565217391304,4,1,0,100,0,1
101770,-83.3333333333333,4,1,0,100,0,1
101870,-80,4,1,0,100,0,1
101970,-76.9230769230769,4,1,0,100,0,1
102070,-74.0740740740741,4,1,0,100,0,1
102120,-66.6666666666667,4,1,0,20,0,1
102970,-133.333333333333,4,1,0,60,0,0
108970,-160,4,1,0,60,0,0
109370,-200,4,1,0,50,0,0

[HitObjects]
288,160,570,5,4,0:0:0:0:
320,192,1270,1,0,0:0:0:0:
288,160,1370,1,0,0:0:0:0:
288,160,2170,1,0,0:0:0:0:
256,181,2770,1,0,0:0:0:0:
256,128,2870,1,8,0:0:0:0:
256,128,2970,1,8,0:0:0:0:
246,214,3370,1,8,0:0:0:0:
288,160,3770,1,0,0:0:0:0:
320,192,4470,1,0,0:0:0:0:
288,160,4570,1,0,0:0:0:0:
288,160,5370,1,0,0:0:0:0:
260,59,5770,1,0,0:0:0:0:
260,59,5970,1,8,0:0:0:0:
288,160,6070,1,8,0:0:0:0:
211,170,6270,1,8,0:0:0:0:
211,170,6370,1,8,0:0:0:0:
267,150,6570,1,8,0:0:0:0:
288,128,6970,1,4,0:0:0:0:
256,160,7170,1,0,0:0:0:0:
256,160,7370,1,8,0:0:0:0:
256,160,7570,1,8,0:0:0:0:
256,160,7770,1,0,0:0:0:0:
256,160,7970,1,0,0:0:0:0:
256,160,8170,1,8,0:0:0:0:
256,160,8270,1,8,0:0:0:0:
256,160,8370,1,8,0:0:0:0:
256,160,8570,1,0,0:0:0:0:
256,160,8770,1,0,0:0:0:0:
256,160,8970,1,8,0:0:0:0:
256,160,9170,1,8,0:0:0:0:
224,64,9270,1,8,0:0:0:0:
256,160,9370,1,0,0:0:0:0:
256,160,9570,1,0,0:0:0:0:
256,160,9770,1,8,0:0:0:0:
256,160,9970,1,8,0:0:0:0:
320,96,10170,1,0,0:0:0:0:
320,96,10270,1,0,0:0:0:0:
320,96,10370,1,8,0:0:0:0:
320,96,10470,1,8,0:0:0:0:
320,96,10570,1,0,0:0:0:0:
320,96,10670,1,0,0:0:0:0:
320,96,10770,1,8,0:0:0:0:
320,96,10870,1,8,0:0:0:0:
320,160,10970,1,0,0:0:0:0:
320,160,11070,1,0,0:0:0:0:
320,160,11170,1,8,0:0:0:0:
320,160,11270,1,0,0:0:0:0:
320,160,11370,1,8,0:0:0:0:
320,160,11470,1,8,0:0:0:0:
320,160,11570,1,8,0:0:0:0:
320,160,11670,1,8,0:0:0:0:
320,160,11770,1,4,0:0:0:0:
109,163,12970,1,12,0:0:0:0:
352,224,13370,1,0,0:0:0:0:
352,224,13470,1,8,0:0:0:0:
288,160,13570,1,0,0:0:0:0:
288,160,13620,1,0,0:0:0:0:
288,160,13670,1,8,0:0:0:0:
384,256,13770,1,0,0:0:0:0:
384,224,13870,1,8,0:0:0:0:
384,224,13920,1,8,0:0:0:0:
384,224,13970,1,0,0:0:0:0:
384,224,14070,1,8,0:0:0:0:
384,224,14170,1,0,0:0:0:0:
384,224,14220,1,0,0:0:0:0:
384,224,14320,1,8,0:0:0:0:
384,224,14370,1,0,0:0:0:0:
384,224,14470,1,8,0:0:0:0:
384,224,14570,1,0,0:0:0:0:
384,224,14620,1,0,0:0:0:0:
384,224,14670,1,8,0:0:0:0:
384,224,14770,1,0,0:0:0:0:
384,224,14870,1,0,0:0:0:0:
384,224,14920,1,8,0:0:0:0:
384,224,14970,1,0,0:0:0:0:
384,224,15070,1,8,0:0:0:0:
352,160,15170,1,0,0:0:0:0:
352,160,15270,1,8,0:0:0:0:
352,160,15320,1,8,0:0:0:0:
352,160,15370,1,0,0:0:0:0:
352,160,15470,1,8,0:0:0:0:
352,160,15570,1,0,0:0:0:0:
352,160,15670,1,8,0:0:0:0:
256,64,15720,1,8,0:0:0:0:
352,160,15770,1,0,0:0:0:0:
352,160,15820,1,8,0:0:0:0:
352,160,15870,1,8,0:0:0:0:
352,160,15970,1,0,0:0:0:0:
352,160,16070,1,0,0:0:0:0:
352,160,16120,1,8,0:0:0:0:
352,160,16170,1,0,0:0:0:0:
352,160,16270,1,0,0:0:0:0:
352,160,16370,1,8,0:0:0:0:
352,224,16570,1,0,0:0:0:0:
352,224,16670,1,8,0:0:0:0:
288,160,16770,1,0,0:0:0:0:
288,160,16820,1,0,0:0:0:0:
288,160,16870,1,8,0:0:0:0:
384,256,16970,1,0,0:0:0:0:
384,224,17070,1,8,0:0:0:0:
384,224,17120,1,8,0:0:0:0:
384,224,17170,1,0,0:0:0:0:
384,224,17270,1,8,0:0:0:0:
384,224,17370,1,0,0:0:0:0:
384,224,17420,1,0,0:0:0:0:
384,224,17520,1,8,0:0:0:0:
384,224,17570,1,0,0:0:0:0:
384,224,17670,1,8,0:0:0:0:
384,224,17770,1,0,0:0:0:0:
384,224,17820,1,0,0:0:0:0:
384,224,17870,1,8,0:0:0:0:
384,224,17970,1,0,0:0:0:0:
288,128,18070,1,0,0:0:0:0:
192,160,18170,1,12,0:0:0:0:
192,160,18270,1,12,0:0:0:0:
192,160,18470,1,12,0:0:0:0:
192,160,18570,1,12,0:0:0:0:
192,160,18770,1,4,0:0:0:0:
192,160,18870,1,4,0:0:0:0:
192,160,19070,1,4,0:0:0:0:
192,160,19170,1,4,0:0:0:0:
192,160,19370,1,12,0:0:0:0:
352,224,19770,1,0,0:0:0:0:
352,224,19870,1,8,0:0:0:0:
288,160,19970,1,0,0:0:0:0:
288,160,20020,1,0,0:0:0:0:
288,160,20070,1,8,0:0:0:0:
384,256,20170,1,0,0:0:0:0:
384,224,20270,1,8,0:0:0:0:
384,224,20320,1,8,0:0:0:0:
384,224,20370,1,0,0:0:0:0:
384,224,20470,1,8,0:0:0:0:
384,224,20570,1,0,0:0:0:0:
384,224,20620,1,0,0:0:0:0:
384,224,20720,1,8,0:0:0:0:
384,224,20770,1,0,0:0:0:0:
384,224,20870,1,8,0:0:0:0:
384,224,20970,1,0,0:0:0:0:
384,224,21070,1,8,0:0:0:0:
306,99,21120,1,8,0:0:0:0:
384,224,21170,1,0,0:0:0:0:
384,224,21220,1,8,0:0:0:0:
384,224,21270,1,0,0:0:0:0:
384,224,21370,1,0,0:0:0:0:
384,224,21470,1,8,0:0:0:0:
352,160,21570,1,0,0:0:0:0:
276,143,21620,1,0,0:0:0:0:
352,160,21670,1,8,0:0:0:0:
352,160,21770,1,0,0:0:0:0:
352,160,21870,1,8,0:0:0:0:
233,141,21920,1,8,0:0:0:0:
352,160,21970,1,0,0:0:0:0:
352,160,22070,1,0,0:0:0:0:
249,162,22120,1,8,0:0:0:0:
143,160,22170,1,8,0:0:0:0:
352,160,22220,1,8,0:0:0:0:
352,160,22270,1,0,0:0:0:0:
352,160,22370,1,8,0:0:0:0:
352,160,22470,1,0,0:0:0:0:
352,160,22520,1,8,0:0:0:0:
352,160,22570,1,0,0:0:0:0:
352,160,22670,1,0,0:0:0:0:
352,160,22770,1,8,0:0:0:0:
352,224,22970,1,0,0:0:0:0:
320,160,23070,1,0,0:0:0:0:
288,160,23170,1,0,0:0:0:0:
288,160,23270,1,8,0:0:0:0:
384,256,23370,1,4,0:0:0:0:
384,224,23770,1,0,0:0:0:0:
384,224,23870,1,0,0:0:0:0:
384,224,23920,1,8,0:0:0:0:
384,224,23970,1,0,0:0:0:0:
384,224,24070,1,0,0:0:0:0:
128,160,24170,1,12,0:0:0:0:
192,160,24570,1,4,0:0:0:0:
192,160,24670,1,4,0:0:0:0:
192,160,24870,1,4,0:0:0:0:
192,160,24970,1,4,0:0:0:0:
192,160,25170,1,12,0:0:0:0:
192,160,25270,1,12,0:0:0:0:
192,160,25470,1,12,0:0:0:0:
192,160,25570,1,12,0:0:0:0:
256,192,25770,12,0,25970,0:0:0:0:
288,192,26170,5,0,0:0:0:0:
288,192,26270,1,0,0:0:0:0:
288,192,26370,1,8,0:0:0:0:
288,192,26470,1,8,0:0:0:0:
256,224,26570,1,0,0:0:0:0:
288,192,26670,1,8,0:0:0:0:
256,160,26720,1,8,0:0:0:0:
320,192,26770,1,0,0:0:0:0:
320,192,26870,1,8,0:0:0:0:
320,192,26970,1,0,0:0:0:0:
352,192,27070,1,0,0:0:0:0:
352,192,27170,1,8,0:0:0:0:
352,192,27270,1,8,0:0:0:0:
352,192,27370,1,0,0:0:0:0:
352,192,27470,1,8,0:0:0:0:
352,192,27570,1,0,0:0:0:0:
352,192,27620,1,8,0:0:0:0:
352,192,27670,1,0,0:0:0:0:
352,192,27770,1,0,0:0:0:0:
352,192,27870,1,0,0:0:0:0:
352,192,27970,1,8,0:0:0:0:
288,128,28070,1,8,0:0:0:0:
288,128,28170,1,0,0:0:0:0:
288,128,28270,1,8,0:0:0:0:
288,128,28320,1,8,0:0:0:0:
320,160,28370,1,0,0:0:0:0:
288,160,28470,1,8,0:0:0:0:
320,160,28570,1,0,0:0:0:0:
320,160,28670,1,0,0:0:0:0:
320,160,28720,1,8,0:0:0:0:
320,160,28770,1,0,0:0:0:0:
320,160,28870,1,8,0:0:0:0:
320,160,28970,1,0,0:0:0:0:
320,160,29020,1,0,0:0:0:0:
320,160,29070,1,0,0:0:0:0:
320,160,29120,1,0,0:0:0:0:
320,160,29170,1,8,0:0:0:0:
320,160,29220,1,8,0:0:0:0:
320,160,29270,1,8,0:0:0:0:
320,160,29320,1,8,0:0:0:0:
288,192,29370,1,0,0:0:0:0:
288,192,29470,1,0,0:0:0:0:
396,261,29520,1,0,0:0:0:0:
288,192,29570,1,8,0:0:0:0:
288,192,29670,1,8,0:0:0:0:
256,224,29770,1,0,0:0:0:0:
288,192,29870,1,8,0:0:0:0:
256,160,29920,1,8,0:0:0:0:
320,192,29970,1,0,0:0:0:0:
320,192,30070,1,8,0:0:0:0:
320,192,30170,1,0,0:0:0:0:
352,192,30270,1,0,0:0:0:0:
396,261,30320,1,0,0:0:0:0:
352,192,30370,1,8,0:0:0:0:
352,192,30470,1,8,0:0:0:0:
352,192,30570,1,0,0:0:0:0:
352,192,30670,1,8,0:0:0:0:
352,192,30770,1,0,0:0:0:0:
352,192,30820,1,8,0:0:0:0:
352,192,30870,1,0,0:0:0:0:
352,192,30970,1,4,0:0:0:0:
352,192,31170,1,8,0:0:0:0:
288,128,31270,1,4,0:0:0:0:
204,125,31470,1,8,0:0:0:0:
204,125,31570,1,4,0:0:0:0:
204,125,31670,1,8,0:0:0:0:
204,125,31770,1,8,0:0:0:0:
204,125,31870,1,0,0:0:0:0:
204,125,31970,1,0,0:0:0:0:
204,125,32070,1,0,0:0:0:0:
288,192,32570,1,0,0:0:0:0:
288,192,32670,1,0,0:0:0:0:
288,192,32770,1,8,0:0:0:0:
226,130,32870,1,8,0:0:0:0:
176,136,32920,1,8,0:0:0:0:
256,224,32970,1,0,0:0:0:0:
288,192,33070,1,8,0:0:0:0:
320,192,33170,1,0,0:0:0:0:
315,121,33220,1,0,0:0:0:0:
320,192,33270,1,8,0:0:0:0:
320,192,33370,1,0,0:0:0:0:
352,192,33470,1,0,0:0:0:0:
352,192,33570,1,8,0:0:0:0:
352,192,33670,1,8,0:0:0:0:
315,121,33720,1,8,0:0:0:0:
352,192,33770,1,0,0:0:0:0:
352,192,33870,1,8,0:0:0:0:
352,192,33970,1,0,0:0:0:0:
352,192,34020,1,8,0:0:0:0:
352,192,34070,1,0,0:0:0:0:
352,192,34170,1,0,0:0:0:0:
352,192,34270,1,0,0:0:0:0:
352,192,34370,1,8,0:0:0:0:
288,128,34470,1,8,0:0:0:0:
223,54,34520,1,8,0:0:0:0:
288,128,34570,1,0,0:0:0:0:
288,128,34670,1,8,0:0:0:0:
320,160,34770,1,0,0:0:0:0:
220,143,34820,1,0,0:0:0:0:
288,160,34870,1,8,0:0:0:0:
320,160,34970,1,0,0:0:0:0:
320,160,35070,1,0,0:0:0:0:
320,160,35120,1,8,0:0:0:0:
320,160,35170,1,0,0:0:0:0:
320,160,35270,1,8,0:0:0:0:
320,160,35370,1,0,0:0:0:0:
320,160,35420,1,0,0:0:0:0:
320,160,35470,1,0,0:0:0:0:
320,160,35520,1,0,0:0:0:0:
320,160,35570,1,8,0:0:0:0:
320,160,35620,1,8,0:0:0:0:
320,160,35670,1,8,0:0:0:0:
320,160,35720,1,8,0:0:0:0:
288,192,35770,1,0,0:0:0:0:
288,192,35870,1,8,0:0:0:0:
320,160,35970,1,0,0:0:0:0:
256,128,36020,1,0,0:0:0:0:
288,192,36070,1,8,0:0:0:0:
256,224,36170,1,0,0:0:0:0:
288,192,36270,1,8,0:0:0:0:
256,160,36320,1,8,0:0:0:0:
320,192,36370,1,0,0:0:0:0:
320,192,36470,1,8,0:0:0:0:
320,192,36570,1,0,0:0:0:0:
288,128,36670,1,8,0:0:0:0:
224,128,36770,1,0,0:0:0:0:
224,128,36820,1,0,0:0:0:0:
352,192,36870,1,8,0:0:0:0:
352,192,36970,1,0,0:0:0:0:
352,192,37070,1,8,0:0:0:0:
352,192,37120,1,8,0:0:0:0:
352,192,37170,1,0,0:0:0:0:
352,192,37270,1,8,0:0:0:0:
352,192,37370,1,0,0:0:0:0:
320,160,37470,1,0,0:0:0:0:
320,160,37570,1,8,0:0:0:0:
320,160,37670,1,8,0:0:0:0:
320,160,37770,1,0,0:0:0:0:
320,160,37820,1,0,0:0:0:0:
320,160,37870,1,0,0:0:0:0:
320,160,37920,1,0,0:0:0:0:
320,160,37970,1,8,0:0:0:0:
320,160,38020,1,8,0:0:0:0:
320,160,38070,1,8,0:0:0:0:
320,160,38120,1,8,0:0:0:0:
320,160,38170,1,0,0:0:0:0:
352,224,38970,1,0,0:0:0:0:
352,224,39070,1,8,0:0:0:0:
288,160,39120,1,8,0:0:0:0:
288,160,39170,1,0,0:0:0:0:
288,160,39270,1,8,0:0:0:0:
384,256,39370,1,0,0:0:0:0:
384,224,39420,1,0,0:0:0:0:
384,224,39520,1,8,0:0:0:0:
384,224,39570,1,0,0:0:0:0:
168,152,39670,1,8,0:0:0:0:
384,224,39770,1,0,0:0:0:0:
384,224,39870,1,8,0:0:0:0:
384,224,39920,1,8,0:0:0:0:
384,224,39970,1,0,0:0:0:0:
384,224,40070,1,8,0:0:0:0:
384,224,40170,1,0,0:0:0:0:
384,224,40220,1,8,0:0:0:0:
384,224,40320,1,8,0:0:0:0:
384,224,40370,1,0,0:0:0:0:
384,224,40470,1,0,0:0:0:0:
384,224,40520,1,8,0:0:0:0:
384,224,40570,1,0,0:0:0:0:
279,92,40620,1,0,0:0:0:0:
384,224,40670,1,8,0:0:0:0:
352,160,40770,1,0,0:0:0:0:
352,160,40870,1,8,0:0:0:0:
352,160,40920,1,8,0:0:0:0:
352,160,40970,1,0,0:0:0:0:
352,160,41070,1,8,0:0:0:0:
352,160,41170,1,0,0:0:0:0:
352,160,41270,1,8,0:0:0:0:
256,64,41320,1,8,0:0:0:0:
352,160,41370,1,0,0:0:0:0:
352,160,41420,1,8,0:0:0:0:
249,112,41470,1,0,0:0:0:0:
352,160,41570,1,8,0:0:0:0:
352,160,41670,1,0,0:0:0:0:
260,130,41720,1,0,0:0:0:0:
260,130,41770,1,8,0:0:0:0:
260,130,41820,1,8,0:0:0:0:
352,160,41870,1,0,0:0:0:0:
352,160,41970,1,8,0:0:0:0:
352,224,42170,1,0,0:0:0:0:
352,224,42270,1,8,0:0:0:0:
224,161,42320,1,8,0:0:0:0:
288,160,42370,1,0,0:0:0:0:
288,160,42470,1,8,0:0:0:0:
384,256,42570,1,0,0:0:0:0:
156,128,42620,1,0,0:0:0:0:
384,224,42720,1,8,0:0:0:0:
384,224,42770,1,0,0:0:0:0:
384,224,42870,1,8,0:0:0:0:
384,224,42970,1,0,0:0:0:0:
384,224,43070,1,8,0:0:0:0:
384,224,43120,1,8,0:0:0:0:
384,224,43170,1,0,0:0:0:0:
384,224,43270,1,8,0:0:0:0:
384,224,43370,1,0,0:0:0:0:
384,224,43420,1,8,0:0:0:0:
384,224,43520,1,8,0:0:0:0:
384,224,43570,1,0,0:0:0:0:
288,128,43670,1,0,0:0:0:0:
310,107,43720,1,0,0:0:0:0:
288,192,43770,1,8,0:0:0:0:
288,192,43870,1,8,0:0:0:0:
288,128,43970,1,0,0:0:0:0:
288,192,44070,1,8,0:0:0:0:
288,192,44170,1,8,0:0:0:0:
310,107,44270,1,8,0:0:0:0:
288,192,44370,1,0,0:0:0:0:
288,192,44470,1,0,0:0:0:0:
288,128,44570,1,8,0:0:0:0:
288,192,44670,1,0,0:0:0:0:
288,192,44770,1,0,0:0:0:0:
192,160,44970,1,12,0:0:0:0:
352,224,45370,1,0,0:0:0:0:
352,224,45470,1,8,0:0:0:0:
288,160,45520,1,8,0:0:0:0:
288,160,45570,1,0,0:0:0:0:
288,160,45670,1,8,0:0:0:0:
384,256,45770,1,0,0:0:0:0:
384,224,45820,1,0,0:0:0:0:
384,224,45920,1,8,0:0:0:0:
384,224,45970,1,0,0:0:0:0:
384,224,46070,1,8,0:0:0:0:
384,224,46170,1,0,0:0:0:0:
384,224,46220,1,0,0:0:0:0:
384,224,46270,1,8,0:0:0:0:
384,224,46370,1,0,0:0:0:0:
384,224,46470,1,8,0:0:0:0:
384,224,46520,1,8,0:0:0:0:
384,224,46570,1,0,0:0:0:0:
384,224,46620,1,8,0:0:0:0:
153,174,46720,1,8,0:0:0:0:
384,224,46770,1,0,0:0:0:0:
384,224,46870,1,0,0:0:0:0:
384,224,46920,1,8,0:0:0:0:
384,224,46970,1,0,0:0:0:0:
384,224,47070,1,8,0:0:0:0:
352,160,47120,1,8,0:0:0:0:
352,160,47170,1,0,0:0:0:0:
352,160,47270,1,8,0:0:0:0:
352,160,47370,1,0,0:0:0:0:
171,181,47420,1,0,0:0:0:0:
352,160,47520,1,8,0:0:0:0:
352,160,47570,1,0,0:0:0:0:
352,160,47670,1,8,0:0:0:0:
256,64,47720,1,8,0:0:0:0:
352,160,47770,1,0,0:0:0:0:
352,160,47820,1,8,0:0:0:0:
352,160,47870,1,0,0:0:0:0:
352,160,47970,1,8,0:0:0:0:
352,160,48070,1,0,0:0:0:0:
210,158,48120,1,0,0:0:0:0:
210,158,48170,1,8,0:0:0:0:
210,158,48220,1,8,0:0:0:0:
352,160,48270,1,0,0:0:0:0:
352,160,48370,1,8,0:0:0:0:
352,224,48570,1,0,0:0:0:0:
320,160,48670,1,0,0:0:0:0:
288,160,48770,1,0,0:0:0:0:
288,160,48870,1,8,0:0:0:0:
384,256,48970,1,4,0:0:0:0:
384,224,49370,1,0,0:0:0:0:
384,224,49470,1,0,0:0:0:0:
384,224,49520,1,8,0:0:0:0:
384,224,49570,1,0,0:0:0:0:
384,224,49670,1,0,0:0:0:0:
128,160,49770,1,12,0:0:0:0:
384,224,50170,1,0,0:0:0:0:
384,224,50270,1,0,0:0:0:0:
384,224,50370,1,8,0:0:0:0:
384,224,50470,1,8,0:0:0:0:
384,224,50570,1,0,0:0:0:0:
384,224,50670,1,0,0:0:0:0:
384,224,50770,1,8,0:0:0:0:
384,224,50820,1,8,0:0:0:0:
384,224,50870,1,8,0:0:0:0:
384,224,50920,1,8,0:0:0:0:
384,224,50970,1,0,0:0:0:0:
384,288,51770,1,4,0:0:0:0:
384,288,52570,1,8,0:0:0:0:
352,288,53370,1,0,0:0:0:0:
448,192,54170,1,8,0:0:0:0:
416,192,54570,1,8,0:0:0:0:
416,192,54970,1,0,0:0:0:0:
416,192,55770,1,8,0:0:0:0:
416,192,56570,1,0,0:0:0:0:
416,192,56970,1,0,0:0:0:0:
416,192,57370,1,8,0:0:0:0:
416,192,57770,1,8,0:0:0:0:
416,192,58170,1,0,0:0:0:0:
416,192,58970,1,8,0:0:0:0:
416,192,59370,1,8,0:0:0:0:
416,192,59570,1,8,0:0:0:0:
416,192,59670,1,8,0:0:0:0:
416,192,59770,1,0,0:0:0:0:
416,192,60370,1,0,0:0:0:0:
416,192,60570,1,8,0:0:0:0:
416,192,60970,1,8,0:0:0:0:
416,192,61370,1,0,0:0:0:0:
416,192,61970,1,0,0:0:0:0:
416,192,62170,1,8,0:0:0:0:
416,192,62570,1,8,0:0:0:0:
416,192,62770,1,8,0:0:0:0:
416,192,62870,1,8,0:0:0:0:
416,192,62970,1,8,0:0:0:0:
352,128,64570,1,4,0:0:0:0:
384,192,64770,1,0,0:0:0:0:
384,192,64970,1,8,0:0:0:0:
384,192,65170,1,8,0:0:0:0:
384,192,65370,1,0,0:0:0:0:
384,192,65570,1,0,0:0:0:0:
384,192,65770,1,8,0:0:0:0:
384,192,65970,1,8,0:0:0:0:
384,192,66070,1,8,0:0:0:0:
384,192,66170,1,0,0:0:0:0:
384,192,66370,1,0,0:0:0:0:
384,192,66570,1,8,0:0:0:0:
384,192,66770,1,0,0:0:0:0:
384,192,66870,1,8,0:0:0:0:
384,192,67070,1,8,0:0:0:0:
384,192,67170,1,0,0:0:0:0:
384,192,67370,1,8,0:0:0:0:
384,192,67570,1,8,0:0:0:0:
384,192,67770,1,0,0:0:0:0:
384,192,67970,1,0,0:0:0:0:
384,192,68170,1,8,0:0:0:0:
384,192,68370,1,8,0:0:0:0:
384,192,68570,1,0,0:0:0:0:
384,192,68770,1,0,0:0:0:0:
384,192,68970,1,8,0:0:0:0:
384,192,69170,1,8,0:0:0:0:
384,192,69270,1,8,0:0:0:0:
384,192,69370,1,0,0:0:0:0:
384,192,69570,1,0,0:0:0:0:
384,192,69770,1,8,0:0:0:0:
384,192,69970,1,0,0:0:0:0:
384,192,70070,1,8,0:0:0:0:
384,192,70270,1,8,0:0:0:0:
384,192,70370,1,0,0:0:0:0:
256,160,70470,1,0,0:0:0:0:
256,160,70570,1,8,0:0:0:0:
256,160,70770,1,8,0:0:0:0:
256,160,70970,1,0,0:0:0:0:
256,160,71170,1,0,0:0:0:0:
256,160,71370,1,8,0:0:0:0:
256,160,71570,1,0,0:0:0:0:
256,160,71770,1,0,0:0:0:0:
256,160,71970,1,0,0:0:0:0:
256,160,72170,1,8,0:0:0:0:
256,160,72370,1,0,0:0:0:0:
256,160,72470,1,8,0:0:0:0:
256,160,72570,1,0,0:0:0:0:
256,160,72770,1,0,0:0:0:0:
256,160,72970,1,8,0:0:0:0:
256,160,73170,1,8,0:0:0:0:
256,160,73270,1,8,0:0:0:0:
256,160,73370,1,0,0:0:0:0:
256,160,73470,1,8,0:0:0:0:
256,160,73570,1,0,0:0:0:0:
256,160,73770,1,8,0:0:0:0:
256,160,73970,1,8,0:0:0:0:
222,181,74070,1,8,0:0:0:0:
288,224,74170,1,0,0:0:0:0:
288,224,74270,1,0,0:0:0:0:
288,224,74370,1,8,0:0:0:0:
288,224,74470,1,0,0:0:0:0:
288,224,74570,1,8,0:0:0:0:
288,224,74670,1,8,0:0:0:0:
288,224,74770,1,0,0:0:0:0:
288,224,74870,1,8,0:0:0:0:
288,160,74970,1,0,0:0:0:0:
288,160,75070,1,0,0:0:0:0:
288,160,75170,1,8,0:0:0:0:
288,160,75270,1,0,0:0:0:0:
288,160,75370,1,8,0:0:0:0:
288,160,75470,1,8,0:0:0:0:
320,160,75570,1,8,0:0:0:0:
320,160,75670,1,8,0:0:0:0:
320,160,75770,1,4,0:0:0:0:
192,160,76970,1,12,0:0:0:0:
320,192,77370,1,0,0:0:0:0:
320,192,77470,1,0,0:0:0:0:
320,192,77520,1,8,0:0:0:0:
320,192,77570,1,0,0:0:0:0:
288,192,77670,1,8,0:0:0:0:
288,160,77770,1,0,0:0:0:0:
288,160,77820,1,0,0:0:0:0:
288,160,77870,1,8,0:0:0:0:
288,160,77970,1,0,0:0:0:0:
288,160,78070,1,0,0:0:0:0:
288,160,78120,1,8,0:0:0:0:
288,160,78170,1,0,0:0:0:0:
288,160,78220,1,0,0:0:0:0:
288,160,78270,1,8,0:0:0:0:
288,160,78370,1,0,0:0:0:0:
288,160,78470,1,8,0:0:0:0:
288,128,78520,1,8,0:0:0:0:
288,128,78570,1,0,0:0:0:0:
288,128,78670,1,8,0:0:0:0:
320,128,78770,1,0,0:0:0:0:
320,128,78820,1,0,0:0:0:0:
320,128,78870,1,0,0:0:0:0:
320,128,78920,1,0,0:0:0:0:
320,128,78970,1,0,0:0:0:0:
320,128,79070,1,0,0:0:0:0:
320,128,79120,1,8,0:0:0:0:
320,128,79170,1,0,0:0:0:0:
288,160,79270,1,8,0:0:0:0:
288,160,79370,1,0,0:0:0:0:
256,128,79420,1,0,0:0:0:0:
256,128,79470,1,8,0:0:0:0:
256,128,79570,1,0,0:0:0:0:
320,128,79670,1,0,0:0:0:0:
320,128,79720,1,8,0:0:0:0:
288,160,79820,1,8,0:0:0:0:
288,160,79870,1,0,0:0:0:0:
256,160,79970,1,8,0:0:0:0:
256,160,80070,1,0,0:0:0:0:
256,160,80120,1,0,0:0:0:0:
256,160,80170,1,8,0:0:0:0:
224,160,80270,1,0,0:0:0:0:
224,160,80370,1,8,0:0:0:0:
224,160,80420,1,8,0:0:0:0:
224,160,80470,1,8,0:0:0:0:
224,160,80520,1,8,0:0:0:0:
320,192,80570,1,0,0:0:0:0:
320,192,80670,1,0,0:0:0:0:
320,192,80720,1,8,0:0:0:0:
320,192,80770,1,0,0:0:0:0:
288,192,80870,1,8,0:0:0:0:
288,160,80970,1,0,0:0:0:0:
288,160,81020,1,0,0:0:0:0:
288,160,81070,1,8,0:0:0:0:
288,160,81170,1,0,0:0:0:0:
288,160,81270,1,0,0:0:0:0:
288,160,81320,1,8,0:0:0:0:
288,160,81370,1,0,0:0:0:0:
288,160,81420,1,0,0:0:0:0:
288,160,81470,1,8,0:0:0:0:
288,160,81570,1,0,0:0:0:0:
288,160,81670,1,8,0:0:0:0:
288,128,81720,1,8,0:0:0:0:
288,128,81770,1,0,0:0:0:0:
288,128,81870,1,8,0:0:0:0:
320,128,81970,1,0,0:0:0:0:
320,128,82020,1,0,0:0:0:0:
320,128,82070,1,0,0:0:0:0:
224,160,82170,1,12,0:0:0:0:
224,160,82270,1,12,0:0:0:0:
224,160,82470,1,12,0:0:0:0:
224,160,82570,1,12,0:0:0:0:
224,160,82770,1,4,0:0:0:0:
224,160,82870,1,4,0:0:0:0:
224,160,83070,1,4,0:0:0:0:
224,160,83170,1,4,0:0:0:0:
224,160,83370,1,12,0:0:0:0:
320,192,83770,1,0,0:0:0:0:
320,192,83870,1,0,0:0:0:0:
320,192,83920,1,8,0:0:0:0:
320,192,83970,1,0,0:0:0:0:
288,192,84070,1,8,0:0:0:0:
288,160,84170,1,0,0:0:0:0:
288,160,84220,1,0,0:0:0:0:
288,160,84270,1,8,0:0:0:0:
288,160,84370,1,0,0:0:0:0:
288,160,84470,1,0,0:0:0:0:
288,160,84520,1,8,0:0:0:0:
288,160,84570,1,0,0:0:0:0:
288,160,84620,1,0,0:0:0:0:
288,160,84670,1,8,0:0:0:0:
288,160,84770,1,0,0:0:0:0:
288,160,84870,1,8,0:0:0:0:
288,128,84920,1,8,0:0:0:0:
288,128,84970,1,0,0:0:0:0:
288,128,85070,1,8,0:0:0:0:
320,128,85170,1,0,0:0:0:0:
320,128,85220,1,0,0:0:0:0:
320,128,85270,1,0,0:0:0:0:
320,128,85320,1,0,0:0:0:0:
320,128,85370,1,0,0:0:0:0:
320,128,85470,1,0,0:0:0:0:
320,128,85520,1,8,0:0:0:0:
320,128,85570,1,0,0:0:0:0:
288,160,85670,1,8,0:0:0:0:
288,160,85770,1,0,0:0:0:0:
256,128,85820,1,0,0:0:0:0:
256,128,85870,1,8,0:0:0:0:
256,128,85970,1,0,0:0:0:0:
320,128,86070,1,0,0:0:0:0:
320,128,86120,1,8,0:0:0:0:
288,160,86220,1,8,0:0:0:0:
288,160,86270,1,0,0:0:0:0:
256,160,86370,1,8,0:0:0:0:
256,160,86470,1,0,0:0:0:0:
256,160,86520,1,0,0:0:0:0:
256,160,86570,1,8,0:0:0:0:
224,160,86670,1,0,0:0:0:0:
224,160,86770,1,8,0:0:0:0:
224,160,86820,1,8,0:0:0:0:
224,160,86870,1,8,0:0:0:0:
224,160,86920,1,8,0:0:0:0:
320,192,86970,1,0,0:0:0:0:
320,192,87070,1,0,0:0:0:0:
320,192,87120,1,8,0:0:0:0:
320,192,87170,1,0,0:0:0:0:
288,128,87220,1,0,0:0:0:0:
288,192,87270,1,8,0:0:0:0:
256,128,87370,1,4,0:0:0:0:
160,96,87770,1,0,0:0:0:0:
352,224,87820,1,0,0:0:0:0:
352,192,87870,1,8,0:0:0:0:
352,192,87920,1,0,0:0:0:0:
352,192,87970,1,8,0:0:0:0:
352,192,88020,1,8,0:0:0:0:
352,192,88070,1,0,0:0:0:0:
352,192,88170,1,12,0:0:0:0:
256,96,88570,1,4,0:0:0:0:
256,96,88670,1,4,0:0:0:0:
256,96,88870,1,4,0:0:0:0:
256,96,88970,1,4,0:0:0:0:
256,96,89170,1,12,0:0:0:0:
256,96,89270,1,12,0:0:0:0:
256,96,89470,1,12,0:0:0:0:
256,96,89570,1,12,0:0:0:0:
256,192,89770,12,0,89970,0:0:0:0:
288,192,90170,5,0,0:0:0:0:
288,192,90320,1,8,0:0:0:0:
192,160,90370,1,0,0:0:0:0:
288,192,90470,1,8,0:0:0:0:
256,224,90570,1,0,0:0:0:0:
288,192,90670,1,8,0:0:0:0:
320,192,90770,1,0,0:0:0:0:
256,160,90820,1,0,0:0:0:0:
320,192,90870,1,8,0:0:0:0:
288,96,90920,1,8,0:0:0:0:
320,192,90970,1,0,0:0:0:0:
352,192,91070,1,8,0:0:0:0:
352,192,91170,1,0,0:0:0:0:
352,192,91220,1,8,0:0:0:0:
192,128,91320,1,8,0:0:0:0:
352,192,91370,1,0,0:0:0:0:
352,192,91470,1,8,0:0:0:0:
352,192,91570,1,0,0:0:0:0:
352,192,91620,1,8,0:0:0:0:
352,192,91670,1,0,0:0:0:0:
352,192,91770,1,0,0:0:0:0:
224,96,91870,1,8,0:0:0:0:
224,96,91920,1,8,0:0:0:0:
352,192,91970,1,0,0:0:0:0:
288,128,92070,1,8,0:0:0:0:
288,128,92170,1,0,0:0:0:0:
288,128,92220,1,0,0:0:0:0:
288,128,92270,1,8,0:0:0:0:
320,160,92370,1,0,0:0:0:0:
288,160,92470,1,8,0:0:0:0:
192,128,92520,1,8,0:0:0:0:
320,160,92570,1,0,0:0:0:0:
256,96,92620,1,8,0:0:0:0:
224,96,92670,1,8,0:0:0:0:
320,160,92770,1,0,0:0:0:0:
320,160,92870,1,8,0:0:0:0:
320,160,92970,1,0,0:0:0:0:
320,160,93020,1,0,0:0:0:0:
320,160,93070,1,8,0:0:0:0:
320,160,93120,1,0,0:0:0:0:
320,160,93170,1,8,0:0:0:0:
320,160,93220,1,8,0:0:0:0:
320,160,93270,1,0,0:0:0:0:
320,160,93320,1,0,0:0:0:0:
288,192,93370,1,8,0:0:0:0:
288,192,93520,1,8,0:0:0:0:
288,192,93570,1,0,0:0:0:0:
288,192,93670,1,8,0:0:0:0:
256,224,93770,1,0,0:0:0:0:
256,160,93820,1,0,0:0:0:0:
288,192,93870,1,8,0:0:0:0:
320,192,93970,1,0,0:0:0:0:
320,192,94070,1,8,0:0:0:0:
288,96,94120,1,8,0:0:0:0:
320,192,94170,1,0,0:0:0:0:
288,96,94220,1,0,0:0:0:0:
352,192,94270,1,8,0:0:0:0:
352,192,94370,1,0,0:0:0:0:
256,96,94470,1,8,0:0:0:0:
256,96,94520,1,8,0:0:0:0:
352,192,94570,1,0,0:0:0:0:
352,192,94670,1,8,0:0:0:0:
352,192,94770,1,0,0:0:0:0:
352,192,94820,1,8,0:0:0:0:
352,192,94870,1,0,0:0:0:0:
224,32,94920,1,0,0:0:0:0:
320,160,94970,1,8,0:0:0:0:
320,192,95070,1,8,0:0:0:0:
352,192,95170,1,0,0:0:0:0:
288,160,95270,1,8,0:0:0:0:
288,160,95370,1,8,0:0:0:0:
352,224,95470,1,0,0:0:0:0:
288,160,95570,1,8,0:0:0:0:
165,161,95620,1,8,0:0:0:0:
288,160,95670,1,8,0:0:0:0:
288,160,95770,1,0,0:0:0:0:
288,160,95870,1,8,0:0:0:0:
288,128,95920,1,8,0:0:0:0:
288,160,95970,1,8,0:0:0:0:
192,192,96070,1,0,0:0:0:0:
160,128,96170,1,12,0:0:0:0:
288,192,96570,1,0,0:0:0:0:
288,192,96670,1,0,0:0:0:0:
246,170,96720,1,0,0:0:0:0:
288,192,96770,1,8,0:0:0:0:
288,192,96870,1,8,0:0:0:0:
256,224,96970,1,0,0:0:0:0:
288,192,97070,1,8,0:0:0:0:
256,160,97120,1,8,0:0:0:0:
320,192,97170,1,0,0:0:0:0:
320,192,97270,1,8,0:0:0:0:
320,192,97370,1,0,0:0:0:0:
293,151,97420,1,8,0:0:0:0:
352,192,97470,1,0,0:0:0:0:
220,187,97520,1,0,0:0:0:0:
352,192,97570,1,8,0:0:0:0:
234,170,97603,1,0,0:0:0:0:
234,170,97636,1,0,0:0:0:0:
209,116,97670,1,8,0:0:0:0:
234,170,97720,1,8,0:0:0:0:
352,192,97770,1,0,0:0:0:0:
352,192,98170,1,0,0:0:0:0:
352,192,98270,1,0,0:0:0:0:
273,116,98320,1,0,0:0:0:0:
352,192,98370,1,8,0:0:0:0:
288,128,98470,1,8,0:0:0:0:
288,128,98570,1,0,0:0:0:0:
288,128,98670,1,8,0:0:0:0:
288,128,98720,1,8,0:0:0:0:
320,160,98770,1,0,0:0:0:0:
288,160,98870,1,8,0:0:0:0:
320,160,98970,1,0,0:0:0:0:
320,160,99070,1,0,0:0:0:0:
320,160,99170,1,12,0:0:0:0:
307,134,99370,1,0,0:0:0:0:
307,134,99470,1,0,0:0:0:0:
307,134,99570,1,12,0:0:0:0:
300,127,99770,1,0,0:0:0:0:
315,172,99820,1,0,0:0:0:0:
288,192,99870,1,8,0:0:0:0:
315,172,99920,1,8,0:0:0:0:
320,160,99970,1,0,0:0:0:0:
333,210,100020,1,0,0:0:0:0:
288,192,100070,1,8,0:0:0:0:
333,210,100120,1,0,0:0:0:0:
256,224,100170,1,0,0:0:0:0:
333,210,100220,1,0,0:0:0:0:
333,210,100270,1,8,0:0:0:0:
256,160,100320,1,8,0:0:0:0:
320,192,100370,1,0,0:0:0:0:
191,125,100403,1,0,0:0:0:0:
228,136,100436,1,0,0:0:0:0:
320,192,100470,1,8,0:0:0:0:
228,136,100520,1,8,0:0:0:0:
320,192,100570,1,0,0:0:0:0:
237,81,100620,1,0,0:0:0:0:
288,128,100670,1,8,0:0:0:0:
247,82,100720,1,8,0:0:0:0:
224,128,100770,1,0,0:0:0:0:
254,66,100803,1,8,0:0:0:0:
282,121,100836,1,8,0:0:0:0:
352,192,100870,1,0,0:0:0:0:
282,121,100920,1,8,0:0:0:0:
352,192,100970,1,0,0:0:0:0:
275,139,101020,1,0,0:0:0:0:
352,192,101070,1,8,0:0:0:0:
352,192,101120,1,8,0:0:0:0:
352,192,101170,1,0,0:0:0:0:
342,119,101203,1,8,0:0:0:0:
249,114,101236,1,8,0:0:0:0:
342,119,101270,1,8,0:0:0:0:
342,119,101320,1,8,0:0:0:0:
352,192,101370,1,0,0:0:0:0:
320,160,101470,1,0,0:0:0:0:
320,160,101570,1,8,0:0:0:0:
320,160,101670,1,8,0:0:0:0:
393,154,101770,1,0,0:0:0:0:
393,154,101870,1,0,0:0:0:0:
393,154,101970,1,8,0:0:0:0:
393,154,102070,1,8,0:0:0:0:
256,192,102170,12,0,102770,0:0:0:0:
384,288,102970,5,4,0:0:0:0:
313,216,103570,1,0,0:0:0:0:
384,288,103770,1,8,0:0:0:0:
275,232,104170,1,8,0:0:0:0:
275,232,104370,1,8,0:0:0:0:
275,232,104470,1,8,0:0:0:0:
352,288,104570,1,0,0:0:0:0:
275,232,105170,1,0,0:0:0:0:
448,192,105370,1,8,0:0:0:0:
416,192,105770,1,8,0:0:0:0:
275,232,105970,1,8,0:0:0:0:
416,192,106170,1,0,0:0:0:0:
275,232,106770,1,0,0:0:0:0:
416,192,106970,1,8,0:0:0:0:
275,232,107370,1,8,0:0:0:0:
275,232,107570,1,8,0:0:0:0:
325,310,107670,1,8,0:0:0:0:
416,192,107770,1,0,0:0:0:0:
275,232,107970,1,0,0:0:0:0:
275,232,108170,1,8,0:0:0:0:
275,232,108370,1,8,0:0:0:0:
221,236,108570,1,0,0:0:0:0:
416,192,108970,1,8,0:0:0:0:
416,192,109370,1,0,0:0:0:0:
416,192,110170,1,8,0:0:0:0:
416,192,110970,1,8,0:0:0:0:
416,192,111770,1,8,0:0:0:0:
416,192,112170,1,8,0:0:0:0:
416,192,112570,1,8,0:0:0:0:
190,147,113370,1,8,0:0:0:0:
268,144,114170,1,8,0:0:0:0:
268,144,114570,1,8,0:0:0:0:
268,144,114970,1,8,0:0:0:0:
268,144,115370,1,8,0:0:0:0:
