osu file format v14

[General]
AudioFilename: audio.mp3
AudioLeadIn: 0
PreviewTime: 75766
Countdown: 1
SampleSet: Soft
StackLeniency: 0.7
Mode: 3
LetterboxInBreaks: 0
SpecialStyle: 0
WidescreenStoryboard: 1

[Editor]
DistanceSpacing: 1.1
BeatDivisor: 2
GridSize: 4
TimelineZoom: 1.9

[Metadata]
Title:SAtAN
TitleUnicode:SAtAN
Artist:P*Light
ArtistUnicode:P*Light
Creator:Ortlinde
Version:NOVICE
Source:SOUND VOLTEX IV HEAVENLY HAVEN
Tags:The 7th KACオリジナル楽曲コンテスト Original Song Contest
BeatmapID:1666980
BeatmapSetID:793236

[Difficulty]
HPDrainRate:8
CircleSize:4
OverallDifficulty:8
ApproachRate:5
SliderMultiplier:1.4
SliderTickRate:1

[Events]
//Background and Video events
0,0,"195504.jpg",0,0
//Break Periods
//Storyboard Layer 0 (Background)
//Storyboard Layer 1 (Fail)
//Storyboard Layer 2 (Pass)
//Storyboard Layer 3 (Foreground)
//Storyboard Sound Samples

[TimingPoints]
568,200,4,2,0,20,1,0
26168,-100,4,2,0,20,0,1
38968,-100,4,2,0,20,0,0
77368,-100,4,2,0,20,0,1
89768,-100,4,2,0,20,0,0
90168,-100,4,2,0,20,0,1
102968,-100,4,2,0,20,0,0

[HitObjects]
64,192,568,5,0,0:0:0:0:
448,192,568,1,0,0:0:0:0:
192,192,768,1,0,0:0:0:0:
320,192,968,1,0,0:0:0:0:
448,192,1168,1,0,0:0:0:0:
64,192,1368,1,0,0:0:0:0:
192,192,1568,1,0,0:0:0:0:
320,192,1768,1,0,0:0:0:0:
448,192,1968,1,0,0:0:0:0:
64,192,2168,1,0,0:0:0:0:
192,192,2368,1,0,0:0:0:0:
320,192,2568,1,0,0:0:0:0:
448,192,2768,1,0,0:0:0:0:
64,192,2968,1,0,0:0:0:0:
448,192,3168,1,0,0:0:0:0:
320,192,3368,1,0,0:0:0:0:
192,192,3568,1,0,0:0:0:0:
64,192,3768,1,0,0:0:0:0:
448,192,3768,1,0,0:0:0:0:
320,192,3968,1,0,0:0:0:0:
192,192,4168,1,0,0:0:0:0:
64,192,4368,1,0,0:0:0:0:
448,192,4568,1,0,0:0:0:0:
320,192,4768,1,0,0:0:0:0:
192,192,4968,1,0,0:0:0:0:
64,192,5168,1,0,0:0:0:0:
448,192,5368,1,0,0:0:0:0:
320,192,5568,1,0,0:0:0:0:
192,192,5768,1,0,0:0:0:0:
64,192,5968,1,0,0:0:0:0:
448,192,6168,1,0,0:0:0:0:
64,192,6368,1,0,0:0:0:0:
192,192,6568,1,0,0:0:0:0:
320,192,6768,1,0,0:0:0:0:
448,192,6968,1,0,0:0:0:0:
64,192,6968,128,0,8568:0:0:0:0:
192,192,7168,1,0,0:0:0:0:
320,192,7368,1,0,0:0:0:0:
192,192,7568,1,0,0:0:0:0:
448,192,7768,1,0,0:0:0:0:
320,192,7968,1,0,0:0:0:0:
448,192,8168,1,0,0:0:0:0:
192,192,8368,1,0,0:0:0:0:
448,192,8568,128,0,10168:0:0:0:0:
320,192,8768,1,0,0:0:0:0:
64,192,8968,1,0,0:0:0:0:
192,192,9168,1,0,0:0:0:0:
320,192,9368,1,0,0:0:0:0:
64,192,9568,1,0,0:0:0:0:
192,192,9768,1,0,0:0:0:0:
320,192,9968,1,0,0:0:0:0:
64,192,10168,1,0,0:0:0:0:
192,192,10368,1,0,0:0:0:0:
320,192,10568,1,0,0:0:0:0:
448,192,10768,1,0,0:0:0:0:
64,192,10968,128,0,11368:0:0:0:0:
192,192,11368,128,0,11768:0:0:0:0:
320,192,11768,1,0,0:0:0:0:
448,192,11768,1,0,0:0:0:0:
192,192,12568,128,0,12968:0:0:0:0:
320,192,12968,1,0,0:0:0:0:
64,192,13368,1,0,0:0:0:0:
448,192,13368,1,0,0:0:0:0:
192,192,13568,1,0,0:0:0:0:
320,192,13768,1,0,0:0:0:0:
448,192,13968,1,0,0:0:0:0:
64,192,14168,1,0,0:0:0:0:
192,192,14368,1,0,0:0:0:0:
320,192,14568,1,0,0:0:0:0:
448,192,14768,1,0,0:0:0:0:
320,192,14868,1,0,0:0:0:0:
64,192,14968,1,0,0:0:0:0:
192,192,15168,1,0,0:0:0:0:
320,192,15368,1,0,0:0:0:0:
448,192,15568,1,0,0:0:0:0:
64,192,15768,1,0,0:0:0:0:
192,192,15868,1,0,0:0:0:0:
448,192,15968,1,0,0:0:0:0:
320,192,16068,1,0,0:0:0:0:
64,192,16168,1,0,0:0:0:0:
448,192,16368,1,0,0:0:0:0:
64,192,16568,1,0,0:0:0:0:
192,192,16768,1,0,0:0:0:0:
320,192,16968,1,0,0:0:0:0:
448,192,17168,1,0,0:0:0:0:
64,192,17368,1,0,0:0:0:0:
192,192,17568,1,0,0:0:0:0:
320,192,17768,1,0,0:0:0:0:
448,192,17968,1,0,0:0:0:0:
64,192,18168,1,0,0:0:0:0:
192,192,18268,1,0,0:0:0:0:
448,192,18468,1,0,0:0:0:0:
320,192,18568,1,0,0:0:0:0:
192,192,18768,1,0,0:0:0:0:
64,192,18868,1,0,0:0:0:0:
320,192,19068,1,0,0:0:0:0:
448,192,19168,1,0,0:0:0:0:
192,192,19368,128,0,19768:0:0:0:0:
64,192,19368,1,0,0:0:0:0:
64,192,19768,1,0,0:0:0:0:
448,192,19768,1,0,0:0:0:0:
320,192,19968,1,0,0:0:0:0:
192,192,20168,1,0,0:0:0:0:
64,192,20368,1,0,0:0:0:0:
448,192,20568,1,0,0:0:0:0:
320,192,20768,1,0,0:0:0:0:
192,192,20968,1,0,0:0:0:0:
64,192,21168,1,0,0:0:0:0:
192,192,21268,1,0,0:0:0:0:
448,192,21368,1,0,0:0:0:0:
320,192,21568,1,0,0:0:0:0:
192,192,21768,1,0,0:0:0:0:
64,192,21968,1,0,0:0:0:0:
448,192,22168,1,0,0:0:0:0:
320,192,22268,1,0,0:0:0:0:
64,192,22368,1,0,0:0:0:0:
192,192,22468,1,0,0:0:0:0:
448,192,22568,1,0,0:0:0:0:
64,192,22768,1,0,0:0:0:0:
448,192,22968,1,0,0:0:0:0:
320,192,23068,1,0,0:0:0:0:
192,192,23168,1,0,0:0:0:0:
64,192,23268,1,0,0:0:0:0:
448,192,23368,128,0,23768:0:0:0:0:
64,192,23768,1,0,0:0:0:0:
192,192,23868,1,0,0:0:0:0:
320,192,23968,1,0,0:0:0:0:
448,192,24068,1,0,0:0:0:0:
64,192,24168,128,0,24568:0:0:0:0:
448,192,24568,1,0,0:0:0:0:
320,192,24668,1,0,0:0:0:0:
64,192,24868,1,0,0:0:0:0:
192,192,24968,1,0,0:0:0:0:
320,192,25168,1,0,0:0:0:0:
448,192,25268,1,0,0:0:0:0:
192,192,25468,1,0,0:0:0:0:
64,192,25568,1,0,0:0:0:0:
320,192,25768,128,0,25968:0:0:0:0:
192,192,25968,1,0,0:0:0:0:
64,192,26168,1,0,0:0:0:0:
448,192,26168,1,0,0:0:0:0:
320,192,26368,1,0,0:0:0:0:
64,192,26568,1,0,0:0:0:0:
320,192,26768,1,0,0:0:0:0:
192,192,26968,1,0,0:0:0:0:
448,192,27168,1,0,0:0:0:0:
192,192,27368,1,0,0:0:0:0:
448,192,27568,1,0,0:0:0:0:
320,192,27668,1,0,0:0:0:0:
64,192,27768,1,0,0:0:0:0:
448,192,27968,1,0,0:0:0:0:
64,192,28168,1,0,0:0:0:0:
448,192,28368,1,0,0:0:0:0:
192,192,28568,1,0,0:0:0:0:
64,192,28668,1,0,0:0:0:0:
320,192,28768,1,0,0:0:0:0:
448,192,28868,1,0,0:0:0:0:
192,192,28968,128,0,29368:0:0:0:0:
64,192,29368,1,0,0:0:0:0:
320,192,29568,1,0,0:0:0:0:
64,192,29768,1,0,0:0:0:0:
320,192,29968,1,0,0:0:0:0:
192,192,30168,1,0,0:0:0:0:
448,192,30368,1,0,0:0:0:0:
192,192,30568,1,0,0:0:0:0:
448,192,30768,1,0,0:0:0:0:
320,192,30868,1,0,0:0:0:0:
64,192,30968,1,0,0:0:0:0:
192,192,31168,1,0,0:0:0:0:
448,192,31268,1,0,0:0:0:0:
320,192,31468,1,0,0:0:0:0:
64,192,31568,1,0,0:0:0:0:
448,192,31768,1,0,0:0:0:0:
320,192,31868,1,0,0:0:0:0:
192,192,31968,1,0,0:0:0:0:
64,192,32068,1,0,0:0:0:0:
320,192,32168,128,0,32368:0:0:0:0:
192,192,32368,128,0,32568:0:0:0:0:
448,192,32568,1,0,0:0:0:0:
64,192,32568,1,0,0:0:0:0:
192,192,32768,1,0,0:0:0:0:
448,192,32968,1,0,0:0:0:0:
192,192,33168,1,0,0:0:0:0:
320,192,33368,1,0,0:0:0:0:
64,192,33568,1,0,0:0:0:0:
320,192,33768,1,0,0:0:0:0:
64,192,33968,1,0,0:0:0:0:
192,192,34068,1,0,0:0:0:0:
448,192,34168,1,0,0:0:0:0:
320,192,34168,1,0,0:0:0:0:
64,192,34368,1,0,0:0:0:0:
448,192,34568,1,0,0:0:0:0:
64,192,34768,1,0,0:0:0:0:
320,192,34968,1,0,0:0:0:0:
448,192,35068,1,0,0:0:0:0:
192,192,35168,1,0,0:0:0:0:
64,192,35268,1,0,0:0:0:0:
320,192,35368,128,0,35768:0:0:0:0:
448,192,35768,1,0,0:0:0:0:
64,192,35768,1,0,0:0:0:0:
192,192,35968,1,0,0:0:0:0:
320,192,36168,1,0,0:0:0:0:
192,192,36368,1,0,0:0:0:0:
64,192,36568,1,0,0:0:0:0:
448,192,36568,1,0,0:0:0:0:
320,192,36768,1,0,0:0:0:0:
192,192,36968,1,0,0:0:0:0:
320,192,37168,1,0,0:0:0:0:
448,192,37368,1,0,0:0:0:0:
64,192,37368,1,0,0:0:0:0:
192,192,37568,1,0,0:0:0:0:
320,192,37768,1,0,0:0:0:0:
448,192,37968,1,0,0:0:0:0:
64,192,38168,128,0,38968:0:0:0:0:
320,192,38968,1,0,0:0:0:0:
448,192,38968,1,0,0:0:0:0:
192,192,39168,1,0,0:0:0:0:
320,192,39368,1,0,0:0:0:0:
64,192,39568,1,0,0:0:0:0:
448,192,39768,1,0,0:0:0:0:
192,192,39968,1,0,0:0:0:0:
320,192,40168,1,0,0:0:0:0:
64,192,40368,1,0,0:0:0:0:
192,192,40468,1,0,0:0:0:0:
448,192,40568,1,0,0:0:0:0:
64,192,40768,1,0,0:0:0:0:
320,192,40968,1,0,0:0:0:0:
192,192,41168,1,0,0:0:0:0:
64,192,41368,1,0,0:0:0:0:
320,192,41468,1,0,0:0:0:0:
448,192,41568,1,0,0:0:0:0:
192,192,41668,1,0,0:0:0:0:
64,192,41768,1,0,0:0:0:0:
320,192,41968,1,0,0:0:0:0:
448,192,42168,1,0,0:0:0:0:
192,192,42368,1,0,0:0:0:0:
320,192,42568,1,0,0:0:0:0:
64,192,42768,1,0,0:0:0:0:
448,192,42968,1,0,0:0:0:0:
192,192,43168,1,0,0:0:0:0:
320,192,43368,1,0,0:0:0:0:
64,192,43568,1,0,0:0:0:0:
192,192,43668,1,0,0:0:0:0:
448,192,43768,1,0,0:0:0:0:
64,192,43868,1,0,0:0:0:0:
320,192,44068,1,0,0:0:0:0:
192,192,44168,1,0,0:0:0:0:
448,192,44368,1,0,0:0:0:0:
64,192,44468,1,0,0:0:0:0:
320,192,44668,1,0,0:0:0:0:
192,192,44768,1,0,0:0:0:0:
64,192,44968,1,0,0:0:0:0:
448,192,44968,128,0,45368:0:0:0:0:
192,192,45368,1,0,0:0:0:0:
320,192,45368,1,0,0:0:0:0:
64,192,45568,1,0,0:0:0:0:
448,192,45768,1,0,0:0:0:0:
192,192,45968,1,0,0:0:0:0:
320,192,46168,1,0,0:0:0:0:
64,192,46368,1,0,0:0:0:0:
448,192,46568,1,0,0:0:0:0:
192,192,46768,1,0,0:0:0:0:
64,192,46868,1,0,0:0:0:0:
320,192,46968,1,0,0:0:0:0:
192,192,47168,1,0,0:0:0:0:
448,192,47368,1,0,0:0:0:0:
64,192,47568,1,0,0:0:0:0:
320,192,47768,1,0,0:0:0:0:
448,192,47868,1,0,0:0:0:0:
192,192,47968,1,0,0:0:0:0:
64,192,48068,1,0,0:0:0:0:
320,192,48168,1,0,0:0:0:0:
448,192,48368,1,0,0:0:0:0:
64,192,48568,1,0,0:0:0:0:
320,192,48668,1,0,0:0:0:0:
448,192,48768,1,0,0:0:0:0:
192,192,48868,1,0,0:0:0:0:
64,192,48968,128,0,49368:0:0:0:0:
448,192,49368,1,0,0:0:0:0:
192,192,49468,1,0,0:0:0:0:
64,192,49568,1,0,0:0:0:0:
320,192,49668,1,0,0:0:0:0:
448,192,49768,128,0,50168:0:0:0:0:
64,192,50168,1,0,0:0:0:0:
192,192,50168,128,0,50568:0:0:0:0:
320,192,50568,128,0,50968:0:0:0:0:
448,192,50968,1,0,0:0:0:0:
320,192,51768,1,0,0:0:0:0:
64,192,51768,128,0,54968:0:0:0:0:
320,192,52368,1,0,0:0:0:0:
192,192,52568,1,0,0:0:0:0:
320,192,53368,1,0,0:0:0:0:
448,192,53968,1,0,0:0:0:0:
192,192,54168,1,0,0:0:0:0:
448,192,54968,1,0,0:0:0:0:
320,192,54968,128,0,58168:0:0:0:0:
448,192,55568,1,0,0:0:0:0:
64,192,55768,1,0,0:0:0:0:
448,192,56568,1,0,0:0:0:0:
192,192,57168,1,0,0:0:0:0:
64,192,57368,1,0,0:0:0:0:
192,192,58168,1,0,0:0:0:0:
448,192,58168,128,0,61368:0:0:0:0:
192,192,58768,1,0,0:0:0:0:
320,192,58968,1,0,0:0:0:0:
192,192,59768,1,0,0:0:0:0:
64,192,60368,1,0,0:0:0:0:
320,192,60568,1,0,0:0:0:0:
192,192,61368,128,0,62968:0:0:0:0:
64,192,62968,1,0,0:0:0:0:
448,192,62968,1,0,0:0:0:0:
64,192,64568,128,0,66168:0:0:0:0:
448,192,64568,1,0,0:0:0:0:
192,192,64768,1,0,0:0:0:0:
320,192,64968,1,0,0:0:0:0:
448,192,65168,1,0,0:0:0:0:
192,192,65368,1,0,0:0:0:0:
320,192,65568,1,0,0:0:0:0:
448,192,65768,1,0,0:0:0:0:
192,192,65968,1,0,0:0:0:0:
320,192,66068,1,0,0:0:0:0:
448,192,66168,128,0,67768:0:0:0:0:
192,192,66368,1,0,0:0:0:0:
64,192,66568,1,0,0:0:0:0:
192,192,66768,1,0,0:0:0:0:
320,192,66868,1,0,0:0:0:0:
64,192,67068,1,0,0:0:0:0:
192,192,67168,1,0,0:0:0:0:
320,192,67368,1,0,0:0:0:0:
64,192,67568,1,0,0:0:0:0:
192,192,67768,128,0,69368:0:0:0:0:
64,192,67968,1,0,0:0:0:0:
320,192,68168,1,0,0:0:0:0:
448,192,68368,1,0,0:0:0:0:
64,192,68568,1,0,0:0:0:0:
320,192,68768,1,0,0:0:0:0:
448,192,68968,1,0,0:0:0:0:
64,192,69168,1,0,0:0:0:0:
320,192,69368,128,0,70968:0:0:0:0:
64,192,69568,1,0,0:0:0:0:
448,192,69768,1,0,0:0:0:0:
192,192,69968,1,0,0:0:0:0:
64,192,70068,1,0,0:0:0:0:
192,192,70268,1,0,0:0:0:0:
448,192,70368,1,0,0:0:0:0:
64,192,70568,1,0,0:0:0:0:
192,192,70768,1,0,0:0:0:0:
64,192,70968,1,0,0:0:0:0:
448,192,70968,1,0,0:0:0:0:
320,192,71168,1,0,0:0:0:0:
192,192,71368,1,0,0:0:0:0:
64,192,71568,1,0,0:0:0:0:
448,192,71768,1,0,0:0:0:0:
320,192,71968,1,0,0:0:0:0:
192,192,72168,1,0,0:0:0:0:
320,192,72368,1,0,0:0:0:0:
64,192,72568,1,0,0:0:0:0:
448,192,72568,1,0,0:0:0:0:
192,192,72768,1,0,0:0:0:0:
320,192,72968,1,0,0:0:0:0:
448,192,73168,1,0,0:0:0:0:
64,192,73368,1,0,0:0:0:0:
192,192,73568,1,0,0:0:0:0:
320,192,73768,1,0,0:0:0:0:
192,192,73968,1,0,0:0:0:0:
64,192,74168,1,0,0:0:0:0:
448,192,74168,128,0,74568:0:0:0:0:
320,192,74568,1,0,0:0:0:0:
192,192,74768,1,0,0:0:0:0:
64,192,74968,128,0,75368:0:0:0:0:
192,192,75368,1,0,0:0:0:0:
320,192,75568,1,0,0:0:0:0:
448,192,75768,1,0,0:0:0:0:
64,192,75768,1,0,0:0:0:0:
320,192,76568,128,0,76968:0:0:0:0:
192,192,76968,1,0,0:0:0:0:
448,192,77368,1,0,0:0:0:0:
64,192,77368,1,0,0:0:0:0:
192,192,77568,1,0,0:0:0:0:
448,192,77768,1,0,0:0:0:0:
320,192,77968,1,0,0:0:0:0:
192,192,78168,1,0,0:0:0:0:
64,192,78368,1,0,0:0:0:0:
320,192,78568,1,0,0:0:0:0:
192,192,78768,1,0,0:0:0:0:
448,192,78968,1,0,0:0:0:0:
320,192,79168,1,0,0:0:0:0:
64,192,79368,1,0,0:0:0:0:
192,192,79568,1,0,0:0:0:0:
448,192,79668,128,0,79868:0:0:0:0:
64,192,79868,1,0,0:0:0:0:
320,192,79968,1,0,0:0:0:0:
448,192,80068,1,0,0:0:0:0:
192,192,80168,1,0,0:0:0:0:
64,192,80268,1,0,0:0:0:0:
320,192,80368,128,0,80568:0:0:0:0:
448,192,80568,1,0,0:0:0:0:
64,192,80768,1,0,0:0:0:0:
192,192,80968,1,0,0:0:0:0:
320,192,81168,1,0,0:0:0:0:
64,192,81368,1,0,0:0:0:0:
448,192,81568,1,0,0:0:0:0:
320,192,81768,1,0,0:0:0:0:
192,192,81968,1,0,0:0:0:0:
64,192,82168,1,0,0:0:0:0:
320,192,82268,1,0,0:0:0:0:
192,192,82468,1,0,0:0:0:0:
448,192,82568,1,0,0:0:0:0:
320,192,82768,1,0,0:0:0:0:
64,192,82868,1,0,0:0:0:0:
448,192,83068,1,0,0:0:0:0:
192,192,83168,1,0,0:0:0:0:
448,192,83368,1,0,0:0:0:0:
64,192,83368,128,0,83768:0:0:0:0:
320,192,83768,1,0,0:0:0:0:
448,192,83768,1,0,0:0:0:0:
192,192,83968,1,0,0:0:0:0:
320,192,84168,1,0,0:0:0:0:
192,192,84368,1,0,0:0:0:0:
448,192,84568,1,0,0:0:0:0:
64,192,84768,1,0,0:0:0:0:
448,192,84968,1,0,0:0:0:0:
64,192,85168,1,0,0:0:0:0:
192,192,85368,1,0,0:0:0:0:
320,192,85568,1,0,0:0:0:0:
192,192,85768,1,0,0:0:0:0:
320,192,85968,1,0,0:0:0:0:
64,192,86068,128,0,86268:0:0:0:0:
192,192,86268,1,0,0:0:0:0:
448,192,86368,1,0,0:0:0:0:
320,192,86468,1,0,0:0:0:0:
192,192,86568,1,0,0:0:0:0:
64,192,86668,1,0,0:0:0:0:
448,192,86768,128,0,86968:0:0:0:0:
320,192,86968,1,0,0:0:0:0:
64,192,87068,1,0,0:0:0:0:
320,192,87168,1,0,0:0:0:0:
64,192,87268,1,0,0:0:0:0:
320,192,87368,128,0,87768:0:0:0:0:
192,192,87768,1,0,0:0:0:0:
448,192,87868,1,0,0:0:0:0:
192,192,87968,1,0,0:0:0:0:
448,192,88068,1,0,0:0:0:0:
192,192,88168,128,0,88568:0:0:0:0:
448,192,88568,1,0,0:0:0:0:
64,192,88668,1,0,0:0:0:0:
192,192,88868,1,0,0:0:0:0:
320,192,88968,1,0,0:0:0:0:
448,192,89168,1,0,0:0:0:0:
64,192,89268,1,0,0:0:0:0:
192,192,89468,1,0,0:0:0:0:
320,192,89568,1,0,0:0:0:0:
448,192,89768,128,0,89968:0:0:0:0:
192,192,89968,1,0,0:0:0:0:
64,192,90168,1,0,0:0:0:0:
320,192,90168,1,0,0:0:0:0:
448,192,90368,1,0,0:0:0:0:
192,192,90568,1,0,0:0:0:0:
448,192,90768,1,0,0:0:0:0:
64,192,90968,1,0,0:0:0:0:
320,192,91168,1,0,0:0:0:0:
192,192,91368,1,0,0:0:0:0:
320,192,91568,1,0,0:0:0:0:
448,192,91668,1,0,0:0:0:0:
64,192,91768,1,0,0:0:0:0:
448,192,91968,1,0,0:0:0:0:
192,192,92168,1,0,0:0:0:0:
448,192,92368,1,0,0:0:0:0:
64,192,92568,1,0,0:0:0:0:
192,192,92668,1,0,0:0:0:0:
320,192,92768,1,0,0:0:0:0:
448,192,92868,1,0,0:0:0:0:
64,192,92968,128,0,93168:0:0:0:0:
192,192,93168,128,0,93368:0:0:0:0:
448,192,93368,1,0,0:0:0:0:
64,192,93568,1,0,0:0:0:0:
320,192,93768,1,0,0:0:0:0:
64,192,93968,1,0,0:0:0:0:
448,192,94168,1,0,0:0:0:0:
192,192,94368,1,0,0:0:0:0:
320,192,94568,1,0,0:0:0:0:
448,192,94668,1,0,0:0:0:0:
192,192,94768,1,0,0:0:0:0:
64,192,94868,1,0,0:0:0:0:
320,192,94968,1,0,0:0:0:0:
448,192,95068,1,0,0:0:0:0:
192,192,95268,1,0,0:0:0:0:
320,192,95368,1,0,0:0:0:0:
192,192,95568,1,0,0:0:0:0:
64,192,95668,1,0,0:0:0:0:
320,192,95868,1,0,0:0:0:0:
192,192,95968,1,0,0:0:0:0:
448,192,96168,128,0,96568:0:0:0:0:
320,192,96168,1,0,0:0:0:0:
64,192,96568,1,0,0:0:0:0:
448,192,96768,1,0,0:0:0:0:
192,192,96968,1,0,0:0:0:0:
320,192,97168,1,0,0:0:0:0:
64,192,97268,128,0,97468:0:0:0:0:
192,192,97468,1,0,0:0:0:0:
448,192,97568,128,0,97768:0:0:0:0:
320,192,97768,1,0,0:0:0:0:
192,192,97968,1,0,0:0:0:0:
64,192,98168,1,0,0:0:0:0:
192,192,98368,1,0,0:0:0:0:
320,192,98468,1,0,0:0:0:0:
448,192,98568,1,0,0:0:0:0:
192,192,98768,1,0,0:0:0:0:
64,192,98868,128,0,99168:0:0:0:0:
320,192,99168,1,0,0:0:0:0:
448,192,99168,1,0,0:0:0:0:
192,192,99368,1,0,0:0:0:0:
320,192,99468,1,0,0:0:0:0:
64,192,99568,1,0,0:0:0:0:
448,192,99568,1,0,0:0:0:0:
192,192,99768,128,0,99968:0:0:0:0:
320,192,99968,128,0,100168:0:0:0:0:
64,192,100168,128,0,100368:0:0:0:0:
448,192,100368,128,0,100568:0:0:0:0:
320,192,100568,128,0,100768:0:0:0:0:
192,192,100768,128,0,100968:0:0:0:0:
448,192,100968,128,0,101168:0:0:0:0:
64,192,101168,128,0,101368:0:0:0:0:
448,192,101368,1,0,0:0:0:0:
320,192,101468,1,0,0:0:0:0:
192,192,101568,1,0,0:0:0:0:
64,192,101668,1,0,0:0:0:0:
448,192,101768,128,0,101968:0:0:0:0:
320,192,101968,128,0,102168:0:0:0:0:
64,192,102168,1,0,0:0:0:0:
192,192,102968,1,0,0:0:0:0:
448,192,102968,128,0,106168:0:0:0:0:
192,192,103568,1,0,0:0:0:0:
320,192,103768,1,0,0:0:0:0:
192,192,104568,1,0,0:0:0:0:
64,192,105168,1,0,0:0:0:0:
320,192,105368,1,0,0:0:0:0:
64,192,106168,128,0,109368:0:0:0:0:
320,192,106168,1,0,0:0:0:0:
320,192,106768,1,0,0:0:0:0:
192,192,106968,1,0,0:0:0:0:
320,192,107768,1,0,0:0:0:0:
448,192,108368,1,0,0:0:0:0:
192,192,108568,1,0,0:0:0:0:
320,192,109368,1,0,0:0:0:0:
192,192,109968,1,0,0:0:0:0:
448,192,110168,1,0,0:0:0:0:
192,192,110968,1,0,0:0:0:0:
320,192,111568,1,0,0:0:0:0:
64,192,111768,1,0,0:0:0:0:
448,192,112568,1,0,0:0:0:0:
192,192,113168,1,0,0:0:0:0:
320,192,113368,1,0,0:0:0:0:
64,192,114168,1,0,0:0:0:0:
320,192,114768,1,0,0:0:0:0:
192,192,114968,1,0,0:0:0:0:
