osu file format v14

[General]
AudioFilename: audio.mp3
AudioLeadIn: 0
PreviewTime: 13363
Countdown: 0
SampleSet: None
StackLeniency: 0.7
Mode: 1
LetterboxInBreaks: 0
WidescreenStoryboard: 1

[Editor]
DistanceSpacing: 1
BeatDivisor: 4
GridSize: 32
TimelineZoom: 3.500004

[Metadata]
Title:SAtAN
TitleUnicode:SAtAN
Artist:P*Light
ArtistUnicode:P*Light
Creator:D o t
Version:Kantan
Source:SOUND VOLTEX IV HEAVENLY HAVEN
Tags:sdvx Firce777
BeatmapID:1838515
BeatmapSetID:879123

[Difficulty]
HPDrainRate:7
CircleSize:5
OverallDifficulty:3
ApproachRate:5
SliderMultiplier:1.4
SliderTickRate:1

[Events]
//Background and Video events
0,0,"satanbg.jpg",0,0
//Break Periods
//Storyboard Layer 0 (Background)
//Storyboard Layer 1 (Fail)
//Storyboard Layer 2 (Pass)
//Storyboard Layer 3 (Foreground)
//Storyboard Sound Samples

[TimingPoints]
563,200,4,1,0,70,1,0
563,-200,4,1,0,70,0,0
13363,-200,4,1,0,70,0,1
26163,-200,4,1,0,70,0,0
38963,-200,4,1,0,70,0,1
51763,-200,4,1,0,70,0,0
77363,-200,4,1,0,70,0,1
102963,-200,4,1,0,70,0,0

[HitObjects]
256,192,563,5,0,0:0:0:0:
256,192,1363,1,0,0:0:0:0:
256,192,2163,1,0,0:0:0:0:
256,192,2563,1,2,0:0:0:0:
256,192,2963,1,2,0:0:0:0:
256,192,3763,1,0,0:0:0:0:
256,192,4563,1,0,0:0:0:0:
256,192,5363,1,0,0:0:0:0:
256,192,5763,1,2,0:0:0:0:
256,192,6163,1,2,0:0:0:0:
256,192,6963,1,0,0:0:0:0:
256,192,7763,1,0,0:0:0:0:
256,192,8163,1,2,0:0:0:0:
256,192,8563,1,0,0:0:0:0:
256,192,9363,1,2,0:0:0:0:
256,192,9763,1,2,0:0:0:0:
256,192,10163,1,0,0:0:0:0:
256,192,10963,1,0,0:0:0:0:
256,192,11763,1,4,0:0:0:0:
256,192,13363,1,0,0:0:0:0:
256,192,13763,1,2,0:0:0:0:
256,192,14163,1,0,0:0:0:0:
256,192,14963,1,0,0:0:0:0:
256,192,15363,1,2,0:0:0:0:
256,192,15763,1,2,0:0:0:0:
256,192,16563,1,0,0:0:0:0:
256,192,16963,1,2,0:0:0:0:
256,192,17363,1,0,0:0:0:0:
256,192,18163,1,6,0:0:0:0:
256,192,18763,1,4,0:0:0:0:
256,192,19763,1,0,0:0:0:0:
256,192,20163,1,2,0:0:0:0:
256,192,20563,1,0,0:0:0:0:
256,192,21363,1,0,0:0:0:0:
256,192,21763,1,2,0:0:0:0:
256,192,22163,1,2,0:0:0:0:
256,192,22963,1,0,0:0:0:0:
256,192,23763,1,2,0:0:0:0:
256,192,24563,1,4,0:0:0:0:
256,192,25163,1,6,0:0:0:0:
256,192,26163,1,0,0:0:0:0:
256,192,26963,1,0,0:0:0:0:
256,192,27363,1,2,0:0:0:0:
256,192,27763,1,0,0:0:0:0:
256,192,28563,1,2,0:0:0:0:
256,192,28963,1,2,0:0:0:0:
256,192,29363,1,0,0:0:0:0:
256,192,30163,1,0,0:0:0:0:
256,192,30563,1,2,0:0:0:0:
256,192,30963,1,4,0:0:0:0:
256,192,31563,1,4,0:0:0:0:
256,192,32563,1,0,0:0:0:0:
256,192,33363,1,0,0:0:0:0:
256,192,33763,1,2,0:0:0:0:
256,192,34163,1,0,0:0:0:0:
256,192,34963,1,2,0:0:0:0:
256,192,35363,1,2,0:0:0:0:
256,192,35763,1,0,0:0:0:0:
256,192,36563,1,0,0:0:0:0:
256,192,37363,1,0,0:0:0:0:
256,192,37763,1,2,0:0:0:0:
256,192,38163,1,0,0:0:0:0:
256,192,38963,1,0,0:0:0:0:
256,192,39363,1,2,0:0:0:0:
256,192,39763,1,0,0:0:0:0:
256,192,40563,1,0,0:0:0:0:
256,192,40963,1,2,0:0:0:0:
256,192,41363,1,2,0:0:0:0:
256,192,42163,1,0,0:0:0:0:
256,192,42563,1,2,0:0:0:0:
256,192,42963,1,0,0:0:0:0:
256,192,43763,1,6,0:0:0:0:
256,192,44363,1,4,0:0:0:0:
256,192,45363,1,0,0:0:0:0:
256,192,45763,1,2,0:0:0:0:
256,192,46163,1,0,0:0:0:0:
256,192,46963,1,0,0:0:0:0:
256,192,47363,1,2,0:0:0:0:
256,192,47763,1,2,0:0:0:0:
256,192,48563,1,0,0:0:0:0:
256,192,49363,1,2,0:0:0:0:
256,192,50163,1,0,0:0:0:0:
256,192,50563,1,2,0:0:0:0:
256,192,50963,2,0,L|224:192,12,17.5
256,192,51763,1,4,0:0:0:0:
256,192,52363,1,0,0:0:0:0:
256,192,53363,1,0,0:0:0:0:
256,192,53963,1,2,0:0:0:0:
256,192,54963,1,0,0:0:0:0:
256,192,55563,1,0,0:0:0:0:
256,192,56563,1,0,0:0:0:0:
256,192,57363,1,2,0:0:0:0:
256,192,58163,1,0,0:0:0:0:
256,192,58763,1,0,0:0:0:0:
256,192,59763,1,0,0:0:0:0:
256,192,60363,1,2,0:0:0:0:
256,192,61363,1,0,0:0:0:0:
256,192,61963,1,0,0:0:0:0:
256,192,62963,1,0,0:0:0:0:
256,192,64563,1,0,0:0:0:0:
256,192,67763,1,0,0:0:0:0:
256,192,70963,1,0,0:0:0:0:
256,192,71763,1,0,0:0:0:0:
256,192,72163,1,2,0:0:0:0:
256,192,72563,1,0,0:0:0:0:
256,192,73363,1,2,0:0:0:0:
256,192,73763,1,2,0:0:0:0:
256,192,74163,1,0,0:0:0:0:
256,192,74963,1,0,0:0:0:0:
256,192,75763,1,4,0:0:0:0:
256,192,77363,1,0,0:0:0:0:
256,192,77763,1,2,0:0:0:0:
256,192,78163,1,0,0:0:0:0:
256,192,78963,1,0,0:0:0:0:
256,192,79363,1,2,0:0:0:0:
256,192,79763,1,2,0:0:0:0:
256,192,80563,1,0,0:0:0:0:
256,192,80963,1,2,0:0:0:0:
256,192,81363,1,0,0:0:0:0:
256,192,82163,1,6,0:0:0:0:
256,192,82763,1,4,0:0:0:0:
256,192,83763,1,0,0:0:0:0:
256,192,84163,1,2,0:0:0:0:
256,192,84563,1,0,0:0:0:0:
256,192,85363,1,0,0:0:0:0:
256,192,85763,1,2,0:0:0:0:
256,192,86163,1,2,0:0:0:0:
256,192,86963,1,0,0:0:0:0:
256,192,87763,1,2,0:0:0:0:
256,192,88563,1,4,0:0:0:0:
256,192,89163,1,6,0:0:0:0:
256,192,90163,1,0,0:0:0:0:
256,192,90863,1,2,0:0:0:0:
256,192,91763,1,0,0:0:0:0:
256,192,92463,1,2,0:0:0:0:
256,192,93363,1,0,0:0:0:0:
256,192,93763,1,2,0:0:0:0:
256,192,94163,1,0,0:0:0:0:
256,192,94963,1,4,0:0:0:0:
256,192,95563,1,6,0:0:0:0:
256,192,96563,1,0,0:0:0:0:
256,192,97263,1,0,0:0:0:0:
256,192,98163,1,0,0:0:0:0:
256,192,98863,1,2,0:0:0:0:
256,192,99763,1,2,0:0:0:0:
256,192,100163,1,2,0:0:0:0:
256,192,100563,1,0,0:0:0:0:
256,192,101363,1,0,0:0:0:0:
256,192,101763,1,2,0:0:0:0:
256,192,102163,2,0,L|224:192,12,17.5
256,192,102963,1,4,0:0:0:0:
256,192,103563,1,0,0:0:0:0:
256,192,104563,1,0,0:0:0:0:
256,192,105163,1,2,0:0:0:0:
256,192,106163,1,0,0:0:0:0:
256,192,106763,1,0,0:0:0:0:
256,192,107763,1,0,0:0:0:0:
256,192,108563,1,2,0:0:0:0:
256,192,109363,1,0,0:0:0:0:
256,192,109963,1,0,0:0:0:0:
256,192,110963,1,0,0:0:0:0:
256,192,111563,1,2,0:0:0:0:
256,192,112563,1,0,0:0:0:0:
256,192,113163,1,0,0:0:0:0:
256,192,114163,1,0,0:0:0:0:
256,192,114963,1,2,0:0:0:0:
