osu file format v14

[General]
AudioFilename: audio.mp3
AudioLeadIn: 0
PreviewTime: 13363
Countdown: 0
SampleSet: Normal
StackLeniency: 0.7
Mode: 1
LetterboxInBreaks: 0
WidescreenStoryboard: 0

[Editor]
DistanceSpacing: 1
BeatDivisor: 4
GridSize: 32
TimelineZoom: 1.7

[Metadata]
Title:SAtAN
TitleUnicode:SAtAN
Artist:P*Light
ArtistUnicode:P*Light
Creator:D o t
Version:Firce Force
Source:SOUND VOLTEX IV HEAVENLY HAVEN
Tags:sdvx Firce777
BeatmapID:1838511
BeatmapSetID:879123

[Difficulty]
HPDrainRate:5.8
CircleSize:5
OverallDifficulty:5
ApproachRate:5
SliderMultiplier:1.4
SliderTickRate:1

[Events]
//Background and Video events
0,0,"satanbg.jpg",0,0
//Break Periods
//Storyboard Layer 0 (Background)
//Storyboard Layer 1 (Fail)
//Storyboard Layer 2 (Pass)
//Storyboard Layer 3 (Foreground)
//Storyboard Sound Samples

[TimingPoints]
563,200,4,1,0,70,1,0
13363,-100,4,1,0,70,0,1
26163,-100,4,1,0,70,0,0
38963,-100,4,1,0,70,0,1
51763,-100,4,1,0,70,0,0
77363,-100,4,1,0,70,0,1
102963,-100,4,1,0,70,0,0

[HitObjects]
256,192,563,5,0,0:0:0:0:
256,192,763,1,0,0:0:0:0:
256,192,963,1,2,0:0:0:0:
256,192,1163,1,2,0:0:0:0:
256,192,1263,1,0,0:0:0:0:
256,192,1363,1,0,0:0:0:0:
256,192,1563,1,2,0:0:0:0:
256,192,1763,1,0,0:0:0:0:
256,192,1863,1,2,0:0:0:0:
256,192,1963,1,0,0:0:0:0:
256,192,2063,1,2,0:0:0:0:
256,192,2163,1,0,0:0:0:0:
256,192,2263,1,0,0:0:0:0:
256,192,2363,1,0,0:0:0:0:
256,192,2463,1,0,0:0:0:0:
256,192,2563,1,2,0:0:0:0:
256,192,2763,1,2,0:0:0:0:
256,192,2863,1,0,0:0:0:0:
256,192,2913,1,0,0:0:0:0:
256,192,2963,1,0,0:0:0:0:
256,192,3063,1,2,0:0:0:0:
256,192,3113,1,2,0:0:0:0:
256,192,3163,1,2,0:0:0:0:
256,192,3263,1,2,0:0:0:0:
256,192,3363,1,0,0:0:0:0:
256,192,3463,1,2,0:0:0:0:
256,192,3563,1,0,0:0:0:0:
256,192,3663,1,2,0:0:0:0:
256,192,3763,1,0,0:0:0:0:
256,192,3963,1,0,0:0:0:0:
256,192,4163,1,2,0:0:0:0:
256,192,4363,1,2,0:0:0:0:
256,192,4463,1,0,0:0:0:0:
256,192,4563,1,0,0:0:0:0:
256,192,4763,1,2,0:0:0:0:
256,192,4963,1,0,0:0:0:0:
256,192,5063,1,2,0:0:0:0:
256,192,5163,1,0,0:0:0:0:
256,192,5263,1,2,0:0:0:0:
256,192,5363,1,0,0:0:0:0:
256,192,5463,1,0,0:0:0:0:
256,192,5563,1,0,0:0:0:0:
256,192,5663,1,0,0:0:0:0:
256,192,5763,1,2,0:0:0:0:
256,192,5963,1,2,0:0:0:0:
256,192,6063,1,0,0:0:0:0:
256,192,6113,1,0,0:0:0:0:
256,192,6163,1,0,0:0:0:0:
256,192,6263,1,2,0:0:0:0:
256,192,6313,1,2,0:0:0:0:
256,192,6363,1,2,0:0:0:0:
256,192,6463,1,2,0:0:0:0:
256,192,6563,1,0,0:0:0:0:
256,192,6663,1,2,0:0:0:0:
256,192,6763,1,0,0:0:0:0:
256,192,6863,1,2,0:0:0:0:
256,192,6963,1,4,0:0:0:0:
256,192,7063,1,0,0:0:0:0:
256,192,7113,1,0,0:0:0:0:
256,192,7163,1,2,0:0:0:0:
256,192,7263,1,0,0:0:0:0:
256,192,7313,1,0,0:0:0:0:
256,192,7363,1,2,0:0:0:0:
256,192,7463,1,0,0:0:0:0:
256,192,7513,1,0,0:0:0:0:
256,192,7563,1,2,0:0:0:0:
256,192,7613,1,2,0:0:0:0:
256,192,7663,1,0,0:0:0:0:
256,192,7763,1,0,0:0:0:0:
256,192,7863,1,0,0:0:0:0:
256,192,7913,1,0,0:0:0:0:
256,192,7963,1,2,0:0:0:0:
256,192,8063,1,0,0:0:0:0:
256,192,8113,1,0,0:0:0:0:
256,192,8163,1,2,0:0:0:0:
256,192,8263,1,0,0:0:0:0:
256,192,8313,1,0,0:0:0:0:
256,192,8363,1,2,0:0:0:0:
256,192,8413,1,2,0:0:0:0:
256,192,8463,1,2,0:0:0:0:
256,192,8563,1,4,0:0:0:0:
256,192,8663,1,0,0:0:0:0:
256,192,8713,1,0,0:0:0:0:
256,192,8763,1,2,0:0:0:0:
256,192,8863,1,0,0:0:0:0:
256,192,8913,1,0,0:0:0:0:
256,192,8963,1,2,0:0:0:0:
256,192,9063,1,0,0:0:0:0:
256,192,9113,1,0,0:0:0:0:
256,192,9163,1,2,0:0:0:0:
256,192,9213,1,2,0:0:0:0:
256,192,9263,1,0,0:0:0:0:
256,192,9313,1,0,0:0:0:0:
256,192,9363,1,0,0:0:0:0:
256,192,9463,1,2,0:0:0:0:
256,192,9513,1,2,0:0:0:0:
256,192,9563,1,2,0:0:0:0:
256,192,9663,1,2,0:0:0:0:
256,192,9763,1,2,0:0:0:0:
256,192,9863,1,0,0:0:0:0:
256,192,9963,1,2,0:0:0:0:
256,192,10063,1,0,0:0:0:0:
256,192,10163,1,0,0:0:0:0:
256,192,10213,1,0,0:0:0:0:
256,192,10263,1,0,0:0:0:0:
256,192,10313,1,0,0:0:0:0:
256,192,10363,1,2,0:0:0:0:
256,192,10413,1,2,0:0:0:0:
256,192,10463,1,2,0:0:0:0:
256,192,10563,1,0,0:0:0:0:
256,192,10613,1,0,0:0:0:0:
256,192,10663,1,0,0:0:0:0:
256,192,10713,1,0,0:0:0:0:
256,192,10763,1,2,0:0:0:0:
256,192,10813,1,2,0:0:0:0:
256,192,10863,1,2,0:0:0:0:
256,192,10963,1,0,0:0:0:0:
256,192,11013,1,0,0:0:0:0:
256,192,11063,1,0,0:0:0:0:
256,192,11113,1,0,0:0:0:0:
256,192,11163,1,2,0:0:0:0:
256,192,11213,1,2,0:0:0:0:
256,192,11263,1,2,0:0:0:0:
256,192,11313,1,2,0:0:0:0:
256,192,11363,1,0,0:0:0:0:
256,192,11413,1,0,0:0:0:0:
256,192,11463,1,2,0:0:0:0:
256,192,11513,1,2,0:0:0:0:
256,192,11563,1,0,0:0:0:0:
256,192,11613,1,0,0:0:0:0:
256,192,11663,1,2,0:0:0:0:
256,192,11713,1,2,0:0:0:0:
256,192,11763,1,0,0:0:0:0:
256,192,13363,1,4,0:0:0:0:
256,192,13463,1,0,0:0:0:0:
256,192,13513,1,0,0:0:0:0:
256,192,13563,1,2,0:0:0:0:
256,192,13663,1,0,0:0:0:0:
256,192,13713,1,0,0:0:0:0:
256,192,13763,1,2,0:0:0:0:
256,192,13863,1,0,0:0:0:0:
256,192,13913,1,0,0:0:0:0:
256,192,13963,1,2,0:0:0:0:
256,192,14013,1,2,0:0:0:0:
256,192,14063,1,0,0:0:0:0:
256,192,14163,1,0,0:0:0:0:
256,192,14263,1,0,0:0:0:0:
256,192,14313,1,0,0:0:0:0:
256,192,14363,1,2,0:0:0:0:
256,192,14463,1,0,0:0:0:0:
256,192,14513,1,0,0:0:0:0:
256,192,14563,1,2,0:0:0:0:
256,192,14663,1,0,0:0:0:0:
256,192,14713,1,0,0:0:0:0:
256,192,14763,1,2,0:0:0:0:
256,192,14863,1,2,0:0:0:0:
256,192,14963,1,0,0:0:0:0:
256,192,15063,1,0,0:0:0:0:
256,192,15113,1,0,0:0:0:0:
256,192,15163,1,2,0:0:0:0:
256,192,15263,1,0,0:0:0:0:
256,192,15313,1,0,0:0:0:0:
256,192,15363,1,2,0:0:0:0:
256,192,15463,1,0,0:0:0:0:
256,192,15513,1,0,0:0:0:0:
256,192,15563,1,2,0:0:0:0:
256,192,15613,1,2,0:0:0:0:
256,192,15663,1,2,0:0:0:0:
256,192,15713,1,2,0:0:0:0:
256,192,15763,1,0,0:0:0:0:
256,192,15863,1,2,0:0:0:0:
256,192,15913,1,2,0:0:0:0:
256,192,15963,1,2,0:0:0:0:
256,192,16063,1,2,0:0:0:0:
256,192,16163,1,0,0:0:0:0:
256,192,16263,1,2,0:0:0:0:
256,192,16313,1,2,0:0:0:0:
256,192,16363,1,0,0:0:0:0:
256,192,16463,1,2,0:0:0:0:
256,192,16563,1,0,0:0:0:0:
256,192,16663,1,0,0:0:0:0:
256,192,16713,1,0,0:0:0:0:
256,192,16763,1,2,0:0:0:0:
256,192,16863,1,0,0:0:0:0:
256,192,16913,1,0,0:0:0:0:
256,192,16963,1,2,0:0:0:0:
256,192,17063,1,0,0:0:0:0:
256,192,17113,1,0,0:0:0:0:
256,192,17163,1,2,0:0:0:0:
256,192,17213,1,2,0:0:0:0:
256,192,17263,1,0,0:0:0:0:
256,192,17363,1,0,0:0:0:0:
256,192,17463,1,0,0:0:0:0:
256,192,17513,1,0,0:0:0:0:
256,192,17563,1,2,0:0:0:0:
256,192,17663,1,0,0:0:0:0:
256,192,17713,1,0,0:0:0:0:
256,192,17763,1,2,0:0:0:0:
256,192,17863,1,0,0:0:0:0:
256,192,17913,1,0,0:0:0:0:
256,192,17963,1,2,0:0:0:0:
256,192,18063,1,2,0:0:0:0:
256,192,18163,1,0,0:0:0:0:
256,192,18213,1,0,0:0:0:0:
256,192,18263,1,2,0:0:0:0:
256,192,18463,1,0,0:0:0:0:
256,192,18513,1,0,0:0:0:0:
256,192,18563,1,2,0:0:0:0:
256,192,18763,1,0,0:0:0:0:
256,192,18813,1,0,0:0:0:0:
256,192,18863,1,0,0:0:0:0:
256,192,19063,1,0,0:0:0:0:
256,192,19113,1,0,0:0:0:0:
256,192,19163,1,0,0:0:0:0:
256,192,19363,1,6,0:0:0:0:
256,192,19763,1,4,0:0:0:0:
256,192,19863,1,0,0:0:0:0:
256,192,19913,1,0,0:0:0:0:
256,192,19963,1,2,0:0:0:0:
256,192,20063,1,0,0:0:0:0:
256,192,20113,1,0,0:0:0:0:
256,192,20163,1,2,0:0:0:0:
256,192,20263,1,0,0:0:0:0:
256,192,20313,1,0,0:0:0:0:
256,192,20363,1,2,0:0:0:0:
256,192,20413,1,2,0:0:0:0:
256,192,20463,1,0,0:0:0:0:
256,192,20563,1,0,0:0:0:0:
256,192,20663,1,0,0:0:0:0:
256,192,20713,1,0,0:0:0:0:
256,192,20763,1,2,0:0:0:0:
256,192,20863,1,0,0:0:0:0:
256,192,20913,1,0,0:0:0:0:
256,192,20963,1,2,0:0:0:0:
256,192,21013,1,0,0:0:0:0:
256,192,21063,1,2,0:0:0:0:
256,192,21113,1,0,0:0:0:0:
256,192,21163,1,2,0:0:0:0:
256,192,21213,1,0,0:0:0:0:
256,192,21263,1,2,0:0:0:0:
256,192,21363,1,0,0:0:0:0:
256,192,21463,1,0,0:0:0:0:
256,192,21513,1,0,0:0:0:0:
256,192,21563,1,2,0:0:0:0:
256,192,21663,1,0,0:0:0:0:
256,192,21713,1,0,0:0:0:0:
256,192,21763,1,2,0:0:0:0:
256,192,21863,1,0,0:0:0:0:
256,192,21913,1,0,0:0:0:0:
256,192,21963,1,2,0:0:0:0:
256,192,22013,1,2,0:0:0:0:
256,192,22063,1,2,0:0:0:0:
256,192,22113,1,2,0:0:0:0:
256,192,22163,1,0,0:0:0:0:
256,192,22263,1,2,0:0:0:0:
256,192,22313,1,2,0:0:0:0:
256,192,22363,1,2,0:0:0:0:
256,192,22463,1,2,0:0:0:0:
256,192,22563,1,0,0:0:0:0:
256,192,22663,1,2,0:0:0:0:
256,192,22713,1,2,0:0:0:0:
256,192,22763,1,0,0:0:0:0:
256,192,22863,1,2,0:0:0:0:
256,192,22963,1,4,0:0:0:0:
256,192,23063,1,0,0:0:0:0:
256,192,23113,1,0,0:0:0:0:
256,192,23163,1,2,0:0:0:0:
256,192,23213,1,2,0:0:0:0:
256,192,23263,1,0,0:0:0:0:
256,192,23363,1,2,0:0:0:0:
256,192,23463,1,0,0:0:0:0:
256,192,23563,1,2,0:0:0:0:
256,192,23663,1,0,0:0:0:0:
256,192,23763,1,4,0:0:0:0:
256,192,23863,1,0,0:0:0:0:
256,192,23913,1,0,0:0:0:0:
256,192,23963,1,2,0:0:0:0:
256,192,24013,1,2,0:0:0:0:
256,192,24063,1,0,0:0:0:0:
256,192,24163,1,2,0:0:0:0:
256,192,24263,1,0,0:0:0:0:
256,192,24363,1,2,0:0:0:0:
256,192,24463,1,2,0:0:0:0:
256,192,24563,1,4,0:0:0:0:
256,192,24663,1,4,0:0:0:0:
256,192,24863,1,4,0:0:0:0:
256,192,24963,1,4,0:0:0:0:
256,192,25163,1,6,0:0:0:0:
256,192,25263,1,6,0:0:0:0:
256,192,25463,1,6,0:0:0:0:
256,192,25563,1,6,0:0:0:0:
256,192,26163,1,0,0:0:0:0:
256,192,26263,1,0,0:0:0:0:
256,192,26363,1,2,0:0:0:0:
256,192,26413,1,2,0:0:0:0:
256,192,26463,1,2,0:0:0:0:
256,192,26563,1,0,0:0:0:0:
256,192,26663,1,0,0:0:0:0:
256,192,26763,1,2,0:0:0:0:
256,192,26813,1,2,0:0:0:0:
256,192,26863,1,2,0:0:0:0:
256,192,26963,1,0,0:0:0:0:
256,192,27063,1,0,0:0:0:0:
256,192,27163,1,2,0:0:0:0:
256,192,27213,1,2,0:0:0:0:
256,192,27263,1,2,0:0:0:0:
256,192,27363,1,0,0:0:0:0:
256,192,27463,1,2,0:0:0:0:
256,192,27513,1,2,0:0:0:0:
256,192,27563,1,0,0:0:0:0:
256,192,27663,1,2,0:0:0:0:
256,192,27763,1,0,0:0:0:0:
256,192,27863,1,0,0:0:0:0:
256,192,27963,1,2,0:0:0:0:
256,192,28013,1,2,0:0:0:0:
256,192,28063,1,2,0:0:0:0:
256,192,28163,1,0,0:0:0:0:
256,192,28263,1,0,0:0:0:0:
256,192,28363,1,2,0:0:0:0:
256,192,28413,1,2,0:0:0:0:
256,192,28463,1,2,0:0:0:0:
256,192,28563,1,0,0:0:0:0:
256,192,28663,1,2,0:0:0:0:
256,192,28763,1,0,0:0:0:0:
256,192,28813,1,0,0:0:0:0:
256,192,28863,1,2,0:0:0:0:
256,192,28963,1,0,0:0:0:0:
256,192,29063,1,2,0:0:0:0:
256,192,29113,1,2,0:0:0:0:
256,192,29163,1,0,0:0:0:0:
256,192,29213,1,0,0:0:0:0:
256,192,29263,1,2,0:0:0:0:
256,192,29363,1,0,0:0:0:0:
256,192,29463,1,0,0:0:0:0:
256,192,29563,1,2,0:0:0:0:
256,192,29613,1,2,0:0:0:0:
256,192,29663,1,2,0:0:0:0:
256,192,29763,1,0,0:0:0:0:
256,192,29863,1,0,0:0:0:0:
256,192,29963,1,2,0:0:0:0:
256,192,30013,1,2,0:0:0:0:
256,192,30063,1,2,0:0:0:0:
256,192,30163,1,0,0:0:0:0:
256,192,30263,1,0,0:0:0:0:
256,192,30363,1,2,0:0:0:0:
256,192,30413,1,2,0:0:0:0:
256,192,30463,1,2,0:0:0:0:
256,192,30563,1,0,0:0:0:0:
256,192,30663,1,2,0:0:0:0:
256,192,30713,1,2,0:0:0:0:
256,192,30763,1,0,0:0:0:0:
256,192,30863,1,2,0:0:0:0:
256,192,30963,1,0,0:0:0:0:
256,192,31063,1,0,0:0:0:0:
256,192,31163,1,2,0:0:0:0:
256,192,31213,1,2,0:0:0:0:
256,192,31263,1,0,0:0:0:0:
256,192,31363,1,0,0:0:0:0:
256,192,31463,1,2,0:0:0:0:
256,192,31513,1,2,0:0:0:0:
256,192,31563,1,0,0:0:0:0:
256,192,31663,1,0,0:0:0:0:
256,192,31763,1,2,0:0:0:0:
256,192,31813,1,2,0:0:0:0:
256,192,31863,1,0,0:0:0:0:
256,192,31963,1,0,0:0:0:0:
256,192,32063,1,0,0:0:0:0:
256,192,32163,1,2,0:0:0:0:
256,192,32363,1,2,0:0:0:0:
256,192,32563,1,0,0:0:0:0:
256,192,32663,1,0,0:0:0:0:
256,192,32763,1,2,0:0:0:0:
256,192,32813,1,2,0:0:0:0:
256,192,32863,1,2,0:0:0:0:
256,192,32963,1,0,0:0:0:0:
256,192,33063,1,0,0:0:0:0:
256,192,33163,1,2,0:0:0:0:
256,192,33213,1,2,0:0:0:0:
256,192,33263,1,2,0:0:0:0:
256,192,33363,1,0,0:0:0:0:
256,192,33463,1,0,0:0:0:0:
256,192,33563,1,2,0:0:0:0:
256,192,33613,1,2,0:0:0:0:
256,192,33663,1,2,0:0:0:0:
256,192,33763,1,0,0:0:0:0:
256,192,33863,1,2,0:0:0:0:
256,192,33913,1,2,0:0:0:0:
256,192,33963,1,0,0:0:0:0:
256,192,34063,1,2,0:0:0:0:
256,192,34163,1,0,0:0:0:0:
256,192,34263,1,0,0:0:0:0:
256,192,34363,1,2,0:0:0:0:
256,192,34413,1,2,0:0:0:0:
256,192,34463,1,2,0:0:0:0:
256,192,34563,1,0,0:0:0:0:
256,192,34663,1,0,0:0:0:0:
256,192,34763,1,2,0:0:0:0:
256,192,34813,1,2,0:0:0:0:
256,192,34863,1,2,0:0:0:0:
256,192,34963,1,0,0:0:0:0:
256,192,35063,1,2,0:0:0:0:
256,192,35163,1,0,0:0:0:0:
256,192,35213,1,0,0:0:0:0:
256,192,35263,1,2,0:0:0:0:
256,192,35363,1,0,0:0:0:0:
256,192,35413,1,0,0:0:0:0:
256,192,35463,1,0,0:0:0:0:
256,192,35513,1,0,0:0:0:0:
256,192,35563,1,2,0:0:0:0:
256,192,35613,1,2,0:0:0:0:
256,192,35663,1,2,0:0:0:0:
256,192,35713,1,2,0:0:0:0:
256,192,35763,1,0,0:0:0:0:
256,192,35863,1,0,0:0:0:0:
256,192,35963,1,2,0:0:0:0:
256,192,36013,1,2,0:0:0:0:
256,192,36063,1,2,0:0:0:0:
256,192,36163,1,0,0:0:0:0:
256,192,36263,1,2,0:0:0:0:
256,192,36363,1,0,0:0:0:0:
256,192,36413,1,0,0:0:0:0:
256,192,36463,1,2,0:0:0:0:
256,192,36563,1,0,0:0:0:0:
256,192,36663,1,0,0:0:0:0:
256,192,36763,1,2,0:0:0:0:
256,192,36813,1,2,0:0:0:0:
256,192,36863,1,2,0:0:0:0:
256,192,36963,1,0,0:0:0:0:
256,192,37063,1,2,0:0:0:0:
256,192,37113,1,2,0:0:0:0:
256,192,37163,1,0,0:0:0:0:
256,192,37213,1,2,0:0:0:0:
256,192,37263,1,2,0:0:0:0:
256,192,37363,1,0,0:0:0:0:
256,192,37463,1,2,0:0:0:0:
256,192,37513,1,2,0:0:0:0:
256,192,37563,1,0,0:0:0:0:
256,192,37613,1,2,0:0:0:0:
256,192,37663,1,2,0:0:0:0:
256,192,37713,1,2,0:0:0:0:
256,192,37763,1,0,0:0:0:0:
256,192,37813,1,0,0:0:0:0:
256,192,37863,1,0,0:0:0:0:
256,192,37913,1,0,0:0:0:0:
256,192,37963,1,2,0:0:0:0:
256,192,38013,1,2,0:0:0:0:
256,192,38063,1,2,0:0:0:0:
256,192,38113,1,2,0:0:0:0:
256,192,38163,1,0,0:0:0:0:
256,192,38963,1,0,0:0:0:0:
256,192,39063,1,0,0:0:0:0:
256,192,39113,1,0,0:0:0:0:
256,192,39163,1,2,0:0:0:0:
256,192,39263,1,0,0:0:0:0:
256,192,39313,1,0,0:0:0:0:
256,192,39363,1,2,0:0:0:0:
256,192,39463,1,0,0:0:0:0:
256,192,39513,1,0,0:0:0:0:
256,192,39563,1,2,0:0:0:0:
256,192,39613,1,0,0:0:0:0:
256,192,39663,1,2,0:0:0:0:
256,192,39763,1,0,0:0:0:0:
256,192,39863,1,0,0:0:0:0:
256,192,39913,1,0,0:0:0:0:
256,192,39963,1,2,0:0:0:0:
256,192,40063,1,0,0:0:0:0:
256,192,40113,1,0,0:0:0:0:
256,192,40163,1,2,0:0:0:0:
256,192,40263,1,0,0:0:0:0:
256,192,40313,1,0,0:0:0:0:
256,192,40363,1,2,0:0:0:0:
256,192,40413,1,2,0:0:0:0:
256,192,40463,1,2,0:0:0:0:
256,192,40563,1,0,0:0:0:0:
256,192,40663,1,0,0:0:0:0:
256,192,40713,1,0,0:0:0:0:
256,192,40763,1,2,0:0:0:0:
256,192,40863,1,0,0:0:0:0:
256,192,40913,1,0,0:0:0:0:
256,192,40963,1,2,0:0:0:0:
256,192,41013,1,0,0:0:0:0:
256,192,41063,1,0,0:0:0:0:
256,192,41113,1,0,0:0:0:0:
256,192,41163,1,2,0:0:0:0:
256,192,41213,1,0,0:0:0:0:
256,192,41263,1,2,0:0:0:0:
256,192,41363,1,0,0:0:0:0:
256,192,41463,1,2,0:0:0:0:
256,192,41513,1,2,0:0:0:0:
256,192,41563,1,2,0:0:0:0:
256,192,41663,1,2,0:0:0:0:
256,192,41763,1,0,0:0:0:0:
256,192,41863,1,2,0:0:0:0:
256,192,41913,1,2,0:0:0:0:
256,192,41963,1,0,0:0:0:0:
256,192,42013,1,0,0:0:0:0:
256,192,42063,1,2,0:0:0:0:
256,192,42113,1,2,0:0:0:0:
256,192,42163,1,0,0:0:0:0:
256,192,42263,1,0,0:0:0:0:
256,192,42313,1,0,0:0:0:0:
256,192,42363,1,2,0:0:0:0:
256,192,42463,1,0,0:0:0:0:
256,192,42513,1,0,0:0:0:0:
256,192,42563,1,2,0:0:0:0:
256,192,42663,1,0,0:0:0:0:
256,192,42713,1,0,0:0:0:0:
256,192,42763,1,2,0:0:0:0:
256,192,42813,1,0,0:0:0:0:
256,192,42863,1,2,0:0:0:0:
256,192,42963,1,0,0:0:0:0:
256,192,43063,1,0,0:0:0:0:
256,192,43113,1,0,0:0:0:0:
256,192,43163,1,2,0:0:0:0:
256,192,43263,1,0,0:0:0:0:
256,192,43313,1,0,0:0:0:0:
256,192,43363,1,2,0:0:0:0:
256,192,43463,1,0,0:0:0:0:
256,192,43513,1,0,0:0:0:0:
256,192,43563,1,2,0:0:0:0:
256,192,43613,1,2,0:0:0:0:
256,192,43663,1,2,0:0:0:0:
256,192,43763,1,0,0:0:0:0:
256,192,43813,1,0,0:0:0:0:
256,192,43863,1,2,0:0:0:0:
256,192,44063,1,0,0:0:0:0:
256,192,44113,1,0,0:0:0:0:
256,192,44163,1,2,0:0:0:0:
256,192,44363,1,0,0:0:0:0:
256,192,44413,1,0,0:0:0:0:
256,192,44463,1,0,0:0:0:0:
256,192,44663,1,0,0:0:0:0:
256,192,44713,1,0,0:0:0:0:
256,192,44763,1,0,0:0:0:0:
256,192,44963,1,6,0:0:0:0:
256,192,45363,1,0,0:0:0:0:
256,192,45463,1,0,0:0:0:0:
256,192,45513,1,0,0:0:0:0:
256,192,45563,1,2,0:0:0:0:
256,192,45663,1,0,0:0:0:0:
256,192,45713,1,0,0:0:0:0:
256,192,45763,1,2,0:0:0:0:
256,192,45863,1,0,0:0:0:0:
256,192,45913,1,0,0:0:0:0:
256,192,45963,1,2,0:0:0:0:
256,192,46013,1,0,0:0:0:0:
256,192,46063,1,2,0:0:0:0:
256,192,46163,1,0,0:0:0:0:
256,192,46263,1,0,0:0:0:0:
256,192,46313,1,0,0:0:0:0:
256,192,46363,1,2,0:0:0:0:
256,192,46463,1,0,0:0:0:0:
256,192,46513,1,0,0:0:0:0:
256,192,46563,1,2,0:0:0:0:
256,192,46663,1,0,0:0:0:0:
256,192,46713,1,0,0:0:0:0:
256,192,46763,1,2,0:0:0:0:
256,192,46813,1,2,0:0:0:0:
256,192,46863,1,2,0:0:0:0:
256,192,46963,1,0,0:0:0:0:
256,192,47063,1,0,0:0:0:0:
256,192,47113,1,0,0:0:0:0:
256,192,47163,1,2,0:0:0:0:
256,192,47263,1,0,0:0:0:0:
256,192,47313,1,0,0:0:0:0:
256,192,47363,1,2,0:0:0:0:
256,192,47413,1,0,0:0:0:0:
256,192,47463,1,0,0:0:0:0:
256,192,47513,1,0,0:0:0:0:
256,192,47563,1,2,0:0:0:0:
256,192,47613,1,0,0:0:0:0:
256,192,47663,1,2,0:0:0:0:
256,192,47763,1,0,0:0:0:0:
256,192,47863,1,2,0:0:0:0:
256,192,47913,1,2,0:0:0:0:
256,192,47963,1,2,0:0:0:0:
256,192,48063,1,2,0:0:0:0:
256,192,48163,1,0,0:0:0:0:
256,192,48263,1,2,0:0:0:0:
256,192,48313,1,2,0:0:0:0:
256,192,48363,1,0,0:0:0:0:
256,192,48413,1,0,0:0:0:0:
256,192,48463,1,2,0:0:0:0:
256,192,48563,1,4,0:0:0:0:
256,192,48663,1,0,0:0:0:0:
256,192,48713,1,0,0:0:0:0:
256,192,48763,1,2,0:0:0:0:
256,192,48813,1,2,0:0:0:0:
256,192,48863,1,2,0:0:0:0:
256,192,48963,1,2,0:0:0:0:
256,192,49063,1,0,0:0:0:0:
256,192,49163,1,2,0:0:0:0:
256,192,49263,1,0,0:0:0:0:
256,192,49363,1,4,0:0:0:0:
256,192,49463,1,0,0:0:0:0:
256,192,49513,1,0,0:0:0:0:
256,192,49563,1,2,0:0:0:0:
256,192,49613,1,2,0:0:0:0:
256,192,49663,1,2,0:0:0:0:
256,192,49763,1,2,0:0:0:0:
256,192,49863,1,0,0:0:0:0:
256,192,49963,1,2,0:0:0:0:
256,192,50063,1,2,0:0:0:0:
256,192,50163,1,0,0:0:0:0:
256,192,50213,1,0,0:0:0:0:
256,192,50263,1,2,0:0:0:0:
256,192,50313,1,2,0:0:0:0:
256,192,50363,1,0,0:0:0:0:
256,192,50413,1,0,0:0:0:0:
256,192,50463,1,2,0:0:0:0:
256,192,50513,1,2,0:0:0:0:
256,192,50563,1,0,0:0:0:0:
256,192,50613,1,0,0:0:0:0:
256,192,50663,1,2,0:0:0:0:
256,192,50713,1,2,0:0:0:0:
256,192,50763,1,0,0:0:0:0:
256,192,50813,1,2,0:0:0:0:
256,192,50863,1,0,0:0:0:0:
256,192,50913,1,2,0:0:0:0:
256,192,50963,2,0,B|512:192|512:192|288:192,1,420
256,192,51763,1,0,0:0:0:0:
256,192,52363,1,0,0:0:0:0:
256,192,52563,1,0,0:0:0:0:
256,192,52663,1,2,0:0:0:0:
256,192,52763,1,0,0:0:0:0:
256,192,52863,1,0,0:0:0:0:
256,192,52963,1,2,0:0:0:0:
256,192,53163,1,2,0:0:0:0:
256,192,53263,1,2,0:0:0:0:
256,192,53363,1,0,0:0:0:0:
256,192,53963,1,0,0:0:0:0:
256,192,54163,1,0,0:0:0:0:
256,192,54263,1,0,0:0:0:0:
256,192,54363,1,2,0:0:0:0:
256,192,54463,1,2,0:0:0:0:
256,192,54563,1,0,0:0:0:0:
256,192,54663,1,2,0:0:0:0:
256,192,54763,1,0,0:0:0:0:
256,192,54863,1,2,0:0:0:0:
256,192,54963,1,0,0:0:0:0:
256,192,55563,1,0,0:0:0:0:
256,192,55763,1,0,0:0:0:0:
256,192,55863,1,2,0:0:0:0:
256,192,55963,1,0,0:0:0:0:
256,192,56063,1,0,0:0:0:0:
256,192,56163,1,2,0:0:0:0:
256,192,56363,1,2,0:0:0:0:
256,192,56463,1,2,0:0:0:0:
256,192,56563,1,0,0:0:0:0:
256,192,56663,1,0,0:0:0:0:
256,192,56763,1,0,0:0:0:0:
256,192,56863,1,2,0:0:0:0:
256,192,57163,1,2,0:0:0:0:
256,192,57363,1,2,0:0:0:0:
256,192,57463,1,2,0:0:0:0:
256,192,57563,1,0,0:0:0:0:
256,192,57763,1,0,0:0:0:0:
256,192,57863,1,2,0:0:0:0:
256,192,57963,1,0,0:0:0:0:
256,192,58063,1,2,0:0:0:0:
256,192,58163,1,0,0:0:0:0:
256,192,58263,1,0,0:0:0:0:
256,192,58463,1,0,0:0:0:0:
256,192,58563,1,2,0:0:0:0:
256,192,58763,1,0,0:0:0:0:
256,192,58963,1,0,0:0:0:0:
256,192,59063,1,2,0:0:0:0:
256,192,59163,1,0,0:0:0:0:
256,192,59263,1,0,0:0:0:0:
256,192,59363,1,2,0:0:0:0:
256,192,59563,1,2,0:0:0:0:
256,192,59663,1,2,0:0:0:0:
256,192,59763,1,0,0:0:0:0:
256,192,59863,1,0,0:0:0:0:
256,192,60063,1,0,0:0:0:0:
256,192,60163,1,2,0:0:0:0:
256,192,60363,1,0,0:0:0:0:
256,192,60563,1,0,0:0:0:0:
256,192,60663,1,0,0:0:0:0:
256,192,60763,1,2,0:0:0:0:
256,192,60863,1,2,0:0:0:0:
256,192,60963,1,0,0:0:0:0:
256,192,61063,1,2,0:0:0:0:
256,192,61163,1,0,0:0:0:0:
256,192,61263,1,2,0:0:0:0:
256,192,61363,1,0,0:0:0:0:
256,192,61463,1,0,0:0:0:0:
256,192,61663,1,0,0:0:0:0:
256,192,61763,1,2,0:0:0:0:
256,192,61963,1,0,0:0:0:0:
256,192,62163,1,0,0:0:0:0:
256,192,62263,1,2,0:0:0:0:
256,192,62363,1,0,0:0:0:0:
256,192,62463,1,0,0:0:0:0:
256,192,62563,1,2,0:0:0:0:
256,192,62763,1,2,0:0:0:0:
256,192,62863,1,2,0:0:0:0:
256,192,62963,1,0,0:0:0:0:
256,192,64563,1,0,0:0:0:0:
256,192,64663,1,0,0:0:0:0:
256,192,64763,1,2,0:0:0:0:
256,192,64863,1,0,0:0:0:0:
256,192,64963,1,2,0:0:0:0:
256,192,65063,1,0,0:0:0:0:
256,192,65163,1,2,0:0:0:0:
256,192,65263,1,0,0:0:0:0:
256,192,65363,1,0,0:0:0:0:
256,192,65463,1,0,0:0:0:0:
256,192,65563,1,2,0:0:0:0:
256,192,65663,1,0,0:0:0:0:
256,192,65763,1,2,0:0:0:0:
256,192,65863,1,0,0:0:0:0:
256,192,65963,1,2,0:0:0:0:
256,192,66063,1,0,0:0:0:0:
256,192,66163,1,0,0:0:0:0:
256,192,66263,1,0,0:0:0:0:
256,192,66363,1,2,0:0:0:0:
256,192,66463,1,0,0:0:0:0:
256,192,66563,1,2,0:0:0:0:
256,192,66663,1,0,0:0:0:0:
256,192,66763,1,2,0:0:0:0:
256,192,66863,1,2,0:0:0:0:
256,192,67063,1,0,0:0:0:0:
256,192,67113,1,0,0:0:0:0:
256,192,67163,1,2,0:0:0:0:
256,192,67263,1,2,0:0:0:0:
256,192,67363,1,2,0:0:0:0:
256,192,67463,1,0,0:0:0:0:
256,192,67563,1,2,0:0:0:0:
256,192,67663,1,2,0:0:0:0:
256,192,67763,1,0,0:0:0:0:
256,192,67863,1,0,0:0:0:0:
256,192,67963,1,2,0:0:0:0:
256,192,68063,1,0,0:0:0:0:
256,192,68163,1,2,0:0:0:0:
256,192,68263,1,0,0:0:0:0:
256,192,68363,1,2,0:0:0:0:
256,192,68463,1,0,0:0:0:0:
256,192,68563,1,0,0:0:0:0:
256,192,68663,1,0,0:0:0:0:
256,192,68763,1,2,0:0:0:0:
256,192,68863,1,0,0:0:0:0:
256,192,68963,1,2,0:0:0:0:
256,192,69063,1,0,0:0:0:0:
256,192,69163,1,2,0:0:0:0:
256,192,69263,1,0,0:0:0:0:
256,192,69363,1,0,0:0:0:0:
256,192,69463,1,0,0:0:0:0:
256,192,69563,1,2,0:0:0:0:
256,192,69663,1,0,0:0:0:0:
256,192,69763,1,2,0:0:0:0:
256,192,69863,1,0,0:0:0:0:
256,192,69963,1,2,0:0:0:0:
256,192,70063,1,2,0:0:0:0:
256,192,70263,1,0,0:0:0:0:
256,192,70313,1,0,0:0:0:0:
256,192,70363,1,2,0:0:0:0:
256,192,70463,1,2,0:0:0:0:
256,192,70563,1,2,0:0:0:0:
256,192,70663,1,0,0:0:0:0:
256,192,70763,1,2,0:0:0:0:
256,192,70863,1,2,0:0:0:0:
256,192,70963,1,4,0:0:0:0:
256,192,71063,1,0,0:0:0:0:
256,192,71113,1,0,0:0:0:0:
256,192,71163,1,2,0:0:0:0:
256,192,71263,1,0,0:0:0:0:
256,192,71313,1,0,0:0:0:0:
256,192,71363,1,2,0:0:0:0:
256,192,71463,1,0,0:0:0:0:
256,192,71563,1,2,0:0:0:0:
256,192,71663,1,0,0:0:0:0:
256,192,71763,1,0,0:0:0:0:
256,192,71863,1,0,0:0:0:0:
256,192,71913,1,0,0:0:0:0:
256,192,71963,1,2,0:0:0:0:
256,192,72063,1,0,0:0:0:0:
256,192,72113,1,0,0:0:0:0:
256,192,72163,1,2,0:0:0:0:
256,192,72263,1,0,0:0:0:0:
256,192,72313,1,0,0:0:0:0:
256,192,72363,1,2,0:0:0:0:
256,192,72463,1,2,0:0:0:0:
256,192,72563,1,0,0:0:0:0:
256,192,72663,1,0,0:0:0:0:
256,192,72713,1,0,0:0:0:0:
256,192,72763,1,2,0:0:0:0:
256,192,72863,1,0,0:0:0:0:
256,192,72913,1,0,0:0:0:0:
256,192,72963,1,2,0:0:0:0:
256,192,73063,1,0,0:0:0:0:
256,192,73113,1,0,0:0:0:0:
256,192,73163,1,2,0:0:0:0:
256,192,73263,1,2,0:0:0:0:
256,192,73363,1,0,0:0:0:0:
256,192,73463,1,2,0:0:0:0:
256,192,73513,1,2,0:0:0:0:
256,192,73563,1,2,0:0:0:0:
256,192,73663,1,2,0:0:0:0:
256,192,73763,1,2,0:0:0:0:
256,192,73863,1,0,0:0:0:0:
256,192,73963,1,2,0:0:0:0:
256,192,74063,1,0,0:0:0:0:
256,192,74163,1,0,0:0:0:0:
256,192,74213,1,0,0:0:0:0:
256,192,74263,1,0,0:0:0:0:
256,192,74313,1,0,0:0:0:0:
256,192,74363,1,2,0:0:0:0:
256,192,74413,1,2,0:0:0:0:
256,192,74463,1,2,0:0:0:0:
256,192,74513,1,2,0:0:0:0:
256,192,74563,1,0,0:0:0:0:
256,192,74613,1,0,0:0:0:0:
256,192,74663,1,0,0:0:0:0:
256,192,74713,1,0,0:0:0:0:
256,192,74763,1,2,0:0:0:0:
256,192,74813,1,2,0:0:0:0:
256,192,74863,1,2,0:0:0:0:
256,192,74913,1,2,0:0:0:0:
256,192,74963,1,0,0:0:0:0:
256,192,75013,1,0,0:0:0:0:
256,192,75063,1,2,0:0:0:0:
256,192,75113,1,2,0:0:0:0:
256,192,75163,1,0,0:0:0:0:
256,192,75213,1,2,0:0:0:0:
256,192,75263,1,2,0:0:0:0:
256,192,75313,1,2,0:0:0:0:
256,192,75363,1,0,0:0:0:0:
256,192,75413,1,0,0:0:0:0:
256,192,75463,1,2,0:0:0:0:
256,192,75513,1,2,0:0:0:0:
256,192,75563,1,0,0:0:0:0:
256,192,75613,1,2,0:0:0:0:
256,192,75663,1,2,0:0:0:0:
256,192,75713,1,2,0:0:0:0:
256,192,75763,1,0,0:0:0:0:
256,192,77363,1,0,0:0:0:0:
256,192,77463,1,2,0:0:0:0:
256,192,77513,1,2,0:0:0:0:
256,192,77563,1,0,0:0:0:0:
256,192,77663,1,2,0:0:0:0:
256,192,77713,1,2,0:0:0:0:
256,192,77763,1,0,0:0:0:0:
256,192,77863,1,2,0:0:0:0:
256,192,77913,1,2,0:0:0:0:
256,192,77963,1,0,0:0:0:0:
256,192,78013,1,2,0:0:0:0:
256,192,78063,1,0,0:0:0:0:
256,192,78113,1,0,0:0:0:0:
256,192,78163,1,0,0:0:0:0:
256,192,78263,1,2,0:0:0:0:
256,192,78313,1,2,0:0:0:0:
256,192,78363,1,0,0:0:0:0:
256,192,78463,1,2,0:0:0:0:
256,192,78513,1,2,0:0:0:0:
256,192,78563,1,0,0:0:0:0:
256,192,78663,1,2,0:0:0:0:
256,192,78713,1,2,0:0:0:0:
256,192,78763,1,0,0:0:0:0:
256,192,78813,1,2,0:0:0:0:
256,192,78863,1,0,0:0:0:0:
256,192,78963,1,0,0:0:0:0:
256,192,79063,1,2,0:0:0:0:
256,192,79113,1,2,0:0:0:0:
256,192,79163,1,0,0:0:0:0:
256,192,79263,1,2,0:0:0:0:
256,192,79313,1,2,0:0:0:0:
256,192,79363,1,0,0:0:0:0:
256,192,79413,1,2,0:0:0:0:
256,192,79463,1,0,0:0:0:0:
256,192,79513,1,0,0:0:0:0:
256,192,79563,1,2,0:0:0:0:
256,192,79663,1,2,0:0:0:0:
256,192,79763,1,0,0:0:0:0:
256,192,79863,1,2,0:0:0:0:
256,192,79913,1,2,0:0:0:0:
256,192,79963,1,2,0:0:0:0:
256,192,80063,1,0,0:0:0:0:
256,192,80163,1,0,0:0:0:0:
256,192,80213,1,2,0:0:0:0:
256,192,80263,1,2,0:0:0:0:
256,192,80313,1,2,0:0:0:0:
256,192,80363,1,0,0:0:0:0:
256,192,80413,1,0,0:0:0:0:
256,192,80463,1,2,0:0:0:0:
256,192,80513,1,2,0:0:0:0:
256,192,80563,1,0,0:0:0:0:
256,192,80663,1,2,0:0:0:0:
256,192,80713,1,2,0:0:0:0:
256,192,80763,1,0,0:0:0:0:
256,192,80863,1,2,0:0:0:0:
256,192,80913,1,2,0:0:0:0:
256,192,80963,1,0,0:0:0:0:
256,192,81063,1,2,0:0:0:0:
256,192,81113,1,2,0:0:0:0:
256,192,81163,1,0,0:0:0:0:
256,192,81213,1,2,0:0:0:0:
256,192,81263,1,0,0:0:0:0:
256,192,81313,1,0,0:0:0:0:
256,192,81363,1,0,0:0:0:0:
256,192,81463,1,2,0:0:0:0:
256,192,81513,1,2,0:0:0:0:
256,192,81563,1,0,0:0:0:0:
256,192,81663,1,2,0:0:0:0:
256,192,81713,1,2,0:0:0:0:
256,192,81763,1,0,0:0:0:0:
256,192,81863,1,2,0:0:0:0:
256,192,81913,1,2,0:0:0:0:
256,192,81963,1,0,0:0:0:0:
256,192,82013,1,2,0:0:0:0:
256,192,82063,1,0,0:0:0:0:
256,192,82163,1,0,0:0:0:0:
256,192,82213,1,0,0:0:0:0:
256,192,82263,1,2,0:0:0:0:
256,192,82463,1,0,0:0:0:0:
256,192,82513,1,0,0:0:0:0:
256,192,82563,1,2,0:0:0:0:
256,192,82763,1,2,0:0:0:0:
256,192,82813,1,2,0:0:0:0:
256,192,82863,1,0,0:0:0:0:
256,192,83063,1,2,0:0:0:0:
256,192,83113,1,2,0:0:0:0:
256,192,83163,1,0,0:0:0:0:
256,192,83363,1,6,0:0:0:0:
256,192,83763,1,0,0:0:0:0:
256,192,83863,1,2,0:0:0:0:
256,192,83913,1,2,0:0:0:0:
256,192,83963,1,0,0:0:0:0:
256,192,84063,1,2,0:0:0:0:
256,192,84113,1,2,0:0:0:0:
256,192,84163,1,0,0:0:0:0:
256,192,84263,1,2,0:0:0:0:
256,192,84313,1,2,0:0:0:0:
256,192,84363,1,0,0:0:0:0:
256,192,84413,1,0,0:0:0:0:
256,192,84463,1,0,0:0:0:0:
256,192,84513,1,2,0:0:0:0:
256,192,84563,1,0,0:0:0:0:
256,192,84663,1,2,0:0:0:0:
256,192,84713,1,2,0:0:0:0:
256,192,84763,1,0,0:0:0:0:
256,192,84863,1,2,0:0:0:0:
256,192,84913,1,2,0:0:0:0:
256,192,84963,1,0,0:0:0:0:
256,192,85063,1,2,0:0:0:0:
256,192,85113,1,2,0:0:0:0:
256,192,85163,1,0,0:0:0:0:
256,192,85213,1,2,0:0:0:0:
256,192,85263,1,0,0:0:0:0:
256,192,85363,1,0,0:0:0:0:
256,192,85463,1,2,0:0:0:0:
256,192,85513,1,2,0:0:0:0:
256,192,85563,1,0,0:0:0:0:
256,192,85663,1,2,0:0:0:0:
256,192,85713,1,2,0:0:0:0:
256,192,85763,1,0,0:0:0:0:
256,192,85813,1,2,0:0:0:0:
256,192,85863,1,0,0:0:0:0:
256,192,85913,1,0,0:0:0:0:
256,192,85963,1,2,0:0:0:0:
256,192,86063,1,2,0:0:0:0:
256,192,86163,1,0,0:0:0:0:
256,192,86263,1,2,0:0:0:0:
256,192,86313,1,2,0:0:0:0:
256,192,86363,1,2,0:0:0:0:
256,192,86463,1,0,0:0:0:0:
256,192,86563,1,0,0:0:0:0:
256,192,86613,1,2,0:0:0:0:
256,192,86663,1,2,0:0:0:0:
256,192,86713,1,0,0:0:0:0:
256,192,86763,1,0,0:0:0:0:
256,192,86813,1,2,0:0:0:0:
256,192,86863,1,2,0:0:0:0:
256,192,86963,1,0,0:0:0:0:
256,192,87013,1,0,0:0:0:0:
256,192,87063,1,2,0:0:0:0:
256,192,87113,1,2,0:0:0:0:
256,192,87163,1,0,0:0:0:0:
256,192,87213,1,2,0:0:0:0:
256,192,87263,1,2,0:0:0:0:
256,192,87313,1,2,0:0:0:0:
256,192,87363,1,0,0:0:0:0:
256,192,87463,1,2,0:0:0:0:
256,192,87563,1,0,0:0:0:0:
256,192,87663,1,2,0:0:0:0:
256,192,87763,1,0,0:0:0:0:
256,192,87813,1,0,0:0:0:0:
256,192,87863,1,2,0:0:0:0:
256,192,87913,1,2,0:0:0:0:
256,192,87963,1,0,0:0:0:0:
256,192,88013,1,2,0:0:0:0:
256,192,88063,1,2,0:0:0:0:
256,192,88113,1,2,0:0:0:0:
256,192,88163,1,0,0:0:0:0:
256,192,88263,1,0,0:0:0:0:
256,192,88363,1,2,0:0:0:0:
256,192,88463,1,2,0:0:0:0:
256,192,88563,1,0,0:0:0:0:
256,192,88613,1,0,0:0:0:0:
256,192,88663,1,2,0:0:0:0:
256,192,88863,1,0,0:0:0:0:
256,192,88913,1,0,0:0:0:0:
256,192,88963,1,2,0:0:0:0:
256,192,89163,1,2,0:0:0:0:
256,192,89213,1,2,0:0:0:0:
256,192,89263,1,0,0:0:0:0:
256,192,89463,1,2,0:0:0:0:
256,192,89513,1,2,0:0:0:0:
256,192,89563,1,0,0:0:0:0:
256,192,89763,1,6,0:0:0:0:
256,192,90163,1,4,0:0:0:0:
256,192,90263,1,0,0:0:0:0:
256,192,90313,1,0,0:0:0:0:
256,192,90363,1,2,0:0:0:0:
256,192,90463,1,0,0:0:0:0:
256,192,90563,1,2,0:0:0:0:
256,192,90613,1,0,0:0:0:0:
256,192,90663,1,0,0:0:0:0:
256,192,90713,1,0,0:0:0:0:
256,192,90763,1,2,0:0:0:0:
256,192,90813,1,2,0:0:0:0:
256,192,90863,1,2,0:0:0:0:
256,192,90913,1,2,0:0:0:0:
256,192,90963,1,0,0:0:0:0:
256,192,91063,1,2,0:0:0:0:
256,192,91113,1,2,0:0:0:0:
256,192,91163,1,0,0:0:0:0:
256,192,91263,1,2,0:0:0:0:
256,192,91363,1,0,0:0:0:0:
256,192,91413,1,0,0:0:0:0:
256,192,91463,1,2,0:0:0:0:
256,192,91513,1,2,0:0:0:0:
256,192,91563,1,0,0:0:0:0:
256,192,91613,1,0,0:0:0:0:
256,192,91663,1,2,0:0:0:0:
256,192,91763,1,0,0:0:0:0:
256,192,91863,1,0,0:0:0:0:
256,192,91913,1,0,0:0:0:0:
256,192,91963,1,2,0:0:0:0:
256,192,92063,1,0,0:0:0:0:
256,192,92163,1,2,0:0:0:0:
256,192,92213,1,0,0:0:0:0:
256,192,92263,1,0,0:0:0:0:
256,192,92313,1,0,0:0:0:0:
256,192,92363,1,2,0:0:0:0:
256,192,92413,1,2,0:0:0:0:
256,192,92463,1,2,0:0:0:0:
256,192,92513,1,2,0:0:0:0:
256,192,92563,1,0,0:0:0:0:
256,192,92663,1,2,0:0:0:0:
256,192,92713,1,2,0:0:0:0:
256,192,92763,1,0,0:0:0:0:
256,192,92863,1,2,0:0:0:0:
256,192,92963,1,0,0:0:0:0:
256,192,93013,1,0,0:0:0:0:
256,192,93063,1,2,0:0:0:0:
256,192,93113,1,2,0:0:0:0:
256,192,93163,1,0,0:0:0:0:
256,192,93213,1,0,0:0:0:0:
256,192,93263,1,2,0:0:0:0:
256,192,93313,1,0,0:0:0:0:
256,192,93363,1,0,0:0:0:0:
256,192,93463,1,0,0:0:0:0:
256,192,93513,1,0,0:0:0:0:
256,192,93563,1,2,0:0:0:0:
256,192,93663,1,0,0:0:0:0:
256,192,93763,1,2,0:0:0:0:
256,192,93813,1,2,0:0:0:0:
256,192,93863,1,0,0:0:0:0:
256,192,93913,1,0,0:0:0:0:
256,192,93963,1,2,0:0:0:0:
256,192,94013,1,2,0:0:0:0:
256,192,94063,1,2,0:0:0:0:
256,192,94113,1,2,0:0:0:0:
256,192,94163,1,0,0:0:0:0:
256,192,94263,1,2,0:0:0:0:
256,192,94313,1,2,0:0:0:0:
256,192,94363,1,0,0:0:0:0:
256,192,94463,1,2,0:0:0:0:
256,192,94563,1,0,0:0:0:0:
256,192,94613,1,0,0:0:0:0:
256,192,94663,1,2,0:0:0:0:
256,192,94713,1,2,0:0:0:0:
256,192,94763,1,0,0:0:0:0:
256,192,94813,1,0,0:0:0:0:
256,192,94863,1,2,0:0:0:0:
256,192,94913,1,0,0:0:0:0:
256,192,94963,1,0,0:0:0:0:
256,192,95013,1,0,0:0:0:0:
256,192,95063,1,0,0:0:0:0:
256,192,95263,1,0,0:0:0:0:
256,192,95313,1,0,0:0:0:0:
256,192,95363,1,0,0:0:0:0:
256,192,95563,1,2,0:0:0:0:
256,192,95613,1,2,0:0:0:0:
256,192,95663,1,2,0:0:0:0:
256,192,95863,1,2,0:0:0:0:
256,192,95913,1,2,0:0:0:0:
256,192,95963,1,2,0:0:0:0:
256,192,96063,1,2,0:0:0:0:
256,192,96163,1,4,0:0:0:0:
256,192,96563,1,4,0:0:0:0:
256,192,96663,1,0,0:0:0:0:
256,192,96713,1,0,0:0:0:0:
256,192,96763,1,2,0:0:0:0:
256,192,96813,1,2,0:0:0:0:
256,192,96863,1,0,0:0:0:0:
256,192,96963,1,2,0:0:0:0:
256,192,97013,1,2,0:0:0:0:
256,192,97063,1,0,0:0:0:0:
256,192,97113,1,0,0:0:0:0:
256,192,97163,1,0,0:0:0:0:
256,192,97213,1,2,0:0:0:0:
256,192,97263,1,2,0:0:0:0:
256,192,97313,1,2,0:0:0:0:
256,192,97363,1,0,0:0:0:0:
256,192,97463,1,2,0:0:0:0:
256,192,97513,1,2,0:0:0:0:
256,192,97563,1,0,0:0:0:0:
256,192,97613,1,2,0:0:0:0:
256,192,97663,1,2,0:0:0:0:
256,192,97713,1,2,0:0:0:0:
256,192,97763,1,0,0:0:0:0:
256,192,97813,1,0,0:0:0:0:
256,192,97863,1,0,0:0:0:0:
256,192,97913,1,2,0:0:0:0:
256,192,97963,1,0,0:0:0:0:
256,192,98013,1,2,0:0:0:0:
256,192,98063,1,2,0:0:0:0:
256,192,98163,1,0,0:0:0:0:
256,192,98263,1,0,0:0:0:0:
256,192,98313,1,0,0:0:0:0:
256,192,98363,1,2,0:0:0:0:
256,192,98413,1,2,0:0:0:0:
256,192,98463,1,0,0:0:0:0:
256,192,98563,1,2,0:0:0:0:
256,192,98613,1,2,0:0:0:0:
256,192,98663,1,0,0:0:0:0:
256,192,98713,1,0,0:0:0:0:
256,192,98763,1,0,0:0:0:0:
256,192,98813,1,2,0:0:0:0:
256,192,98863,1,2,0:0:0:0:
256,192,98913,1,2,0:0:0:0:
256,192,98963,1,0,0:0:0:0:
256,192,99063,1,2,0:0:0:0:
256,192,99113,1,2,0:0:0:0:
256,192,99163,1,0,0:0:0:0:
256,192,99363,1,0,0:0:0:0:
256,192,99413,1,0,0:0:0:0:
256,192,99463,1,2,0:0:0:0:
256,192,99513,1,2,0:0:0:0:
256,192,99563,1,0,0:0:0:0:
256,192,99763,1,0,0:0:0:0:
256,192,99813,1,0,0:0:0:0:
256,192,99863,1,0,0:0:0:0:
256,192,99913,1,0,0:0:0:0:
256,192,99963,1,2,0:0:0:0:
256,192,100013,1,2,0:0:0:0:
256,192,100063,1,0,0:0:0:0:
256,192,100113,1,0,0:0:0:0:
256,192,100163,1,2,0:0:0:0:
256,192,100213,1,2,0:0:0:0:
256,192,100263,1,0,0:0:0:0:
256,192,100313,1,0,0:0:0:0:
256,192,100363,1,0,0:0:0:0:
256,192,100413,1,2,0:0:0:0:
256,192,100463,1,2,0:0:0:0:
256,192,100513,1,2,0:0:0:0:
256,192,100563,1,0,0:0:0:0:
256,192,100613,1,0,0:0:0:0:
256,192,100663,1,0,0:0:0:0:
256,192,100713,1,0,0:0:0:0:
256,192,100763,1,2,0:0:0:0:
256,192,100813,1,2,0:0:0:0:
256,192,100863,1,2,0:0:0:0:
256,192,100913,1,2,0:0:0:0:
256,192,100963,1,0,0:0:0:0:
256,192,101013,1,0,0:0:0:0:
256,192,101063,1,0,0:0:0:0:
256,192,101113,1,2,0:0:0:0:
256,192,101163,1,0,0:0:0:0:
256,192,101213,1,0,0:0:0:0:
256,192,101263,1,0,0:0:0:0:
256,192,101313,1,2,0:0:0:0:
256,192,101363,1,0,0:0:0:0:
256,192,101413,1,0,0:0:0:0:
256,192,101463,1,2,0:0:0:0:
256,192,101513,1,0,0:0:0:0:
256,192,101563,1,0,0:0:0:0:
256,192,101613,1,2,0:0:0:0:
256,192,101663,1,0,0:0:0:0:
256,192,101713,1,0,0:0:0:0:
256,192,101763,1,2,0:0:0:0:
256,192,101813,1,0,0:0:0:0:
256,192,101863,1,2,0:0:0:0:
256,192,101913,1,0,0:0:0:0:
256,192,101963,1,2,0:0:0:0:
256,192,102013,1,0,0:0:0:0:
256,192,102063,1,2,0:0:0:0:
256,192,102113,1,0,0:0:0:0:
256,192,102163,2,0,B|512:192|512:192|320:192,1,420
256,192,102963,1,0,0:0:0:0:
256,192,103563,1,0,0:0:0:0:
256,192,103763,1,0,0:0:0:0:
256,192,103863,1,2,0:0:0:0:
256,192,103963,1,0,0:0:0:0:
256,192,104063,1,0,0:0:0:0:
256,192,104163,1,2,0:0:0:0:
256,192,104363,1,2,0:0:0:0:
256,192,104463,1,2,0:0:0:0:
256,192,104563,1,0,0:0:0:0:
256,192,105163,1,0,0:0:0:0:
256,192,105363,1,0,0:0:0:0:
256,192,105463,1,0,0:0:0:0:
256,192,105563,1,2,0:0:0:0:
256,192,105663,1,2,0:0:0:0:
256,192,105763,1,0,0:0:0:0:
256,192,105863,1,2,0:0:0:0:
256,192,105963,1,0,0:0:0:0:
256,192,106063,1,2,0:0:0:0:
256,192,106163,1,0,0:0:0:0:
256,192,106763,1,0,0:0:0:0:
256,192,106963,1,0,0:0:0:0:
256,192,107063,1,2,0:0:0:0:
256,192,107163,1,0,0:0:0:0:
256,192,107263,1,0,0:0:0:0:
256,192,107363,1,2,0:0:0:0:
256,192,107563,1,2,0:0:0:0:
256,192,107663,1,2,0:0:0:0:
256,192,107763,1,0,0:0:0:0:
256,192,107863,1,0,0:0:0:0:
256,192,107963,1,0,0:0:0:0:
256,192,108063,1,2,0:0:0:0:
256,192,108363,1,2,0:0:0:0:
256,192,108563,1,2,0:0:0:0:
256,192,108663,1,2,0:0:0:0:
256,192,108763,1,0,0:0:0:0:
256,192,108963,1,0,0:0:0:0:
256,192,109063,1,2,0:0:0:0:
256,192,109163,1,0,0:0:0:0:
256,192,109263,1,2,0:0:0:0:
256,192,109363,1,0,0:0:0:0:
256,192,109963,1,0,0:0:0:0:
256,192,110163,1,0,0:0:0:0:
256,192,110263,1,2,0:0:0:0:
256,192,110363,1,0,0:0:0:0:
256,192,110463,1,0,0:0:0:0:
256,192,110563,1,2,0:0:0:0:
256,192,110763,1,2,0:0:0:0:
256,192,110863,1,2,0:0:0:0:
256,192,110963,1,0,0:0:0:0:
256,192,111563,1,0,0:0:0:0:
256,192,111763,1,0,0:0:0:0:
256,192,111863,1,0,0:0:0:0:
256,192,111963,1,2,0:0:0:0:
256,192,112063,1,2,0:0:0:0:
256,192,112163,1,0,0:0:0:0:
256,192,112263,1,2,0:0:0:0:
256,192,112363,1,0,0:0:0:0:
256,192,112463,1,2,0:0:0:0:
256,192,112563,1,0,0:0:0:0:
256,192,113163,1,0,0:0:0:0:
256,192,113363,1,0,0:0:0:0:
256,192,113463,1,2,0:0:0:0:
256,192,113563,1,0,0:0:0:0:
256,192,113663,1,0,0:0:0:0:
256,192,113763,1,2,0:0:0:0:
256,192,113963,1,2,0:0:0:0:
256,192,114063,1,2,0:0:0:0:
256,192,114163,1,0,0:0:0:0:
256,192,114263,1,0,0:0:0:0:
256,192,114363,1,0,0:0:0:0:
256,192,114463,1,2,0:0:0:0:
256,192,114763,1,2,0:0:0:0:
256,192,114963,1,2,0:0:0:0:
256,192,115063,1,2,0:0:0:0:
256,192,115163,1,0,0:0:0:0:
256,192,115363,1,0,0:0:0:0:
256,192,115463,1,2,0:0:0:0:
256,192,115563,1,0,0:0:0:0:
256,192,115663,1,2,0:0:0:0:
