osu file format v14

[General]
AudioFilename: audio.mp3
AudioLeadIn: 0
PreviewTime: 0
Countdown: 0
SampleSet: None
StackLeniency: 0.7
Mode: 0
LetterboxInBreaks: 0
WidescreenStoryboard: 1

[Editor]
Bookmarks: 44668,69395
DistanceSpacing: 1.1
BeatDivisor: 4
GridSize: 32
TimelineZoom: 3

[Metadata]
Title:SAY BAY
TitleUnicode:SAY BAY
Artist:P*Light
ArtistUnicode:P��Light
Creator:-Eriri-
Version:Expert
Source:
Tags:Newspaper Cup #4
BeatmapID:1588788
BeatmapSetID:754686

[Difficulty]
HPDrainRate:6
CircleSize:4.2
OverallDifficulty:8.2
ApproachRate:9.4
SliderMultiplier:1.74
SliderTickRate:1

[Events]
//Background and Video events
0,0,"64336175_p0.jpg",0,0
//Break Periods
2,56504,60322
//Storyboard Layer 0 (Background)
//Storyboard Layer 1 (Fail)
//Storyboard Layer 2 (Pass)
//Storyboard Layer 3 (Foreground)
//Storyboard Sound Samples

[TimingPoints]
1032,363.636363636364,4,2,1,20,1,0
2668,-100,4,2,1,40,0,0
6122,-100,4,2,1,5,0,0
6486,-100,4,2,1,65,0,0
6850,-100,4,2,1,80,0,0
12668,-83.3333333333333,4,2,1,85,0,0
15577,-100,4,1,1,80,0,0
15941,-83.3333333333333,4,1,1,80,0,0
16304,-66.6666666666667,4,1,1,80,0,0
16668,-50,4,1,1,80,0,0
17032,-133.333333333333,4,1,1,40,0,0
18122,-133.333333333333,4,3,1,90,0,0
18486,-66.6666666666667,4,2,1,70,0,0
18850,-83.3333333333333,4,2,1,70,0,0
19213,-66.6666666666667,4,2,1,70,0,0
19577,-50,4,2,1,70,0,0
19941,-66.6666666666667,4,2,1,70,0,0
20304,-83.3333333333333,4,2,1,45,0,0
20668,-66.6666666666667,4,2,1,70,0,0
21032,-50,4,2,1,80,0,0
21213,-50,4,2,1,5,0,0
21395,-66.6666666666667,4,2,1,85,0,0
30122,-100,4,2,1,80,0,0
30850,-83.3333333333333,4,2,1,80,0,0
31577,-66.6666666666667,4,1,1,65,0,0
32577,-83.3333333333333,4,1,1,70,0,0
32850,-133.333333333333,4,1,1,70,0,0
33032,-66.6666666666667,4,2,1,85,0,0
44668,-66.6666666666667,4,3,1,80,0,0
50122,-50,4,1,1,70,0,0
50486,-66.6666666666667,4,1,1,70,0,0
62122,-100,4,2,1,40,0,0
67941,-125,4,2,1,75,0,0
68304,-125,4,1,1,5,0,0
69395,-100,4,1,1,5,0,0
70850,-100,4,1,1,20,0,0
72304,-100,4,1,1,30,0,0
73395,-100,4,1,1,70,0,0
73759,-83.3333333333333,4,2,1,70,0,0
85395,-66.6666666666667,4,2,1,75,0,0
85759,-83.3333333333333,4,2,1,75,0,0
86122,-66.6666666666667,4,2,1,75,0,0
86486,-50,4,2,1,75,0,0
86850,-66.6666666666667,4,2,1,75,0,0
87213,-83.3333333333333,4,2,1,65,0,0
87577,-66.6666666666667,4,2,1,75,0,0
87941,-50,4,2,1,75,0,0
88304,-50,4,2,1,80,0,0
91213,-66.6666666666667,4,2,1,80,0,1
91759,-133.333333333333,4,2,1,80,0,1
91941,-50,4,2,1,80,0,1
92668,-66.6666666666667,4,2,1,80,0,1
93213,-133.333333333333,4,2,1,80,0,1
93395,-50,4,2,1,80,0,1
94122,-66.6666666666667,4,2,1,80,0,1
94668,-133.333333333333,4,2,1,80,0,1
94850,-50,4,2,1,80,0,1
95577,-50,4,1,1,80,0,1
97032,-66.6666666666667,4,2,1,80,0,1
97577,-133.333333333333,4,2,1,80,0,1
97759,-50,4,2,1,80,0,1
98486,-133.333333333333,4,2,1,80,0,1
99213,-50,4,2,1,80,0,1
99941,-66.6666666666667,4,2,1,80,0,1
101395,-66.6666666666667,4,2,1,70,0,0
102122,-50,4,2,1,70,0,0
102395,-66.6666666666667,4,2,1,70,0,0
102850,-50,4,2,1,80,0,1
105759,-55.5555555555556,4,2,1,80,0,1
105850,-55.5555555555556,4,2,1,5,0,1
105941,-55.5555555555556,4,2,1,80,0,1
106032,-55.5555555555556,4,2,1,5,0,1
106122,-55.5555555555556,4,2,1,80,0,1
114486,-50,4,2,1,70,0,0

[Colours]
Combo1 : 255,255,106
Combo2 : 121,64,79
Combo3 : 215,103,224
Combo4 : 253,108,21
Combo5 : 255,0,0

[HitObjects]
256,192,1032,12,0,6486,0:0:0:0:
208,191,6850,5,2,0:3:0:0:
84,304,7032,1,0,0:0:0:0:
84,210,7213,2,0,L|44:195,1,43.5,2|0,0:3|0:0,0:0:0:0:
242,265,7395,1,2,0:3:0:0:
126,164,7577,5,0,0:0:0:0:
165,122,7668,1,0,0:0:0:0:
203,79,7759,1,2,0:3:0:0:
228,102,7850,1,0,0:0:0:0:
280,160,7941,5,2,0:3:0:0:
319,202,8032,1,0,0:0:0:0:
357,245,8123,2,0,B|384:250|384:250|412:243,1,43.5
456,150,8304,1,2,0:3:0:0:
391,46,8486,5,0,0:0:0:0:
348,60,8577,1,0,0:0:0:0:
310,73,8668,1,0,0:0:0:0:
194,10,8850,1,2,0:3:0:0:
8,103,9032,5,0,0:0:0:0:
46,91,9123,1,0,0:0:0:0:
89,77,9214,1,2,0:3:0:0:
139,135,9304,5,0,0:0:0:0:
106,163,9395,1,2,0:3:0:0:
59,171,9486,2,0,L|66:259,1,87
255,349,9759,1,2,0:3:0:0:
449,250,9941,1,0,0:0:0:0:
403,55,10122,6,0,P|397:26|400:9,1,43.5
481,29,10304,1,2,0:3:0:0:
386,164,10486,5,0,0:0:0:0:
347,122,10577,1,0,0:0:0:0:
309,79,10668,1,2,0:3:0:0:
284,102,10759,1,0,0:0:0:0:
232,160,10850,5,2,0:3:0:0:
193,202,10941,1,0,0:0:0:0:
155,245,11032,2,0,B|128:250|128:250|100:243,1,43.5
32,149,11213,1,2,0:3:0:0:
132,28,11395,6,0,B|84:41,1,43.5
20,161,11577,1,0,0:0:0:0:
154,16,11759,1,2,0:3:0:0:
229,267,11941,2,0,P|260:272|295:260,1,43.5
353,164,12122,2,0,L|346:120,1,43.5,2|0,0:3|0:0,0:0:0:0:
455,321,12304,1,2,0:3:0:0:
455,321,12668,6,0,L|463:258,1,52.1999984069825,4|0,0:3|0:0,0:0:0:0:
484,194,12850,2,0,L|432:181,1,52.1999984069825,4|0,0:3|0:0,0:0:0:0:
431,43,13032,1,4,0:3:0:0:
431,43,13123,1,0,0:0:0:0:
431,43,13214,2,0,L|422:108,1,52.1999984069825,4|0,0:3|0:0,0:0:0:0:
373,243,13395,5,0,0:0:0:0:
353,263,13486,1,0,0:0:0:0:
316,289,13577,1,0,0:0:0:0:
316,236,13668,1,0,0:0:0:0:
283,195,13759,1,0,0:0:0:0:
230,195,13850,1,0,0:0:0:0:
191,230,13941,2,0,L|206:290,1,52.1999984069825
148,355,14122,6,0,L|93:356,1,52.1999984069825,4|0,0:3|0:0,0:0:0:0:
39,245,14304,2,0,L|101:252,1,52.1999984069825,4|0,0:3|0:0,0:0:0:0:
79,91,14486,1,4,0:3:0:0:
79,91,14577,1,0,0:0:0:0:
80,90,14668,2,0,L|87:141,1,52.1999984069825,4|0,0:3|0:0,0:0:0:0:
243,15,14849,5,0,0:0:0:0:
221,9,14940,1,0,0:0:0:0:
173,73,15031,1,0,0:0:0:0:
203,145,15122,1,0,0:0:0:0:
280,155,15213,1,0,0:0:0:0:
348,117,15304,1,0,0:0:0:0:
412,161,15395,1,0,0:0:0:0:
420,181,15486,1,0,0:0:0:0:
453,256,15577,6,0,L|458:299,3,43.5,4|0|0|0,0:3|0:0|0:0|0:0,0:0:0:0:
344,367,15941,2,0,L|350:313,3,52.1999984069825,4|0|4|0,0:3|0:0|0:3|0:0,0:0:0:0:
221,240,16304,2,0,L|236:320,3,65.2500024890901,4|0|4|0,0:3|0:0|0:3|0:0,0:0:0:0:
97,358,16668,2,0,L|103:305,6,43.5,4|0|4|0|4|0|4,0:3|0:0|0:3|0:0|0:3|0:0|0:3,0:0:0:0:
61,56,17032,6,0,B|90:133|165:144|212:139|32:39|160:35|74:210|-23:243,1,326.25001244545
256,24,18122,1,8,0:0:0:0:
139,225,18486,6,0,L|160:364,1,130.50000497818
254,76,18850,2,0,L|255:21,1,52.1999984069825,8|0,1:0|1:0,0:0:0:0:
254,76,19032,1,0,1:0:0:0:
367,225,19213,6,0,L|346:364,1,130.50000497818
183,105,19577,2,0,P|254:155|324:102,1,174,8|0,1:0|0:0,0:0:0:0:
139,225,19941,6,0,L|160:364,1,130.50000497818
136,384,20304,6,0,P|119:334|119:282,1,104.399996813965,8|0,1:0|0:0,0:0:0:0:
152,37,20668,6,0,P|170:100|157:180,1,130.50000497818
138,226,21032,6,0,L|151:46,1,174,8|0,1:0|0:0,0:0:0:0:
12,136,21395,5,2,0:1:0:0:
40,348,21577,1,0,0:0:0:0:
144,312,21759,1,10,0:1:0:0:
144,312,21850,1,0,0:0:0:0:
144,312,21941,2,0,P|192:344|220:344,1,65.2500024890901,2|0,0:1|0:0,0:0:0:0:
281,261,22122,2,0,L|291:196,1,65.2500024890901
370,360,22304,2,0,P|427:353|448:335,1,65.2500024890901
470,163,22486,2,0,L|455:233,1,65.2500024890901,10|0,0:1|0:0,0:0:0:0:
340,106,22668,2,0,P|336:62|352:30,1,65.2500024890901
455,12,22850,5,2,0:1:0:0:
346,194,23032,1,0,0:0:0:0:
252,67,23213,1,10,0:1:0:0:
252,67,23304,1,0,0:0:0:0:
252,67,23395,2,0,B|216:83|216:83|180:67,1,65.2500024890901
44,23,23577,1,0,0:0:0:0:
44,23,23668,2,0,B|81:13|81:13|115:32,2,65.2500024890901,0|2|0,0:0|0:1|0:0,0:0:0:0:
110,232,23941,2,0,B|60:183|60:183|88:112,1,130.50000497818,10|0,0:1|0:0,0:0:0:0:
177,152,24304,5,2,0:1:0:0:
0,259,24486,1,0,0:0:0:0:
79,346,24668,1,10,0:1:0:0:
79,346,24759,1,0,0:0:0:0:
79,346,24850,2,0,P|121:358|148:358,1,65.2500024890901,2|0,0:1|0:0,0:0:0:0:
197,271,25032,2,0,L|184:190,1,65.2500024890901
350,335,25213,2,0,P|308:347|281:347,1,65.2500024890901
255,125,25395,2,0,L|270:47,1,65.2500024890901,10|0,0:1|0:0,0:0:0:0:
318,199,25577,2,0,P|360:205|404:190,1,65.2500024890901,8|0,0:0|0:0,0:0:0:0:
480,26,25759,5,10,1:0:0:0:
480,26,25850,1,10,1:0:0:0:
356,121,26032,1,2,1:0:0:0:
356,121,26122,1,8,1:0:0:0:
331,10,26304,1,10,1:0:0:0:
173,89,26486,5,10,1:0:0:0:
134,86,26577,1,0,1:0:0:0:
95,83,26668,1,0,0:0:0:0:
56,80,26759,1,8,1:0:0:0:
17,77,26850,1,10,1:0:0:0:
166,10,27032,1,2,1:0:0:0:
216,310,27213,5,2,0:1:0:0:
192,171,27395,1,0,0:0:0:0:
20,251,27577,1,10,0:1:0:0:
45,238,27668,1,0,0:0:0:0:
73,232,27759,2,0,P|104:229|142:239,1,65.2500024890901,2|0,0:1|0:0,0:0:0:0:
203,374,27941,2,0,L|215:309,1,65.2500024890901
279,145,28122,2,0,P|290:184|280:208,1,65.2500024890901
372,364,28304,2,0,L|385:296,1,65.2500024890901,10|0,0:1|0:0,0:0:0:0:
504,200,28486,2,0,P|451:204|433:215,1,65.2500024890901
304,29,28668,5,2,0:1:0:0:
361,214,28850,1,0,0:0:0:0:
437,88,29032,1,10,0:1:0:0:
408,70,29122,1,0,0:0:0:0:
389,54,29213,2,0,L|409:128,1,65.2500024890901,2|0,0:1|0:0,0:0:0:0:
281,205,29395,5,0,0:0:0:0:
260,227,29486,2,0,B|235:247|235:247|200:249,2,65.2500024890901,0|2|0,0:0|0:1|0:0,0:0:0:0:
142,67,29759,2,0,P|63:48|113:123,1,195.75000746727,10|0,0:1|0:0,0:0:0:0:
22,269,30122,5,0,0:0:0:0:
54,249,30213,1,0,0:0:0:0:
92,237,30304,1,0,0:0:0:0:
133,242,30395,1,0,0:0:0:0:
180,275,30486,2,0,L|233:257,1,43.5,10|0,1:0|0:0,0:0:0:0:
214,141,30668,2,0,L|171:155,1,43.5
103,324,30850,5,0,0:0:0:0:
145,354,30941,1,0,0:0:0:0:
198,361,31032,1,0,0:0:0:0:
249,345,31122,1,0,0:0:0:0:
294,324,31213,2,0,L|348:340,1,52.1999984069825,10|0,1:0|1:0,1:0:0:0:
424,364,31395,2,0,P|454:364|474:357,1,52.1999984069825
180,275,31577,5,0,0:0:0:0:
333,203,31759,1,0,0:0:0:0:
156,129,31941,2,0,P|121:122|89:131,2,65.2500024890901
255,114,32304,6,0,L|256:40,2,65.2500024890901,2|0|0,0:0|0:0|0:0,0:0:0:0:
333,203,32577,2,0,L|386:202,2,52.1999984069825,2|0|0,0:0|0:0|0:0,0:0:0:0:
256,273,32850,2,0,L|256:324,1,32.625001244545,2|0,0:0|0:0,0:0:0:0:
48,113,33032,5,2,0:1:0:0:
81,347,33213,1,0,0:0:0:0:
203,322,33395,1,10,0:0:0:0:
186,358,33486,2,0,L|250:348,2,65.2500024890901,0|2|0,0:0|0:0|0:0,0:0:0:0:
367,309,33759,5,2,0:1:0:0:
390,269,33850,1,0,0:0:0:0:
400,224,33941,1,0,0:0:0:0:
394,178,34032,1,0,0:0:0:0:
381,148,34122,1,10,0:0:0:0:
354,167,34213,1,0,0:0:0:0:
323,178,34304,2,0,P|270:175|238:161,1,65.2500024890901
209,24,34486,5,2,0:1:0:0:
275,270,34668,1,0,0:0:0:0:
185,218,34850,1,10,0:0:0:0:
207,237,34941,2,0,L|133:246,2,65.2500024890901,0|2|0,0:0|0:1|0:0,0:0:0:0:
76,294,35213,2,0,P|60:258|65:222,1,65.2500024890901
9,158,35395,2,0,L|91:142,1,65.2500024890901,2|0,0:0|0:0,0:0:0:0:
154,168,35577,1,10,0:1:0:0:
154,168,35668,2,0,P|160:136|89:64,1,130.50000497818
109,37,35941,5,2,0:1:0:0:
61,232,36122,1,0,0:0:0:0:
154,168,36304,1,10,0:0:0:0:
154,168,36395,1,0,0:0:0:0:
172,189,36486,2,0,L|236:197,1,65.2500024890901,2|0,0:0|0:0,0:0:0:0:
318,178,36668,5,0,0:1:0:0:
330,210,36759,1,0,0:0:0:0:
259,283,36850,1,2,0:1:0:0:
282,274,36941,1,0,0:0:0:0:
407,256,37032,5,10,0:0:0:0:
430,247,37122,1,0,0:0:0:0:
353,336,37213,1,0,0:0:0:0:
390,150,37395,5,2,0:1:0:0:
363,80,37486,1,2,0:0:0:0:
289,84,37577,1,2,0:0:0:0:
226,117,37668,1,2,0:0:0:0:
247,183,37759,1,8,0:1:0:0:
247,183,37941,1,10,0:1:0:0:
126,186,38122,5,2,0:1:0:0:
172,150,38213,1,2,0:0:0:0:
226,117,38304,1,2,0:0:0:0:
188,79,38395,1,2,0:0:0:0:
157,34,38486,1,8,0:1:0:0:
157,34,38668,1,0,0:0:0:0:
1,105,38850,5,2,0:1:0:0:
57,351,39032,1,0,0:0:0:0:
126,212,39213,1,10,0:0:0:0:
93,233,39304,1,0,0:0:0:0:
53,236,39395,2,0,L|-14:222,1,65.2500024890901,2|0,0:0|0:0,0:0:0:0:
117,118,39577,5,2,0:1:0:0:
166,101,39668,1,0,0:0:0:0:
218,98,39759,1,0,0:0:0:0:
267,114,39850,1,0,0:0:0:0:
307,147,39941,2,0,L|298:224,1,65.2500024890901,10|0,0:0|0:0,0:0:0:0:
373,97,40122,2,0,P|413:89|454:99,1,65.2500024890901
471,359,40304,5,2,0:1:0:0:
405,174,40486,1,0,0:0:0:0:
277,230,40668,1,10,0:0:0:0:
299,211,40759,2,0,L|225:202,2,65.2500024890901,0|2|0,0:0|0:1|0:0,0:0:0:0:
168,154,41031,2,0,P|152:190|157:226,1,65.2500024890901
101,290,41213,2,0,L|183:306,1,65.2500024890901,2|0,0:0|0:0,0:0:0:0:
246,280,41395,1,10,0:1:0:0:
246,280,41486,2,0,P|252:312|181:384,1,130.50000497818
13,133,41759,5,0,0:0:0:0:
2,95,41850,1,0,0:0:0:0:
21,60,41941,1,0,0:0:0:0:
57,47,42032,1,0,0:0:0:0:
95,54,42122,1,10,0:0:0:0:
127,75,42213,1,0,0:0:0:0:
166,74,42304,2,0,L|236:63,1,65.2500024890901
318,13,42486,5,0,0:0:0:0:
302,49,42577,1,0,0:0:0:0:
309,87,42668,1,0,0:0:0:0:
329,120,42759,1,0,0:0:0:0:
347,154,42850,2,0,L|341:226,1,65.2500024890901,10|0,0:0|0:0,0:0:0:0:
314,247,43032,2,0,L|328:342,1,65.2500024890901,8|0,0:0|0:0,0:0:0:0:
336,348,43213,1,0,0:0:0:0:
400,57,43395,1,0,0:0:0:0:
455,222,43577,5,0,0:0:0:0:
480,123,43759,1,0,0:0:0:0:
62,121,43941,5,0,0:0:0:0:
87,220,44123,1,0,0:0:0:0:
255,141,44304,5,0,0:0:0:0:
255,141,44668,6,0,L|254:292,1,130.50000497818
392,106,45032,2,0,P|387:28|291:27,1,130.50000497818
120,278,45395,2,0,P|125:356|221:357,1,130.50000497818
392,192,45759,1,0,0:0:0:0:
120,192,45941,2,0,B|50:192,2,43.5000016593934
392,192,46122,1,0,0:0:0:0:
255,62,46304,5,0,0:0:0:0:
256,302,46486,2,0,L|257:368,2,65.2500024890901
344,284,46850,2,0,P|384:291|414:284,1,65.2500024890901
396,109,47032,2,0,P|356:102|326:109,1,65.2500024890901
212,202,47213,2,0,B|258:182|296:205|296:205|317:194|317:194|352:212|403:201,1,195.75000746727
483,223,47577,6,0,P|497:293|479:364,1,130.50000497818
212,202,47941,2,0,P|200:138|215:75,1,130.50000497818
288,32,48304,2,0,L|438:27,1,130.50000497818
400,352,48668,2,0,L|269:356,1,130.50000497818
29,217,49032,5,0,0:0:0:0:
77,361,49213,1,0,0:0:0:0:
213,285,49395,1,0,0:0:0:0:
156,139,49577,1,0,0:0:0:0:
256,74,49759,2,0,P|322:97|470:68,1,195.75000746727
444,81,50122,6,0,P|340:150|251:60,1,261
104,38,50486,5,0,0:0:0:0:
256,74,50668,1,0,0:0:0:0:
408,38,50850,5,0,0:0:0:0:
188,267,51032,1,0,0:0:0:0:
153,128,51213,5,0,0:0:0:0:
366,128,51395,1,0,0:0:0:0:
318,270,51577,1,0,0:0:0:0:
256,74,51759,2,0,L|257:31,2,43.5000016593934
165,349,51941,5,0,0:0:0:0:
345,349,52122,1,0,0:0:0:0:
252,186,52304,1,0,0:0:0:0:
252,279,52486,1,0,0:0:0:0:
375,154,52668,6,0,L|449:141,1,65.2500024890901
397,236,52850,2,0,L|466:225,1,65.2500024890901
512,99,53032,2,0,B|511:40|475:22|475:22|432:64|365:69,1,195.75000746727
96,78,53395,5,0,0:0:0:0:
251,72,53577,1,0,0:0:0:0:
257,228,53759,1,0,0:0:0:0:
100,233,53941,1,0,0:0:0:0:
172,44,54122,5,0,0:0:0:0:
285,149,54304,1,0,0:0:0:0:
179,263,54486,1,0,0:0:0:0:
65,156,54668,1,0,0:0:0:0:
176,150,54850,5,0,0:0:0:0:
256,192,56304,5,4,0:0:0:0:
116,362,62122,6,0,P|51:370|11:346,1,87,0|2,0:0|0:0,0:0:0:0:
161,225,62486,1,8,0:0:0:0:
202,304,62668,2,0,L|267:297,1,43.5,8|0,0:0|0:0,0:0:0:0:
405,235,62850,1,6,0:0:0:0:
335,325,63032,1,8,0:0:0:0:
384,120,63213,1,0,0:0:0:0:
384,120,63304,1,0,0:0:0:0:
384,120,63395,1,10,0:0:0:0:
320,188,63577,6,0,P|276:220|228:220,1,87,0|2,0:0|0:0,0:0:0:0:
110,18,63941,1,8,0:0:0:0:
177,94,64122,2,0,P|186:129|183:146,1,43.5,0|6,0:0|0:0,0:0:0:0:
114,178,64304,2,0,L|27:175,1,87,0|8,0:0|0:0,0:0:0:0:
32,340,64668,1,8,0:0:0:0:
32,340,64759,1,0,0:0:0:0:
32,340,64850,1,10,0:0:0:0:
163,252,65032,6,0,P|173:315|132:380,1,130.5,8|0,0:0|0:0,0:0:0:0:
163,252,65395,1,10,0:0:0:0:
294,273,65668,2,0,L|354:265,2,43.5,8|0|0,0:0|0:0|0:0,0:0:0:0:
250,360,65941,1,10,0:0:0:0:
395,208,66122,1,8,0:0:0:0:
254,80,66304,1,10,0:0:0:0:
157,154,66486,6,0,P|110:162|44:151,1,87,8|0,0:0|0:0,0:0:0:0:
179,13,66850,1,10,0:0:0:0:
106,76,67032,2,0,L|29:74,3,43.5,0|8|0|8,0:0|0:0|0:0|0:0,0:0:0:0:
212,219,67395,2,0,L|255:215,1,43.5,10|0,0:0|0:0,0:0:0:0:
92,334,67577,2,0,L|44:337,3,43.5,0|0|8|0,0:0|0:0|0:0|0:0,0:0:0:0:
255,358,67941,2,0,B|292:371|318:358|318:358|348:365|348:365|379:360|379:360|429:399|518:383|537:324|526:237|518:197|414:178|370:201|365:262,1,522
305,90,69395,5,0,0:0:0:0:
305,90,69486,1,0,0:0:0:0:
305,90,69577,1,0,0:0:0:0:
305,90,69668,1,0,0:0:0:0:
305,90,69759,1,0,0:0:0:0:
305,90,69850,1,0,0:0:0:0:
305,90,69941,1,0,0:0:0:0:
305,90,70032,1,0,0:0:0:0:
305,90,70122,5,0,0:0:0:0:
305,90,70213,1,0,0:0:0:0:
305,90,70304,1,0,0:0:0:0:
305,90,70395,1,0,0:0:0:0:
305,90,70486,1,0,0:0:0:0:
305,90,70577,1,0,0:0:0:0:
305,90,70668,1,0,0:0:0:0:
305,90,70759,1,0,0:0:0:0:
316,103,70850,5,0,0:0:0:0:
321,119,70941,1,0,0:0:0:0:
321,136,71032,1,0,0:0:0:0:
316,152,71122,1,0,0:0:0:0:
308,167,71213,1,0,0:0:0:0:
295,178,71304,1,0,0:0:0:0:
272,191,71395,1,0,0:0:0:0:
245,190,71486,1,0,0:0:0:0:
212,178,71577,5,0,0:0:0:0:
215,152,71668,1,0,0:0:0:0:
207,127,71759,1,0,0:0:0:0:
188,108,71850,1,0,0:0:0:0:
163,100,71941,1,0,0:0:0:0:
137,105,72032,1,0,0:0:0:0:
117,122,72122,1,0,0:0:0:0:
105,145,72213,1,0,0:0:0:0:
102,184,72304,5,0,0:0:0:0:
140,179,72395,1,0,0:0:0:0:
175,195,72486,1,0,0:0:0:0:
204,220,72577,1,0,0:0:0:0:
219,255,72668,1,0,0:0:0:0:
221,294,72759,1,0,0:0:0:0:
219,333,72850,1,0,0:0:0:0:
193,367,72941,1,0,0:0:0:0:
193,367,73032,2,0,B|138:306|93:342|54:365|5:301,1,174
76,25,73759,5,2,0:3:0:0:
23,188,73941,1,0,0:0:0:0:
192,96,74122,1,0,0:0:0:0:
160,92,74213,1,0,0:0:0:0:
128,96,74304,1,2,0:3:0:0:
436,25,74486,5,0,0:0:0:0:
489,188,74668,1,2,0:3:0:0:
320,96,74850,1,2,0:3:0:0:
352,92,74941,1,0,0:0:0:0:
384,96,75032,1,2,0:3:0:0:
138,207,75213,5,2,0:3:0:0:
337,250,75395,1,0,0:0:0:0:
337,250,75486,1,0,0:0:0:0:
337,250,75577,2,0,L|401:247,1,52.1999984069825
167,288,75759,1,2,0:3:0:0:
167,288,75850,1,0,0:0:0:0:
167,288,75941,6,0,L|109:284,1,52.1999984069825
304,329,76122,1,0,0:0:0:0:
304,329,76213,1,0,0:0:0:0:
304,329,76304,1,2,0:3:0:0:
198,376,76486,1,0,0:0:0:0:
198,376,76577,1,0,0:0:0:0:
198,376,76668,5,2,0:3:0:0:
256,189,76850,1,0,0:0:0:0:
400,358,77032,1,0,0:0:0:0:
449,357,77122,1,0,0:0:0:0:
499,356,77213,1,2,0:3:0:0:
219,19,77395,5,0,0:0:0:0:
256,189,77577,1,2,0:3:0:0:
403,52,77759,1,2,0:3:0:0:
453,48,77849,1,0,0:0:0:0:
502,45,77940,1,0,0:0:0:0:
256,189,78122,5,2,0:3:0:0:
108,144,78304,1,0,0:0:0:0:
108,144,78395,1,0,0:0:0:0:
108,144,78486,2,0,L|116:85,1,52.1999984069825,2|0,0:3|0:0,0:0:0:0:
368,151,78668,1,2,0:3:0:0:
368,151,78759,1,0,0:0:0:0:
368,151,78850,2,0,L|360:224,1,52.1999984069825
145,277,79032,5,2,0:3:0:0:
145,277,79122,1,0,0:0:0:0:
145,277,79213,2,0,L|155:342,3,52.1999984069825,2|0|0|0,0:3|0:0|0:0|0:0,0:0:0:0:
108,144,79577,6,0,L|168:156,1,52.1999984069825,4|0,3:0|0:0,0:0:0:0:
231,223,79759,2,0,L|294:205,1,52.1999984069825,4|0,3:0|0:0,0:0:0:0:
368,151,79941,2,4,L|448:160,3,52.1999984069825,4|4|4|4,0:3|0:3|0:3|0:3,0:3:0:0:
319,298,80304,2,0,L|332:356,3,52.1999984069825
479,313,80668,2,0,L|500:246,3,52.1999984069825
510,158,81032,5,4,0:3:0:0:
509,116,81122,1,0,0:0:0:0:
493,77,81213,1,4,0:3:0:0:
467,43,81304,1,0,0:0:0:0:
429,24,81395,5,4,0:3:0:0:
387,21,81486,1,0,0:0:0:0:
340,23,81577,1,0,0:0:0:0:
313,40,81668,1,0,0:0:0:0:
290,61,81759,2,0,L|252:117,1,52.1999984069825
151,188,81941,5,0,0:0:0:0:
198,189,82032,1,0,0:0:0:0:
244,190,82122,1,0,0:0:0:0:
291,190,82213,1,0,0:0:0:0:
338,191,82304,2,0,L|397:191,1,52.1999984069825
211,322,82486,6,0,L|234:402,1,52.1999984069825,4|0,0:3|0:0,0:0:0:0:
76,254,82668,2,0,L|-17:237,1,52.1999984069825,4|0,0:3|0:0,0:0:0:0:
157,52,82850,2,0,L|153:-28,1,52.1999984069825,4|0,0:3|0:0,0:0:0:0:
236,276,83032,2,0,L|199:343,1,52.1999984069825
51,127,83213,2,0,L|-10:120,1,52.1999984069825,4|0,0:3|0:0,0:0:0:0:
295,32,83395,2,0,L|395:23,1,52.1999984069825,4|0,0:3|0:0,0:0:0:0:
389,152,83577,6,0,L|431:150,1,26.0999992034912,4|0,0:0|0:0,0:0:0:0:
410,189,83668,2,0,L|449:196,1,26.0999992034912
427,242,83759,2,0,L|465:254,1,26.0999992034912
427,293,83850,2,0,L|459:311,1,26.0999992034912
388,356,83941,1,4,0:0:0:0:
255,19,85032,1,8,3:0:0:0:
139,225,85395,6,0,L|160:364,1,130.50000497818
254,76,85759,2,0,L|254:14,1,52.1999984069825,8|0,1:0|1:0,0:0:0:0:
254,76,85941,1,0,1:0:0:0:
367,225,86122,6,0,L|346:364,1,130.50000497818
183,105,86486,2,0,P|254:155|324:102,1,174,8|0,0:1|0:0,0:0:0:0:
139,225,86850,6,0,L|160:364,1,130.50000497818
136,384,87213,6,0,P|119:334|119:282,1,104.399996813965,8|0,0:1|0:0,0:0:0:0:
152,37,87577,6,0,P|170:100|157:180,1,130.50000497818
138,226,87941,6,0,L|151:46,1,174,8|0,0:1|0:0,0:0:0:0:
361,52,88304,6,0,L|374:226,1,174
367,286,88668,2,0,P|354:181|379:116,1,174,8|0,0:1|0:0,0:0:0:0:
406,53,89032,1,8,0:0:0:0:
505,193,89213,1,8,0:2:0:0:
367,286,89395,1,8,0:1:0:0:
410,179,89577,1,0,0:0:0:0:
237,339,89759,5,8,0:0:0:0:
256,99,89941,1,8,0:0:0:0:
91,262,90122,1,8,0:1:0:0:
73,28,90304,1,8,0:0:0:0:
0,252,90486,2,0,B|32:264|64:248|64:248|92:264|92:264|124:248|168:260,1,174
228,336,90850,1,4,1:0:0:0:
400,32,91213,5,2,0:1:0:0:
462,297,91395,1,2,0:1:0:0:
313,106,91577,1,10,0:1:0:0:
265,115,91668,1,0,0:0:0:0:
233,150,91759,2,0,L|180:154,1,32.625001244545,2|0,0:1|0:0,0:0:0:0:
313,196,91941,2,0,P|325:244|305:292,1,87
128,103,92122,2,0,P|116:55|136:7,1,87,2|0,0:1|0:0,0:0:0:0:
240,238,92304,2,0,L|153:244,1,87
41,109,92486,2,0,L|153:101,1,87,10|0,0:1|0:0,0:0:0:0:
208,61,92668,5,2,0:1:0:0:
73,251,92850,1,0,0:0:0:0:
81,173,93032,1,10,0:1:0:0:
120,185,93122,1,0,0:0:0:0:
152,219,93213,2,0,L|206:214,1,32.625001244545,2|0,0:1|0:0,0:0:0:0:
153,295,93395,1,0,0:0:0:0:
153,295,93486,2,0,B|127:335|127:335|67:337,2,87,0|2|0,0:0|0:1|0:0,0:0:0:0:
255,374,93759,2,0,B|228:365|228:365|300:228,1,174,10|0,0:1|0:0,0:0:0:0:
399,153,94122,5,2,0:1:0:0:
255,374,94304,1,2,0:1:0:0:
184,84,94486,1,10,0:1:0:0:
183,138,94577,1,0,0:0:0:0:
145,171,94668,2,0,L|100:179,1,32.625001244545,2|0,0:1|0:0,0:0:0:0:
42,130,94850,2,0,P|30:90|45:30,1,87,2|0,0:1|0:0,0:0:0:0:
233,207,95032,2,0,P|207:240|150:263,1,87
166,4,95213,2,0,P|222:12|261:47,1,87,10|0,0:1|0:0,0:0:0:0:
281,279,95395,2,0,P|252:246|233:207,1,87
414,75,95577,5,10,0:0:0:0:
414,75,95668,1,10,0:0:0:0:
352,362,95850,1,2,0:0:0:0:
352,362,95941,1,10,0:0:0:0:
266,118,96122,1,2,0:0:0:0:
446,202,96304,5,2,0:0:0:0:
376,226,96395,1,0,0:0:0:0:
307,197,96486,1,2,0:0:0:0:
241,228,96577,1,0,0:0:0:0:
228,296,96668,1,10,0:0:0:0:
275,353,96849,1,0,2:0:0:0:
347,33,97032,5,2,0:1:0:0:
349,345,97213,1,2,0:1:0:0:
307,197,97395,1,10,0:1:0:0:
353,195,97486,1,0,0:0:0:0:
392,217,97577,2,0,L|443:208,1,32.625001244545,2|0,0:1|0:0,0:0:0:0:
347,33,97759,2,0,P|314:80|314:134,1,87
421,384,97941,2,0,P|430:334|406:270,1,87,2|0,0:1|0:0,0:0:0:0:
177,96,98122,2,0,P|183:140|204:179,1,87
254,349,98304,2,0,P|291:307|301:253,1,87,10|0,0:1|0:0,0:0:0:0:
72,34,98486,5,10,0:1:0:0:
92,329,98668,1,0,0:0:0:0:
168,169,98850,1,10,0:1:0:0:
113,186,98941,1,0,0:0:0:0:
90,236,99032,2,0,L|134:257,1,32.625001244545,2|0,0:1|0:0,0:0:0:0:
169,382,99213,1,0,0:0:0:0:
169,382,99304,2,0,P|196:337|182:270,2,87,0|2|0,0:0|0:1|0:0,0:0:0:0:
284,246,99577,2,0,P|332:316|346:194,1,261,10|0,0:1|0:0,0:0:0:0:
265,22,99941,5,0,0:0:0:0:
288,58,100032,1,0,0:0:0:0:
294,100,100122,1,0,0:0:0:0:
287,143,100213,1,0,0:0:0:0:
268,182,100304,2,0,L|286:254,1,65.2500024890901,10|0,0:1|0:0,0:0:0:0:
134,48,100486,2,0,L|66:31,1,65.2500024890901
54,167,100668,5,0,0:0:0:0:
106,141,100759,1,0,0:0:0:0:
164,135,100850,1,0,0:0:0:0:
221,148,100941,1,0,0:0:0:0:
268,182,101032,2,0,L|286:254,1,65.2500024890901,10|0,0:1|0:0,0:0:0:0:
147,275,101213,2,0,L|64:264,1,65.2500024890901,2|0,0:1|0:0,0:0:0:0:
407,309,101395,5,0,0:0:0:0:
359,27,101577,1,0,0:0:0:0:
449,99,101759,2,0,P|496:108|532:94,2,65.2500024890901,8|0|0,0:0|0:0|0:0,0:0:0:0:
253,140,102122,6,2,L|82:106,1,174,0|0,0:0|0:0,0:2:0:0:
22,132,102395,2,2,L|148:98,1,130.50000497818,0|0,0:0|0:0,0:2:0:0:
162,170,102668,2,2,L|99:188,1,65.2500024890901,0|0,0:0|0:0,0:2:0:0:
24,16,102850,5,2,0:1:0:0:
108,334,103032,1,2,0:1:0:0:
328,204,103213,1,10,0:0:0:0:
263,255,103304,1,0,0:0:0:0:
293,333,103395,1,2,0:1:0:0:
380,323,103486,1,0,0:0:0:0:
404,242,103577,6,0,P|384:187|422:75,1,174,2|0,0:1|0:0,0:0:0:0:
232,28,103941,1,10,0:0:0:0:
288,24,104032,1,0,0:0:0:0:
338,22,104122,1,2,0:1:0:0:
356,21,104213,1,0,0:0:0:0:
368,27,104304,5,2,0:1:0:0:
338,100,104395,1,0,0:0:0:0:
390,158,104486,1,2,0:1:0:0:
468,127,104577,1,0,0:0:0:0:
475,6,104668,6,0,B|436:29|432:56|432:56|457:49|451:30,1,87,10|0,0:0|0:0,0:0:0:0:
426,253,104850,2,0,B|470:242|482:217|482:217|456:217|455:236,1,87
269,138,105032,1,2,0:1:0:0:
269,138,105122,2,0,B|276:182|299:196|299:196|302:171|283:168,2,87
380,324,105395,1,10,0:0:0:0:
330,265,105486,1,0,0:0:0:0:
256,260,105577,1,2,0:1:0:0:
186,289,105668,1,0,0:0:0:0:
168,309,105759,6,0,P|169:347|184:384,1,78.2999976104737,2|0,0:1|0:0,0:0:0:0:
72,300,105941,2,0,P|85:263|109:232,1,78.2999976104737,2|0,0:1|0:0,0:0:0:0:
132,52,106122,1,10,0:0:0:0:
200,56,106213,1,0,0:0:0:0:
268,60,106304,1,0,0:0:0:0:
284,60,106395,1,0,0:0:0:0:
460,88,106486,6,0,P|447:125|423:156,1,78.2999976104737,2|0,0:1|0:0,0:0:0:0:
364,79,106668,2,0,P|363:41|348:4,1,78.2999976104737,2|0,0:1|0:0,0:0:0:0:
256,96,106850,5,10,0:0:0:0:
288,176,106941,1,0,0:0:0:0:
256,252,107032,1,0,0:0:0:0:
256,268,107122,1,0,0:0:0:0:
140,128,107213,6,0,L|100:128,1,39.1499988052369,2|0,0:1|0:0,0:0:0:0:
60,196,107395,2,0,L|20:196,1,39.1499988052369,4|0,0:3|0:0,0:0:0:0:
452,196,107577,2,0,L|492:196,1,39.1499988052369,8|0,0:1|0:0,0:0:0:0:
352,124,107759,2,0,L|408:124,1,39.1499988052369,8|0,0:3|0:0,0:0:0:0:
256,280,107941,2,0,L|256:324,1,39.1499988052369,2|0,0:1|0:0,0:0:0:0:
60,196,108122,2,0,L|76:244,1,39.1499988052369,8|0,0:3|0:0,0:0:0:0:
452,196,108304,2,0,L|432:248,1,39.1499988052369,8|0,0:1|0:0,0:0:0:0:
256,96,108486,2,0,L|256:148,1,39.1499988052369,2|0,0:0|0:0,0:0:0:0:
153,306,108668,5,2,0:1:0:0:
256,73,108850,1,2,0:1:0:0:
359,306,109032,1,10,0:0:0:0:
388,314,109122,1,0,0:0:0:0:
419,317,109213,1,2,0:1:0:0:
449,313,109304,1,0,0:0:0:0:
481,298,109395,6,0,P|465:228|493:137,1,156.599995220947,2|0,0:1|0:0,0:0:0:0:
278,277,109759,2,0,P|242:302|196:301,1,78.2999976104737,10|0,0:0|0:0,0:0:0:0:
119,140,109941,2,0,P|155:115|201:116,1,78.2999976104737
258,155,110122,1,2,0:1:0:0:
328,206,110213,1,0,0:0:0:0:
393,247,110304,1,0,0:0:0:0:
444,183,110395,1,0,0:0:0:0:
375,139,110486,5,10,0:0:0:0:
328,206,110577,1,0,0:0:0:0:
278,279,110668,1,0,0:0:0:0:
209,226,110759,1,0,0:0:0:0:
258,155,110850,1,2,0:1:0:0:
328,206,110941,1,0,0:0:0:0:
393,247,111032,1,0,0:0:0:0:
465,295,111122,1,0,0:0:0:0:
482,307,111213,6,0,P|500:273|469:180,1,78.2999976104737,10|0,0:0|0:0,0:0:0:0:
507,52,111395,2,0,P|454:87|441:120,1,78.2999976104737,2|0,0:1|0:0,0:0:0:0:
321,357,111577,2,0,P|279:368|236:359,1,78.2999976104737
166,163,111759,2,0,P|196:193|210:235,1,78.2999976104737
124,366,111941,2,0,P|93:335|79:293,1,78.2999976104737,10|0,0:0|0:0,0:0:0:0:
122,78,112122,2,0,P|164:66|206:76,1,78.2999976104737,2|0,0:1|0:0,0:0:0:0:
429,229,112304,6,0,P|387:240|344:230,1,78.2999976104737
288,75,112486,2,0,P|280:34|286:-10,1,78.2999976104737
512,94,112668,2,0,P|498:133|471:168,1,78.2999976104737,10|0,0:0|0:0,0:0:0:0:
262,281,112850,2,0,P|230:249|218:207,1,78.2999976104737,2|0,0:1|0:0,0:0:0:0:
288,75,113032,5,0,0:0:0:0:
512,94,113213,1,0,0:0:0:0:
219,218,113395,5,0,0:0:0:0:
16,245,113576,1,0,0:0:0:0:
150,293,113759,2,0,L|126:367,2,78.2999976104737
256,53,114122,5,2,0:0:0:0:
410,345,114486,1,0,0:0:0:0:
256,192,114577,12,0,117395,0:0:0:0:
