osu file format v14

[General]
AudioFilename: audio.mp3
AudioLeadIn: 0
PreviewTime: 61275
Countdown: 0
SampleSet: Normal
StackLeniency: 0.7
Mode: 1
LetterboxInBreaks: 0
WidescreenStoryboard: 0

[Editor]
Bookmarks: 35334
DistanceSpacing: 1
BeatDivisor: 2
GridSize: 8
TimelineZoom: 1.3

[Metadata]
Title:NINJA IS DEAD IIDX ver.
TitleUnicode:NINJA IS DEAD IIDX ver.
Artist:P*Light
ArtistUnicode:P*Light
Creator:Tofu1222
Version:Skylish's Muzukashii
Source:beatmania IIDX 23 copula
Tags:Exit Tunes Dance Party Hardcore EDP presents ravemania SHINOBI SPEED HXJ_Crafter Skylish aabc271
BeatmapID:1628029
BeatmapSetID:590032

[Difficulty]
HPDrainRate:6
CircleSize:4
OverallDifficulty:5
ApproachRate:7
SliderMultiplier:1.4
SliderTickRate:1

[Events]
//Background and Video events
0,0,"BG.jpg",0,75
//Break Periods
//Storyboard Layer 0 (Background)
//Storyboard Layer 1 (Fail)
//Storyboard Layer 2 (Pass)
//Storyboard Layer 3 (Foreground)
//Storyboard Sound Samples

[TimingPoints]
735,270.27027027027,4,1,0,85,1,0
43978,-100,4,1,0,75,0,0
52086,-100,4,1,0,90,0,0
52626,-100,4,1,0,85,0,0
60734,-100,4,1,0,60,0,0
61275,-100,4,1,0,90,0,1
78032,-100,4,1,0,85,0,0
78572,-100,4,1,0,75,0,0
87221,-100,4,1,0,85,0,0
95870,-100,4,1,0,90,0,1
112897,-100,4,1,0,90,0,0

[HitObjects]
254,190,9383,5,0,0:0:0:0:
320,192,9924,1,0,0:0:0:0:
320,192,10464,1,0,0:0:0:0:
320,192,10734,1,8,0:0:0:0:
320,192,11005,1,0,0:0:0:0:
320,192,11545,1,0,0:0:0:0:
320,192,12086,1,0,0:0:0:0:
320,192,12356,1,8,0:0:0:0:
320,192,12626,1,0,0:0:0:0:
320,192,13167,1,0,0:0:0:0:
320,192,13437,1,8,0:0:0:0:
320,192,13707,5,0,0:0:0:0:
218,67,13843,1,0,0:0:0:0:
320,192,13978,1,0,0:0:0:0:
320,192,14248,1,8,0:0:0:0:
190,80,14518,1,8,0:0:0:0:
320,192,14789,1,0,0:0:0:0:
200,74,14924,1,0,0:0:0:0:
320,192,15059,1,0,0:0:0:0:
320,192,15329,1,8,0:0:0:0:
320,192,15599,1,8,0:0:0:0:
256,192,15870,12,0,16951,0:0:0:0:
224,128,17491,5,8,0:0:0:0:
320,192,18032,5,4,0:0:0:0:
320,192,18302,1,0,0:0:0:0:
320,192,18572,1,8,0:0:0:0:
320,192,19113,1,8,0:0:0:0:
320,192,19383,1,0,0:0:0:0:
320,192,19653,1,8,0:0:0:0:
320,192,20194,1,0,0:0:0:0:
320,192,20464,1,0,0:0:0:0:
320,192,20734,1,8,0:0:0:0:
224,64,21005,1,0,0:0:0:0:
320,192,21275,1,8,0:0:0:0:
320,192,21545,1,0,0:0:0:0:
320,192,21816,1,0,0:0:0:0:
320,192,21951,1,0,0:0:0:0:
320,192,22356,5,4,0:0:0:0:
320,192,22626,1,8,0:0:0:0:
320,192,22897,1,0,0:0:0:0:
320,192,23167,1,8,0:0:0:0:
320,192,23437,1,0,0:0:0:0:
320,192,23572,1,0,0:0:0:0:
320,192,23707,1,8,0:0:0:0:
320,192,23978,1,8,0:0:0:0:
320,192,24113,1,0,0:0:0:0:
192,64,24248,1,8,0:0:0:0:
320,192,24518,1,0,0:0:0:0:
320,192,24789,1,8,0:0:0:0:
320,192,25059,1,0,0:0:0:0:
192,64,25194,1,0,0:0:0:0:
320,192,25329,1,8,0:0:0:0:
160,64,25464,1,0,0:0:0:0:
320,192,25599,1,0,0:0:0:0:
192,64,25870,1,8,0:0:0:0:
192,64,26005,1,8,0:0:0:0:
320,192,26140,1,0,0:0:0:0:
320,192,26680,5,4,0:0:0:0:
320,192,26951,1,8,0:0:0:0:
224,128,27221,1,8,0:0:0:0:
320,192,27356,1,0,0:0:0:0:
320,192,27491,1,8,0:0:0:0:
320,192,27762,1,0,0:0:0:0:
320,192,27897,1,8,0:0:0:0:
320,192,28032,1,8,0:0:0:0:
320,192,28302,1,0,0:0:0:0:
320,192,28437,1,0,0:0:0:0:
320,192,28572,1,8,0:0:0:0:
320,192,28843,5,0,0:0:0:0:
320,192,29113,1,8,0:0:0:0:
320,192,29383,1,0,0:0:0:0:
320,192,29518,1,0,0:0:0:0:
320,192,29653,1,8,0:0:0:0:
320,192,29924,1,8,0:0:0:0:
192,64,30059,1,0,0:0:0:0:
320,192,30194,1,8,0:0:0:0:
320,192,30464,1,8,0:0:0:0:
320,192,30599,1,8,0:0:0:0:
320,192,31005,5,4,0:0:0:0:
320,192,31275,1,8,0:0:0:0:
320,192,31545,1,0,0:0:0:0:
320,192,31680,1,0,0:0:0:0:
320,192,31816,1,8,0:0:0:0:
320,192,32086,1,0,0:0:0:0:
192,96,32221,1,8,0:0:0:0:
320,192,32356,1,8,0:0:0:0:
320,192,32626,1,0,0:0:0:0:
320,192,32762,1,0,0:0:0:0:
320,192,32897,1,8,0:0:0:0:
320,192,33167,1,8,0:0:0:0:
320,192,33302,1,8,0:0:0:0:
320,192,33437,1,0,0:0:0:0:
320,192,33572,1,0,0:0:0:0:
320,192,33707,1,8,0:0:0:0:
320,192,33978,1,0,0:0:0:0:
320,192,34248,1,8,0:0:0:0:
320,192,34789,1,0,0:0:0:0:
256,160,35059,1,12,0:0:0:0:
320,192,35329,5,4,0:0:0:0:
320,160,35464,1,8,0:0:0:0:
224,96,35734,1,8,0:0:0:0:
320,160,35870,1,0,0:0:0:0:
320,160,36005,1,8,0:0:0:0:
192,64,36140,1,8,0:0:0:0:
320,160,36275,1,0,0:0:0:0:
320,160,36545,1,8,0:0:0:0:
320,160,36680,1,0,0:0:0:0:
320,160,36816,1,8,0:0:0:0:
320,160,37086,1,8,0:0:0:0:
320,160,37221,1,8,0:0:0:0:
320,160,37356,1,0,0:0:0:0:
320,192,37491,5,0,0:0:0:0:
320,160,37626,1,8,0:0:0:0:
224,96,37896,1,8,0:0:0:0:
320,160,38032,1,0,0:0:0:0:
320,160,38167,1,8,0:0:0:0:
192,64,38302,1,8,0:0:0:0:
320,160,38437,1,0,0:0:0:0:
320,160,38707,1,8,0:0:0:0:
320,160,38842,1,0,0:0:0:0:
320,160,38978,1,8,0:0:0:0:
320,160,39248,1,8,0:0:0:0:
320,160,39383,1,8,0:0:0:0:
320,160,39518,1,0,0:0:0:0:
320,160,39924,5,12,0:0:0:0:
320,160,40194,1,0,0:0:0:0:
320,160,40329,1,8,0:0:0:0:
320,160,40464,1,8,0:0:0:0:
320,160,40599,1,0,0:0:0:0:
256,128,40870,1,8,0:0:0:0:
320,192,41005,1,0,0:0:0:0:
192,64,41140,1,8,0:0:0:0:
320,192,41410,1,8,0:0:0:0:
320,192,41545,1,8,0:0:0:0:
224,96,41680,1,0,0:0:0:0:
192,96,41951,1,0,0:0:0:0:
320,192,42086,1,8,0:0:0:0:
192,96,42221,1,0,0:0:0:0:
320,192,42356,1,8,0:0:0:0:
320,192,42491,1,8,0:0:0:0:
320,192,42626,1,8,0:0:0:0:
320,192,42762,1,8,0:0:0:0:
320,192,42897,1,0,0:0:0:0:
320,192,43707,1,8,0:0:0:0:
320,192,43978,5,4,0:0:0:0:
320,192,44518,1,8,0:0:0:0:
320,192,45059,1,0,0:0:0:0:
176,164,45329,1,0,0:0:0:0:
320,192,45599,1,8,0:0:0:0:
224,128,46140,1,0,0:0:0:0:
224,128,46410,1,0,0:0:0:0:
320,192,46680,1,8,0:0:0:0:
320,192,46951,1,8,0:0:0:0:
320,192,47221,1,0,0:0:0:0:
320,192,47762,1,8,0:0:0:0:
256,160,48032,1,8,0:0:0:0:
320,192,48302,5,0,0:0:0:0:
320,192,48843,1,8,0:0:0:0:
320,192,49383,1,0,0:0:0:0:
187,162,49653,1,0,0:0:0:0:
320,192,49924,1,8,0:0:0:0:
320,192,50464,1,0,0:0:0:0:
224,128,50599,1,0,0:0:0:0:
224,128,50734,1,8,0:0:0:0:
320,192,51005,1,8,0:0:0:0:
320,192,51275,1,0,0:0:0:0:
320,192,51410,1,0,0:0:0:0:
320,192,51545,1,8,0:0:0:0:
320,192,51816,1,0,0:0:0:0:
320,192,52086,1,8,0:0:0:0:
320,192,52626,5,4,0:0:0:0:
320,192,52897,1,0,0:0:0:0:
320,192,53167,1,8,0:0:0:0:
320,192,53437,1,0,0:0:0:0:
224,64,53572,1,8,0:0:0:0:
320,192,53707,5,0,0:0:0:0:
320,192,53978,1,0,0:0:0:0:
320,192,54248,1,8,0:0:0:0:
320,192,54518,1,0,0:0:0:0:
192,64,54653,1,8,0:0:0:0:
192,64,54789,1,0,0:0:0:0:
192,64,55059,1,0,0:0:0:0:
192,64,55329,1,8,0:0:0:0:
192,64,55599,1,8,0:0:0:0:
192,64,55734,1,0,0:0:0:0:
192,64,55870,1,8,0:0:0:0:
192,64,56140,1,0,0:0:0:0:
192,64,56410,1,8,0:0:0:0:
192,64,56680,1,8,0:0:0:0:
192,64,56815,1,0,0:0:0:0:
192,64,56951,5,8,0:0:0:0:
192,64,57086,1,8,0:0:0:0:
192,64,57221,1,0,0:0:0:0:
192,64,57356,1,0,0:0:0:0:
192,64,57491,1,8,0:0:0:0:
192,64,57762,1,0,0:0:0:0:
192,64,58032,1,8,0:0:0:0:
192,64,58167,1,8,0:0:0:0:
192,64,58302,1,0,0:0:0:0:
192,64,58437,1,0,0:0:0:0:
192,64,58572,1,8,0:0:0:0:
192,64,58843,1,0,0:0:0:0:
256,192,59113,12,0,60194,0:0:0:0:
320,192,60734,5,0,0:0:0:0:
320,192,61275,5,12,0:0:0:0:
224,128,61545,1,0,0:0:0:0:
192,352,61816,1,8,0:0:0:0:
192,352,62356,1,0,0:0:0:0:
192,128,62626,1,8,0:0:0:0:
192,64,62762,1,8,0:0:0:0:
192,352,62897,1,8,0:0:0:0:
192,352,63167,1,8,0:0:0:0:
192,352,63437,1,0,0:0:0:0:
224,128,63843,1,0,0:0:0:0:
192,352,63978,1,8,0:0:0:0:
192,352,64248,1,0,0:0:0:0:
192,352,64518,1,8,0:0:0:0:
192,352,64653,1,0,0:0:0:0:
192,352,65059,1,8,0:0:0:0:
192,352,65329,1,0,0:0:0:0:
320,192,65599,5,8,0:0:0:0:
224,128,65869,1,0,0:0:0:0:
192,352,66140,1,8,0:0:0:0:
192,352,66680,1,0,0:0:0:0:
192,128,66950,1,8,0:0:0:0:
192,64,67086,1,8,0:0:0:0:
192,352,67221,1,8,0:0:0:0:
192,352,67491,1,8,0:0:0:0:
192,352,67761,1,0,0:0:0:0:
192,128,68167,1,0,0:0:0:0:
192,352,68302,1,8,0:0:0:0:
192,352,68572,1,0,0:0:0:0:
192,352,68842,1,8,0:0:0:0:
192,352,68977,1,8,0:0:0:0:
192,352,69383,1,8,0:0:0:0:
192,352,69653,1,0,0:0:0:0:
192,352,69924,5,8,0:0:0:0:
256,160,70059,1,0,0:0:0:0:
256,128,70194,1,8,0:0:0:0:
224,96,70464,1,0,0:0:0:0:
224,96,70599,1,0,0:0:0:0:
224,96,70734,1,8,0:0:0:0:
224,96,70870,1,8,0:0:0:0:
224,96,71005,1,0,0:0:0:0:
224,96,71275,1,8,0:0:0:0:
224,96,71343,1,8,0:0:0:0:
224,96,71410,1,8,0:0:0:0:
256,96,71545,1,8,0:0:0:0:
256,96,71680,1,0,0:0:0:0:
256,96,71816,1,8,0:0:0:0:
256,96,71951,1,0,0:0:0:0:
256,96,72086,1,0,0:0:0:0:
224,96,72356,1,8,0:0:0:0:
192,96,72491,1,0,0:0:0:0:
192,96,72626,1,8,0:0:0:0:
192,96,72762,1,8,0:0:0:0:
192,96,72897,1,0,0:0:0:0:
192,96,73032,1,0,0:0:0:0:
192,96,73167,1,8,0:0:0:0:
192,96,73302,1,8,0:0:0:0:
192,96,73707,1,8,0:0:0:0:
224,96,73843,1,8,0:0:0:0:
224,96,73978,1,0,0:0:0:0:
224,96,74113,1,0,0:0:0:0:
192,352,74248,5,8,0:0:0:0:
256,128,74519,1,12,0:0:0:0:
224,96,74789,1,0,0:0:0:0:
224,96,74924,1,0,0:0:0:0:
224,96,75059,1,8,0:0:0:0:
224,96,75195,1,8,0:0:0:0:
224,96,75330,1,0,0:0:0:0:
224,96,75464,1,0,0:0:0:0:
224,96,75599,1,8,0:0:0:0:
192,64,75667,1,8,0:0:0:0:
192,64,75734,1,8,0:0:0:0:
256,96,75870,1,0,0:0:0:0:
256,96,76141,1,8,0:0:0:0:
192,32,76275,1,8,0:0:0:0:
256,96,76411,1,0,0:0:0:0:
192,32,76478,1,0,0:0:0:0:
192,64,76545,1,0,0:0:0:0:
224,96,76681,1,8,0:0:0:0:
192,96,76816,1,0,0:0:0:0:
192,96,76951,1,8,0:0:0:0:
224,64,77018,1,8,0:0:0:0:
192,96,77087,1,8,0:0:0:0:
192,96,77222,5,8,0:0:0:0:
192,96,77356,1,8,0:0:0:0:
192,64,77491,1,0,0:0:0:0:
192,96,78032,1,0,0:0:0:0:
192,352,78572,5,8,0:0:0:0:
320,64,78843,1,0,0:0:0:0:
320,64,79113,1,8,0:0:0:0:
320,64,79248,1,0,0:0:0:0:
320,64,79518,1,8,0:0:0:0:
320,64,79789,1,0,0:0:0:0:
320,64,79924,1,8,0:0:0:0:
320,64,80059,1,8,0:0:0:0:
320,64,80194,1,0,0:0:0:0:
320,64,80329,1,8,0:0:0:0:
320,64,80464,1,0,0:0:0:0:
256,64,80734,1,8,0:0:0:0:
320,64,81005,1,8,0:0:0:0:
256,64,81140,1,0,0:0:0:0:
320,64,81275,1,8,0:0:0:0:
320,64,81410,1,0,0:0:0:0:
320,64,81680,1,8,0:0:0:0:
224,32,82086,1,0,0:0:0:0:
224,32,82356,1,8,0:0:0:0:
224,32,82491,1,8,0:0:0:0:
320,64,82626,1,0,0:0:0:0:
192,352,82897,5,8,0:0:0:0:
320,64,83168,1,0,0:0:0:0:
320,64,83438,1,8,0:0:0:0:
320,64,83573,1,0,0:0:0:0:
320,64,83843,1,8,0:0:0:0:
320,64,84114,1,0,0:0:0:0:
320,64,84249,1,8,0:0:0:0:
320,64,84384,1,8,0:0:0:0:
320,64,84518,1,0,0:0:0:0:
320,64,84654,1,8,0:0:0:0:
320,64,84789,1,0,0:0:0:0:
256,64,85059,1,8,0:0:0:0:
256,64,85194,1,0,0:0:0:0:
320,64,85330,1,8,0:0:0:0:
320,64,85600,1,8,0:0:0:0:
192,32,85870,1,0,0:0:0:0:
320,64,86005,1,12,0:0:0:0:
224,32,86681,1,8,0:0:0:0:
192,32,86816,1,8,0:0:0:0:
320,64,86951,1,0,0:0:0:0:
192,352,87221,5,12,0:0:0:0:
224,160,87491,1,0,0:0:0:0:
224,160,87762,1,8,0:0:0:0:
224,160,87897,1,0,0:0:0:0:
416,192,88167,1,0,0:0:0:0:
416,192,88302,1,8,0:0:0:0:
352,192,88437,1,8,0:0:0:0:
384,192,88572,1,0,0:0:0:0:
224,128,88843,1,8,0:0:0:0:
224,128,89113,1,0,0:0:0:0:
224,128,89248,1,8,0:0:0:0:
224,128,89383,1,0,0:0:0:0:
224,128,89653,1,0,0:0:0:0:
224,128,89924,1,8,0:0:0:0:
224,128,90194,1,0,0:0:0:0:
224,128,90329,1,8,0:0:0:0:
192,128,90464,1,0,0:0:0:0:
192,128,90734,1,8,0:0:0:0:
192,128,91005,1,8,0:0:0:0:
192,128,91275,1,0,0:0:0:0:
128,32,91545,5,8,0:0:0:0:
192,32,91680,1,8,0:0:0:0:
192,352,91816,1,0,0:0:0:0:
192,352,92086,1,8,0:0:0:0:
192,352,92356,1,8,0:0:0:0:
224,64,92626,1,8,0:0:0:0:
224,64,92762,1,8,0:0:0:0:
192,352,92897,1,0,0:0:0:0:
224,64,93032,1,0,0:0:0:0:
192,352,93167,1,8,0:0:0:0:
192,352,93437,1,8,0:0:0:0:
192,352,93707,1,0,0:0:0:0:
192,352,93843,1,0,0:0:0:0:
192,352,93978,1,8,0:0:0:0:
186,303,94113,1,8,0:0:0:0:
192,352,94248,1,0,0:0:0:0:
192,352,94383,1,8,0:0:0:0:
192,64,94518,1,0,0:0:0:0:
192,352,94653,1,12,0:0:0:0:
224,96,95599,1,8,0:0:0:0:
192,352,95870,5,4,0:0:0:0:
192,352,96140,1,8,0:0:0:0:
192,352,96410,1,0,0:0:0:0:
192,352,96545,1,8,0:0:0:0:
192,352,96816,1,8,0:0:0:0:
192,32,96883,1,8,0:0:0:0:
192,32,96951,1,8,0:0:0:0:
192,352,97086,1,0,0:0:0:0:
192,352,97221,1,8,0:0:0:0:
192,352,97356,1,8,0:0:0:0:
192,352,97491,1,0,0:0:0:0:
192,352,97626,1,8,0:0:0:0:
192,352,97762,1,8,0:0:0:0:
192,352,98032,1,0,0:0:0:0:
192,352,98302,1,8,0:0:0:0:
192,32,98437,1,0,0:0:0:0:
192,352,98572,1,8,0:0:0:0:
192,352,98707,1,0,0:0:0:0:
224,32,98775,1,0,0:0:0:0:
224,32,98843,1,0,0:0:0:0:
192,352,98978,1,8,0:0:0:0:
192,352,99248,1,0,0:0:0:0:
192,352,99383,1,8,0:0:0:0:
192,352,99653,1,8,0:0:0:0:
192,352,99789,1,0,0:0:0:0:
160,64,99924,1,8,0:0:0:0:
192,352,100059,1,8,0:0:0:0:
192,352,100194,5,0,0:0:0:0:
192,352,100464,1,8,0:0:0:0:
192,352,100734,1,0,0:0:0:0:
192,352,100870,1,8,0:0:0:0:
192,352,101140,1,8,0:0:0:0:
192,32,101207,1,8,0:0:0:0:
192,32,101275,1,8,0:0:0:0:
192,352,101410,1,0,0:0:0:0:
192,352,101545,1,8,0:0:0:0:
192,352,101680,1,8,0:0:0:0:
192,352,101816,1,0,0:0:0:0:
192,352,101951,1,8,0:0:0:0:
192,352,102086,1,8,0:0:0:0:
192,32,102356,1,0,0:0:0:0:
192,32,102626,1,8,0:0:0:0:
192,32,102762,1,0,0:0:0:0:
192,32,102897,1,8,0:0:0:0:
192,32,102964,1,8,0:0:0:0:
192,32,103032,1,8,0:0:0:0:
192,32,103167,1,0,0:0:0:0:
192,32,103302,1,8,0:0:0:0:
224,96,103572,1,0,0:0:0:0:
224,96,103707,1,8,0:0:0:0:
224,64,103843,1,0,0:0:0:0:
224,96,103978,1,8,0:0:0:0:
224,96,104045,1,8,0:0:0:0:
224,96,104113,1,8,0:0:0:0:
224,96,104248,1,0,0:0:0:0:
192,352,104518,5,4,0:0:0:0:
192,352,104788,1,8,0:0:0:0:
192,352,105058,1,8,0:0:0:0:
192,352,105193,1,0,0:0:0:0:
192,352,105464,1,8,0:0:0:0:
192,32,105531,1,8,0:0:0:0:
192,32,105599,1,8,0:0:0:0:
192,352,105734,1,0,0:0:0:0:
192,352,105869,1,8,0:0:0:0:
192,352,106004,1,8,0:0:0:0:
192,352,106139,1,0,0:0:0:0:
192,352,106274,1,8,0:0:0:0:
192,352,106410,1,8,0:0:0:0:
192,352,106680,1,0,0:0:0:0:
192,352,106950,1,8,0:0:0:0:
192,32,107085,1,0,0:0:0:0:
192,352,107220,1,8,0:0:0:0:
192,352,107355,1,0,0:0:0:0:
224,32,107423,1,0,0:0:0:0:
224,32,107491,1,0,0:0:0:0:
192,352,107626,1,8,0:0:0:0:
192,352,107896,1,0,0:0:0:0:
192,352,108031,1,8,0:0:0:0:
192,352,108301,1,8,0:0:0:0:
192,352,108437,1,0,0:0:0:0:
160,64,108572,1,8,0:0:0:0:
224,96,108707,1,8,0:0:0:0:
192,352,108843,5,4,0:0:0:0:
224,64,109113,1,8,0:0:0:0:
192,128,109383,1,4,0:0:0:0:
192,128,109653,1,8,0:0:0:0:
192,128,109789,1,8,0:0:0:0:
192,128,109924,5,4,0:0:0:0:
192,128,110194,1,8,0:0:0:0:
192,128,110464,1,4,0:0:0:0:
192,128,110734,1,0,0:0:0:0:
192,128,110870,1,0,0:0:0:0:
192,96,111005,5,12,0:0:0:0:
192,96,111275,1,8,0:0:0:0:
192,96,111410,1,8,0:0:0:0:
192,96,111545,1,0,0:0:0:0:
192,96,111680,1,0,0:0:0:0:
192,96,111816,1,8,0:0:0:0:
224,32,111951,1,8,0:0:0:0:
256,192,112086,12,0,112897,0:0:0:0:
224,160,113167,5,4,0:0:0:0:
