osu file format v14

[General]
AudioFilename: audio.mp3
AudioLeadIn: 0
PreviewTime: 61275
Countdown: 0
SampleSet: Soft
StackLeniency: 0.7
Mode: 3
LetterboxInBreaks: 0
SpecialStyle: 0
WidescreenStoryboard: 1

[Editor]
DistanceSpacing: 0.85
BeatDivisor: 4
GridSize: 32
TimelineZoom: 2.1

[Metadata]
Title:NINJA IS DEAD IIDX ver.
TitleUnicode:NINJA IS DEAD IIDX ver.
Artist:P*Light
ArtistUnicode:P*Light
Creator:Tofu1222
Version:Beginner
Source:beatmania IIDX 23 copula
Tags:Exit Tunes Dance Party Hardcore EDP presents ravemania SHINOBI SPEED HXJ_Crafter Skylish aabc271
BeatmapID:1807567
BeatmapSetID:590032

[Difficulty]
HPDrainRate:6.5
CircleSize:4
OverallDifficulty:6.5
ApproachRate:5
SliderMultiplier:1.4
SliderTickRate:1

[Events]
//Background and Video events
0,0,"BG.jpg",0,0
//Break Periods
//Storyboard Layer 0 (Background)
//Storyboard Layer 1 (Fail)
//Storyboard Layer 2 (Pass)
//Storyboard Layer 3 (Foreground)
//Storyboard Sound Samples

[TimingPoints]
735,270.27027027027,4,2,1,50,1,0
61275,-100,4,2,1,50,0,1
78032,-100,4,2,1,50,0,0
95870,-100,4,2,1,50,0,1
112897,-100,4,2,1,50,0,0

[HitObjects]
64,192,735,128,2,1275:0:0:0:0:
192,192,735,1,4,0:0:0:0:
448,192,1275,128,0,1816:0:0:0:0:
192,192,1816,128,0,2356:0:0:0:0:
320,192,2356,128,0,2897:0:0:0:0:
64,192,2897,128,0,3437:0:0:0:0:
192,192,3437,128,0,3978:0:0:0:0:
448,192,3978,128,0,4518:0:0:0:0:
320,192,4518,128,0,5059:0:0:0:0:
192,192,5059,128,0,5599:0:0:0:0:
448,192,5599,128,0,6140:0:0:0:0:
64,192,6140,128,0,6680:0:0:0:0:
320,192,6680,128,0,7221:0:0:0:0:
192,192,7221,128,0,8302:0:0:0:0:
448,192,8302,128,0,8843:0:0:0:0:
64,192,8843,1,4,0:0:0:0:
320,192,9383,1,2,0:0:0:0:
448,192,9383,1,4,0:0:0:0:
64,192,9653,1,2,0:0:0:0:
320,192,9924,1,2,0:0:0:0:
192,192,10194,1,2,0:0:0:0:
448,192,10464,1,2,0:0:0:0:
64,192,10734,1,2,0:0:0:0:
320,192,11005,1,2,0:0:0:0:
192,192,11275,1,2,0:0:0:0:
64,192,11545,1,2,0:0:0:0:
448,192,11545,1,4,0:0:0:0:
320,192,11816,1,2,0:0:0:0:
192,192,12086,1,2,0:0:0:0:
448,192,12356,1,2,0:0:0:0:
64,192,12626,1,2,0:0:0:0:
192,192,12897,1,2,0:0:0:0:
320,192,13167,1,2,0:0:0:0:
64,192,13437,1,2,0:0:0:0:
320,192,13707,1,2,0:0:0:0:
448,192,13707,1,4,0:0:0:0:
192,192,13978,1,2,0:0:0:0:
64,192,14248,1,2,0:0:0:0:
448,192,14248,1,4,0:0:0:0:
320,192,14518,1,2,0:0:0:0:
64,192,14789,1,4,0:0:0:0:
192,192,14789,1,2,0:0:0:0:
320,192,15059,1,2,0:0:0:0:
64,192,15329,1,2,0:0:0:0:
448,192,15329,1,4,0:0:0:0:
192,192,15599,1,2,0:0:0:0:
320,192,15870,1,2,0:0:0:0:
448,192,15870,128,4,16951:0:0:0:0:
64,192,16951,1,2,0:0:0:0:
320,192,17491,128,0,17762:0:0:0:0:
64,192,17762,1,8,0:0:0:0:
448,192,17762,1,4,0:0:0:0:
192,192,18032,1,6,0:0:0:0:
320,192,18572,1,2,0:0:0:0:
64,192,19113,1,2,0:0:0:0:
448,192,19653,1,2,0:0:0:0:
192,192,20194,1,2,0:0:0:0:
320,192,20734,1,2,0:0:0:0:
64,192,21275,1,2,0:0:0:0:
448,192,21816,1,2,0:0:0:0:
192,192,21951,1,2,0:0:0:0:
448,192,22221,1,2,0:0:0:0:
192,192,22356,1,6,0:0:0:0:
320,192,22626,1,10,0:0:0:0:
64,192,22897,1,2,0:0:0:0:
448,192,23167,1,10,0:0:0:0:
192,192,23437,1,2,0:0:0:0:
320,192,23707,1,10,0:0:0:0:
64,192,23978,1,2,0:0:0:0:
448,192,24248,1,10,0:0:0:0:
192,192,24518,1,2,0:0:0:0:
320,192,24789,1,10,0:0:0:0:
64,192,25059,1,2,0:0:0:0:
448,192,25329,1,10,0:0:0:0:
320,192,25599,1,2,0:0:0:0:
192,192,25870,128,8,26140:0:0:0:0:
448,192,26140,128,10,26410:0:0:0:0:
64,192,26410,1,4,0:0:0:0:
192,192,26410,1,8,0:0:0:0:
320,192,26680,1,6,0:0:0:0:
64,192,26951,1,10,0:0:0:0:
448,192,27221,1,2,0:0:0:0:
192,192,27491,1,10,0:0:0:0:
320,192,27762,1,2,0:0:0:0:
448,192,28032,1,10,0:0:0:0:
64,192,28302,1,2,0:0:0:0:
192,192,28572,1,10,0:0:0:0:
448,192,28843,1,2,0:0:0:0:
64,192,29113,1,10,0:0:0:0:
320,192,29383,1,2,0:0:0:0:
192,192,29653,1,10,0:0:0:0:
448,192,29924,1,2,0:0:0:0:
320,192,30194,1,10,0:0:0:0:
64,192,30464,1,2,0:0:0:0:
192,192,30734,1,0,0:0:0:0:
320,192,31005,1,4,0:0:0:0:
448,192,31005,1,2,0:0:0:0:
64,192,31275,1,10,0:0:0:0:
448,192,31545,1,2,0:0:0:0:
192,192,31816,1,10,0:0:0:0:
320,192,32086,1,2,0:0:0:0:
448,192,32356,1,10,0:0:0:0:
192,192,32626,1,2,0:0:0:0:
64,192,32897,1,10,0:0:0:0:
320,192,33167,1,2,0:0:0:0:
192,192,33437,1,10,0:0:0:0:
448,192,33707,1,2,0:0:0:0:
64,192,33978,1,10,0:0:0:0:
192,192,34248,1,2,0:0:0:0:
320,192,34248,128,0,34789:0:0:0:0:
64,192,34789,128,0,35059:0:0:0:0:
320,192,35059,1,8,0:0:0:0:
448,192,35059,1,4,0:0:0:0:
192,192,35329,1,6,0:0:0:0:
320,192,35599,1,10,0:0:0:0:
64,192,35870,1,2,0:0:0:0:
448,192,36140,1,10,0:0:0:0:
320,192,36410,1,2,0:0:0:0:
192,192,36680,1,10,0:0:0:0:
448,192,36951,1,2,0:0:0:0:
64,192,37221,1,10,0:0:0:0:
192,192,37491,1,2,0:0:0:0:
320,192,37762,1,10,0:0:0:0:
64,192,38032,1,2,0:0:0:0:
448,192,38302,1,10,0:0:0:0:
320,192,38572,1,2,0:0:0:0:
192,192,38843,1,10,0:0:0:0:
448,192,39113,1,2,0:0:0:0:
64,192,39383,1,10,0:0:0:0:
320,192,39924,1,14,0:0:0:0:
64,192,40194,1,2,0:0:0:0:
320,192,40464,1,10,0:0:0:0:
192,192,40734,1,6,0:0:0:0:
64,192,41005,1,10,0:0:0:0:
320,192,41275,1,2,0:0:0:0:
448,192,41545,1,10,0:0:0:0:
64,192,41816,1,6,0:0:0:0:
192,192,42086,1,10,0:0:0:0:
448,192,42356,1,6,0:0:0:0:
320,192,42626,1,10,0:0:0:0:
192,192,42897,1,2,0:0:0:0:
64,192,43707,1,8,0:0:0:0:
448,192,43707,1,4,0:0:0:0:
192,192,43978,128,0,44518:0:0:0:0:
448,192,44518,128,0,45059:0:0:0:0:
64,192,45059,128,0,45599:0:0:0:0:
320,192,45599,128,0,46140:0:0:0:0:
192,192,46140,128,0,46680:0:0:0:0:
320,192,46680,128,0,47221:0:0:0:0:
64,192,47221,128,0,47762:0:0:0:0:
448,192,47762,128,0,48302:0:0:0:0:
192,192,48302,128,0,48843:0:0:0:0:
64,192,48843,128,0,49383:0:0:0:0:
320,192,49383,128,0,49924:0:0:0:0:
448,192,49924,128,0,50464:0:0:0:0:
192,192,50464,128,0,51545:0:0:0:0:
320,192,51545,128,0,52086:0:0:0:0:
64,192,52086,1,4,0:0:0:0:
320,192,52626,1,2,0:0:0:0:
448,192,52626,1,4,0:0:0:0:
64,192,52897,1,2,0:0:0:0:
320,192,53167,1,2,0:0:0:0:
192,192,53437,1,2,0:0:0:0:
448,192,53707,1,2,0:0:0:0:
64,192,53978,1,2,0:0:0:0:
320,192,54248,1,2,0:0:0:0:
192,192,54518,1,2,0:0:0:0:
64,192,54789,1,2,0:0:0:0:
448,192,54789,1,4,0:0:0:0:
320,192,55059,1,2,0:0:0:0:
192,192,55329,1,2,0:0:0:0:
448,192,55599,1,2,0:0:0:0:
64,192,55870,1,2,0:0:0:0:
192,192,56140,1,2,0:0:0:0:
320,192,56410,1,2,0:0:0:0:
64,192,56680,1,2,0:0:0:0:
320,192,56951,1,2,0:0:0:0:
448,192,56951,1,4,0:0:0:0:
192,192,57221,1,2,0:0:0:0:
64,192,57491,1,2,0:0:0:0:
448,192,57491,1,4,0:0:0:0:
320,192,57762,1,2,0:0:0:0:
64,192,58032,1,2,0:0:0:0:
192,192,58032,1,4,0:0:0:0:
320,192,58302,1,2,0:0:0:0:
64,192,58572,1,2,0:0:0:0:
448,192,58572,1,4,0:0:0:0:
192,192,58843,1,2,0:0:0:0:
320,192,59113,1,2,0:0:0:0:
448,192,59113,128,4,60194:0:0:0:0:
64,192,60194,1,2,0:0:0:0:
64,192,61275,1,2,0:0:0:0:
192,192,61275,1,4,0:0:0:0:
320,192,61816,1,2,0:0:0:0:
448,192,61816,1,8,0:0:0:0:
64,192,62356,1,2,0:0:0:0:
192,192,62626,1,2,0:0:0:0:
320,192,62897,1,2,0:0:0:0:
448,192,62897,1,8,0:0:0:0:
192,192,63437,1,2,0:0:0:0:
320,192,63843,1,2,0:0:0:0:
64,192,63978,1,8,0:0:0:0:
448,192,63978,1,2,0:0:0:0:
192,192,64248,1,2,0:0:0:0:
320,192,64518,1,2,0:0:0:0:
64,192,65059,1,8,0:0:0:0:
192,192,65059,1,2,0:0:0:0:
320,192,65599,1,2,0:0:0:0:
448,192,65599,1,0,0:0:0:0:
64,192,66140,1,8,0:0:0:0:
192,192,66140,1,2,0:0:0:0:
448,192,66680,1,2,0:0:0:0:
320,192,66951,1,2,0:0:0:0:
64,192,67221,1,2,0:0:0:0:
192,192,67221,1,8,0:0:0:0:
320,192,67762,1,2,0:0:0:0:
192,192,68167,1,2,0:0:0:0:
64,192,68302,1,2,0:0:0:0:
448,192,68302,1,8,0:0:0:0:
320,192,68572,1,2,0:0:0:0:
192,192,68843,1,2,0:0:0:0:
320,192,69383,128,2,69653:0:0:0:0:
192,192,69653,128,2,69924:0:0:0:0:
64,192,69924,1,6,0:0:0:0:
320,192,70194,1,10,0:0:0:0:
192,192,70464,1,2,0:0:0:0:
448,192,70734,1,10,0:0:0:0:
64,192,71005,1,2,0:0:0:0:
320,192,71275,1,10,0:0:0:0:
192,192,71545,1,2,0:0:0:0:
448,192,71816,1,10,0:0:0:0:
320,192,72086,1,2,0:0:0:0:
192,192,72356,1,10,0:0:0:0:
448,192,72626,1,2,0:0:0:0:
64,192,72897,1,10,0:0:0:0:
320,192,73167,1,2,0:0:0:0:
192,192,73437,1,10,0:0:0:0:
448,192,73707,1,2,0:0:0:0:
64,192,73978,1,10,0:0:0:0:
192,192,74518,1,10,0:0:0:0:
320,192,74518,1,4,0:0:0:0:
448,192,74789,1,2,0:0:0:0:
64,192,75059,1,10,0:0:0:0:
192,192,75329,1,4,0:0:0:0:
320,192,75329,1,2,0:0:0:0:
448,192,75599,1,10,0:0:0:0:
64,192,75870,1,2,0:0:0:0:
192,192,76140,1,10,0:0:0:0:
320,192,76410,1,2,0:0:0:0:
448,192,76410,1,4,0:0:0:0:
192,192,76680,1,10,0:0:0:0:
64,192,76951,1,2,0:0:0:0:
448,192,76951,1,4,0:0:0:0:
320,192,77221,1,10,0:0:0:0:
192,192,77491,128,2,78032:0:0:0:0:
448,192,78032,1,0,0:0:0:0:
192,192,78302,1,0,0:0:0:0:
320,192,78572,1,0,0:0:0:0:
64,192,78843,1,0,0:0:0:0:
448,192,79113,1,0,0:0:0:0:
192,192,79383,1,0,0:0:0:0:
320,192,79653,1,0,0:0:0:0:
448,192,79924,1,0,0:0:0:0:
64,192,80194,1,0,0:0:0:0:
192,192,80464,1,0,0:0:0:0:
448,192,80734,1,0,0:0:0:0:
320,192,81005,1,0,0:0:0:0:
192,192,81275,1,0,0:0:0:0:
64,192,81545,1,0,0:0:0:0:
448,192,81816,128,0,82356:0:0:0:0:
64,192,82356,128,0,82897:0:0:0:0:
448,192,82897,1,0,0:0:0:0:
192,192,83167,1,0,0:0:0:0:
320,192,83437,1,0,0:0:0:0:
64,192,83707,1,0,0:0:0:0:
192,192,83978,1,0,0:0:0:0:
320,192,84248,1,0,0:0:0:0:
64,192,84518,1,0,0:0:0:0:
448,192,84789,1,0,0:0:0:0:
64,192,85059,1,0,0:0:0:0:
192,192,85329,1,0,0:0:0:0:
320,192,85599,1,0,0:0:0:0:
448,192,85870,1,0,0:0:0:0:
64,192,86005,1,2,0:0:0:0:
192,192,86005,1,4,0:0:0:0:
192,192,86680,1,0,0:0:0:0:
320,192,86951,1,0,0:0:0:0:
64,192,87221,1,2,0:0:0:0:
448,192,87221,1,4,0:0:0:0:
192,192,88302,1,2,0:0:0:0:
320,192,88302,1,4,0:0:0:0:
64,192,89383,1,2,0:0:0:0:
192,192,89383,1,4,0:0:0:0:
320,192,90464,1,2,0:0:0:0:
448,192,90464,1,4,0:0:0:0:
64,192,91545,1,2,0:0:0:0:
448,192,91545,1,4,0:0:0:0:
320,192,91816,1,2,0:0:0:0:
64,192,92086,1,2,0:0:0:0:
192,192,92086,1,4,0:0:0:0:
320,192,92356,1,2,0:0:0:0:
64,192,92626,1,2,0:0:0:0:
448,192,92626,1,4,0:0:0:0:
192,192,92897,1,2,0:0:0:0:
320,192,93167,1,2,0:0:0:0:
448,192,93167,1,4,0:0:0:0:
192,192,93437,1,2,0:0:0:0:
64,192,93707,1,2,0:0:0:0:
448,192,93707,128,4,94653:0:0:0:0:
192,192,94653,1,6,0:0:0:0:
64,192,95599,1,4,0:0:0:0:
448,192,95599,1,8,0:0:0:0:
192,192,95870,1,6,0:0:0:0:
320,192,96140,1,10,0:0:0:0:
64,192,96410,1,2,0:0:0:0:
192,192,96680,1,10,0:0:0:0:
448,192,96951,1,2,0:0:0:0:
320,192,97221,1,10,0:0:0:0:
192,192,97491,1,2,0:0:0:0:
64,192,97762,1,10,0:0:0:0:
320,192,98032,1,2,0:0:0:0:
448,192,98302,1,10,0:0:0:0:
192,192,98572,1,2,0:0:0:0:
64,192,98843,1,10,0:0:0:0:
320,192,99113,1,2,0:0:0:0:
192,192,99383,1,10,0:0:0:0:
448,192,99653,1,2,0:0:0:0:
64,192,99924,1,10,0:0:0:0:
192,192,100194,1,2,0:0:0:0:
320,192,100464,1,10,0:0:0:0:
64,192,100734,1,2,0:0:0:0:
448,192,101005,1,10,0:0:0:0:
192,192,101275,1,2,0:0:0:0:
64,192,101545,1,10,0:0:0:0:
320,192,101816,1,2,0:0:0:0:
448,192,102086,1,10,0:0:0:0:
192,192,102356,1,2,0:0:0:0:
320,192,102626,1,10,0:0:0:0:
64,192,102897,1,2,0:0:0:0:
192,192,103167,1,10,0:0:0:0:
320,192,103707,1,10,0:0:0:0:
192,192,103978,1,2,0:0:0:0:
64,192,104248,1,14,0:0:0:0:
320,192,104518,1,6,0:0:0:0:
192,192,104789,1,10,0:0:0:0:
448,192,105059,1,2,0:0:0:0:
64,192,105329,1,10,0:0:0:0:
320,192,105599,1,2,0:0:0:0:
448,192,105870,1,10,0:0:0:0:
192,192,106140,1,2,0:0:0:0:
64,192,106410,1,10,0:0:0:0:
448,192,106680,1,2,0:0:0:0:
64,192,106951,1,10,0:0:0:0:
320,192,107221,1,2,0:0:0:0:
192,192,107491,1,10,0:0:0:0:
64,192,107762,1,2,0:0:0:0:
320,192,108032,1,10,0:0:0:0:
192,192,108302,1,2,0:0:0:0:
448,192,108572,1,10,0:0:0:0:
64,192,108843,1,2,0:0:0:0:
320,192,108843,1,4,0:0:0:0:
192,192,109383,1,2,0:0:0:0:
448,192,109383,1,4,0:0:0:0:
64,192,109924,1,4,0:0:0:0:
192,192,109924,1,2,0:0:0:0:
320,192,110464,1,2,0:0:0:0:
448,192,110464,1,4,0:0:0:0:
64,192,111005,1,2,0:0:0:0:
192,192,111275,1,2,0:0:0:0:
320,192,111545,1,2,0:0:0:0:
448,192,111816,1,2,0:0:0:0:
64,192,111951,128,2,112897:0:0:0:0:
192,192,111951,1,0,0:0:0:0:
320,192,112897,1,4,0:0:0:0:
64,192,113167,1,4,0:0:0:0:
448,192,113167,1,2,0:0:0:0:
