osu file format v14

[General]
AudioFilename: audio.mp3
AudioLeadIn: 0
PreviewTime: 95734
Countdown: 0
SampleSet: Soft
StackLeniency: 0.7
Mode: 2
LetterboxInBreaks: 0
WidescreenStoryboard: 1

[Editor]
Bookmarks: 15870,16951,18032,21951,59113,60194,76410,78032,93707,94653,112086,112897
DistanceSpacing: 1
BeatDivisor: 4
GridSize: 32
TimelineZoom: 2.799999

[Metadata]
Title:NINJA IS DEAD IIDX ver.
TitleUnicode:NINJA IS DEAD IIDX ver.
Artist:P*Light
ArtistUnicode:P*Light
Creator:Bastian
Version:Beginner
Source:beatmania IIDX 23 copula
Tags:Exit Tunes Dance Party Hardcore EDP presents ravemania SHINOBI SPEED
BeatmapID:2039938
BeatmapSetID:973210

[Difficulty]
HPDrainRate:3
CircleSize:2.5
OverallDifficulty:6
ApproachRate:6
SliderMultiplier:1.2
SliderTickRate:1

[Events]
//Background and Video events
0,0,"OWOCUTEBG1.png",0,0
//Break Periods
//Storyboard Layer 0 (Background)
//Storyboard Layer 1 (Fail)
//Storyboard Layer 2 (Pass)
//Storyboard Layer 3 (Foreground)
//Storyboard Sound Samples

[TimingPoints]
735,270.27027027027,4,2,1,15,1,0
5059,-100,4,2,1,30,0,0
7221,-100,4,2,1,40,0,0
8843,-100,4,2,1,50,0,0
26680,-100,4,2,2,50,0,0
34113,-100,4,2,1,50,0,0
61275,-100,4,2,1,60,0,1
77491,-100,4,2,1,10,0,1
78032,-100,4,2,1,60,0,1
78572,-100,4,2,1,50,0,0
82086,-100,4,2,1,10,0,0
82356,-100,4,2,1,50,0,0
85633,-100,4,2,1,10,0,0
86005,-100,4,2,1,50,0,0
95870,-100,4,2,1,60,0,1
113167,-100,4,2,3,50,0,0

[Colours]
Combo1 : 255,197,138
Combo2 : 204,0,0
Combo3 : 255,255,17
Combo4 : 156,78,78

[HitObjects]
327,319,735,6,0,P|401:232|317:165,1,240,0|0,0:0|0:0,0:0:0:0:
132,164,1816,2,0,P|95:221|196:337,1,240,0|0,0:0|0:0,0:0:0:0:
380,337,2897,6,0,P|395:273|313:103,1,240,0|0,0:0|0:0,0:0:0:0:
138,117,3978,2,0,P|126:186|209:285,1,180,0|0,0:0|0:0,0:0:0:0:
279,273,4653,1,0,0:0:0:0:
134,273,5059,6,0,P|108:199|220:59,1,240,0|0,0:0|0:0,0:0:0:0:
378,69,6140,2,0,P|455:144|380:223,1,240,0|0,0:0|0:0,0:0:0:0:
188,223,7221,6,0,P|211:300|327:232,1,240,0|0,0:0|0:0,0:0:0:0:
135,251,8302,2,0,P|85:191|142:44,1,240,0|0,0:0|0:0,0:0:0:0:
323,50,9383,6,0,P|380:111|331:258,1,240,6|2,0:0|0:0,0:0:0:0:
246,250,10194,1,2,0:0:0:0:
150,250,10464,2,0,P|75:171|152:95,1,240,2|2,0:0|0:0,0:0:0:0:
343,95,11545,6,0,P|334:183|220:283,1,240,6|2,0:0|0:0,0:0:0:0:
323,281,12356,1,2,0:0:0:0:
418,281,12626,1,2,0:0:0:0:
225,281,13167,1,2,0:0:0:0:
71,284,13707,6,0,L|52:147,1,120,2|2,0:0|0:0,0:0:0:0:
150,165,14248,2,0,L|163:41,1,120,6|2,0:0|0:0,0:0:0:0:
258,45,14789,2,0,P|295:120|219:250,1,240,2|6,0:0|0:0,0:0:0:0:
33,247,15870,6,0,P|100:148|202:75,1,240,6|2,0:0|0:0,0:0:0:0:
388,77,16951,1,2,0:0:0:0:
196,77,17491,2,0,L|154:194,1,120,2|10,0:0|0:0,0:0:0:0:
251,189,18032,6,0,B|305:342|305:342|342:246,1,240,6|2,0:0|0:0,0:0:0:0:
140,269,19113,2,0,P|102:188|172:60,1,240,2|2,0:0|0:0,0:0:0:0:
263,62,19924,1,2,0:0:0:0:
358,62,20194,6,0,P|392:168|301:235,1,240,2|2,0:0|0:0,0:0:0:0:
109,235,21275,2,0,P|89:167|202:44,1,240,2|2,0:0|0:0,0:0:0:0:
235,46,21951,1,2,0:0:0:0:
378,46,22356,6,0,L|394:170,1,120,6|10,0:0|0:0,0:0:0:0:
325,233,22897,2,0,L|303:355,1,120,2|10,0:0|0:0,0:0:0:0:
399,351,23437,2,0,P|422:277|345:131,1,240,2|2,0:0|0:0,0:0:0:0:
162,137,24518,6,0,L|138:261,1,120,2|10,0:0|0:0,0:0:0:0:
207,322,25059,2,0,L|237:194,1,120,2|10,0:0|0:0,0:0:0:0:
138,205,25599,2,0,P|117:132|231:41,1,240,2|10,0:0|0:0,0:0:0:0:
327,40,26410,1,8,0:0:0:0:
231,40,26680,6,0,L|156:144,2,120,2|10|2,0:0|0:0|0:0,0:0:0:0:
423,40,27762,2,0,P|440:130|312:216,1,240,2|2,0:0|0:0,0:0:0:0:
239,217,28572,1,10,0:0:0:0:
335,217,28843,6,0,L|410:321,2,120,2|10|2,0:0|0:0|0:0,0:0:0:0:
239,217,29653,1,10,0:0:0:0:
142,217,29924,2,0,P|137:115|244:46,1,240,2|2,0:0|0:0,0:0:0:0:
104,56,31005,6,0,L|76:180,1,120,6|10,0:0|0:0,0:0:0:0:
162,218,31545,2,0,L|182:342,1,120,2|10,0:0|0:0,0:0:0:0:
277,336,32086,2,0,P|310:260|248:117,1,240,2|2,0:0|0:0,0:0:0:0:
157,121,32897,1,10,0:0:0:0:
252,121,33167,6,0,L|280:247,1,120,2|10,0:0|0:0,0:0:0:0:
373,238,33707,2,0,L|399:120,1,120,2|10,0:0|0:0,0:0:0:0:
302,120,34248,1,0,0:0:0:0:
75,116,35059,1,8,0:0:0:0:
170,116,35329,6,0,L|195:247,1,120,6|10,0:0|0:0,0:0:0:0:
260,165,35870,2,0,L|237:282,1,120,2|10,0:0|0:0,0:0:0:0:
304,214,36410,2,0,L|407:45,2,180,2|0|10,0:0|0:0|0:0,0:0:0:0:
207,214,37491,5,2,0:0:0:0:
399,214,38032,2,0,L|432:90,1,120,2|10,0:0|0:0,0:0:0:0:
333,98,38572,1,2,0:0:0:0:
140,98,39113,6,0,P|62:173|137:252,1,240,2|0,0:0|0:0,0:0:0:0:
233,252,39924,2,0,L|311:142,2,120,14|2|10,0:0|0:0|0:0,0:0:0:0:
328,252,40734,2,0,P|366:159|262:62,1,240,2|2,0:0|0:0,0:0:0:0:
185,64,41545,1,10,0:0:0:0:
88,64,41816,5,2,0:0:0:0:
279,64,42356,2,0,P|316:131|305:175,1,120,2|10,0:0|0:0,0:0:0:0:
211,170,42897,1,0,0:0:0:0:
110,194,43707,1,8,0:0:0:0:
239,321,43978,6,0,P|270:253|213:85,1,240,0|0,0:0|0:0,0:0:0:0:
40,99,45059,2,0,P|96:253|155:295,1,240,0|0,0:0|0:0,0:0:0:0:
345,296,46140,6,0,P|419:209|335:142,1,240,0|0,0:0|0:0,0:0:0:0:
150,141,47221,2,0,P|120:216|154:345,1,180,0|0,0:0|0:0,0:0:0:0:
230,312,47897,1,0,0:0:0:0:
373,312,48302,6,0,P|402:234|316:72,1,240,0|0,0:0|0:0,0:0:0:0:
155,94,49383,2,0,P|178:192|285:292,1,240,0|0,0:0|0:0,0:0:0:0:
82,287,50464,6,0,P|64:199|143:58,1,240,0|0,0:0|0:0,0:0:0:0:
320,69,51545,2,0,P|346:144|306:296,1,240,0|0,0:0|0:0,0:0:0:0:
114,295,52626,6,0,P|94:202|189:74,1,240,6|2,0:0|0:0,0:0:0:0:
263,84,53437,1,2,0:0:0:0:
358,84,53707,2,0,P|435:159|360:238,1,240,2|2,0:0|0:0,0:0:0:0:
168,238,54789,6,0,P|190:170|321:57,1,240,6|2,0:0|0:0,0:0:0:0:
216,60,55599,1,2,0:0:0:0:
119,60,55870,2,0,P|82:144|155:285,1,240,2|2,0:0|0:0,0:0:0:0:
329,273,56951,6,0,L|357:153,1,120,6|2,0:0|0:0,0:0:0:0:
260,156,57491,2,0,L|232:39,1,120,6|2,0:0|0:0,0:0:0:0:
328,39,58032,2,0,P|347:116|237:261,1,240,6|6,0:0|0:0,0:0:0:0:
76,247,59113,6,0,P|51:172|156:56,1,240,6|2,0:0|0:0,0:0:0:0:
337,57,60194,1,0,0:0:0:0:
145,57,60734,1,0,0:0:0:0:
337,57,61275,6,0,P|356:144|321:250,1,180,6|0,0:0|0:0,0:0:0:0:
284,230,61816,1,8,0:0:0:0:
92,230,62356,2,0,P|88:152|196:41,1,240,2|8,0:0|0:0,0:0:0:0:
290,41,63167,1,0,0:0:0:0:
385,41,63437,6,0,P|449:103|417:215,1,180,2|0,0:0|0:0,0:0:0:0:
406,221,63978,1,8,0:0:0:0:
309,222,64248,1,2,0:0:0:0:
214,221,64518,1,2,0:0:0:0:
406,221,65059,2,0,L|440:102,1,120,8|0,0:0|0:0,0:0:0:0:
343,105,65599,6,0,P|315:193|330:303,1,180,2|0,0:0|0:0,0:0:0:0:
370,279,66140,1,8,0:0:0:0:
178,279,66680,2,0,B|169:215|225:134|225:134|240:99|207:39,1,240,2|8,0:0|0:0,0:0:0:0:
100,50,67762,6,0,P|76:126|116:234,1,180,2|0,0:0|0:0,0:0:0:0:
152,219,68302,1,8,0:0:0:0:
251,223,68572,1,0,0:0:0:0:
344,219,68843,1,0,0:0:0:0:
152,219,69383,2,0,L|121:79,1,120,2|2,0:0|0:0,0:0:0:0:
222,101,69924,6,0,L|259:229,1,120,2|10,0:0|0:0,0:0:0:0:
159,216,70464,2,0,L|122:344,1,120,2|10,0:0|0:0,0:0:0:0:
221,331,71005,1,2,0:0:0:0:
412,331,71545,1,2,0:0:0:0:
219,331,72086,6,0,L|160:200,1,120,2|10,0:0|0:0,0:0:0:0:
265,221,72626,2,0,L|302:90,1,120,2|10,0:0|0:0,0:0:0:0:
201,105,73167,1,2,0:0:0:0:
392,105,73707,6,0,P|349:192|305:211,1,120,2|10,0:0|0:0,0:0:0:0:
236,201,74248,2,0,P|213:287|235:327,1,120,0|14,0:0|0:0,0:0:0:0:
415,311,75059,5,10,0:0:0:0:
347,243,75329,1,2,0:0:0:0:
414,175,75599,1,10,0:0:0:0:
317,175,75870,2,0,L|274:58,1,120,2|10,0:0|0:0,0:0:0:0:
179,62,76410,6,0,L|214:204,1,120,2|10,0:0|0:0,0:0:0:0:
303,178,76951,2,0,L|279:306,1,120,2|10,0:0|0:0,0:0:0:0:
184,295,77491,2,0,P|109:216|186:140,1,240,0|0,0:0|0:0,0:0:0:0:
378,140,78572,6,0,P|383:231|283:349,1,240,2|2,0:0|0:0,0:0:0:0:
102,343,79653,2,0,L|37:214,2,120,2|0|2,0:0|0:0|0:0,0:0:0:0:
198,343,80464,1,0,0:0:0:0:
293,343,80734,6,0,P|311:264|219:123,1,240,2|2,0:0|0:0,0:0:0:0:
91,132,81680,1,0,0:0:0:0:
300,132,82356,2,0,P|311:201|262:254,1,120,2|0,0:0|0:0,0:0:0:0:
188,240,82897,6,0,P|203:308|351:277,1,240,2|2,0:0|0:0,0:0:0:0:
151,296,83978,2,0,L|128:158,1,120,2|0,0:0|0:0,0:0:0:0:
227,177,84518,2,0,L|250:39,1,120,2|0,0:0|0:0,0:0:0:0:
150,58,85059,5,2,0:0:0:0:
341,58,85599,2,0,P|355:136|322:224,1,120,2|0,0:0|0:0,0:0:0:0:
299,175,86005,1,4,0:0:0:0:
59,175,86680,6,0,P|66:245|196:338,1,240,2|4,0:0|0:0,0:0:0:0:
387,337,87762,2,0,P|377:245|258:153,1,240,0|6,0:0|0:0,0:0:0:0:
460,155,88843,6,0,P|456:81|312:104,1,240,0|6,0:0|0:0,0:0:0:0:
128,82,89924,2,0,P|50:157|125:236,1,240,0|6,0:0|0:0,0:0:0:0:
317,236,91005,1,0,0:0:0:0:
125,236,91545,6,0,L|104:103,1,120,6|2,0:0|0:0,0:0:0:0:
202,117,92086,2,0,L|220:235,1,120,6|2,0:0|0:0,0:0:0:0:
124,235,92626,6,0,P|97:155|222:48,1,240,6|6,0:0|0:0,0:0:0:0:
288,49,93437,1,2,0:0:0:0:
383,49,93707,6,0,P|396:143|323:286,1,240,2|2,0:0|0:0,0:0:0:0:
193,271,94653,1,0,0:0:0:0:
364,271,95599,1,10,0:0:0:0:
267,271,95870,6,0,L|197:152,2,120,6|10|2,0:0|0:0|0:0,0:0:0:0:
74,271,96951,2,0,L|54:130,1,120,2|10,0:0|0:0,0:0:0:0:
153,160,97491,2,0,L|169:41,1,120,2|10,0:0|0:0,0:0:0:0:
266,41,98032,6,0,P|280:114|196:266,1,240,2|2,0:0|0:0,0:0:0:0:
352,256,98978,1,0,0:0:0:0:
174,260,99653,2,0,L|136:138,1,120,2|10,0:0|0:0,0:0:0:0:
234,145,100194,6,0,L|307:40,2,120,2|10|2,0:0|0:0|0:0,0:0:0:0:
426,145,101275,2,0,L|446:271,1,120,2|10,0:0|0:0,0:0:0:0:
376,195,101816,2,0,L|357:313,1,120,2|10,0:0|0:0,0:0:0:0:
453,313,102356,1,2,0:0:0:0:
260,313,102897,6,0,P|216:252|280:81,1,240,2|2,0:0|0:0,0:0:0:0:
347,101,103707,1,10,0:0:0:0:
250,101,103978,2,0,L|214:255,1,120,2|0,0:0|0:0,0:0:0:0:
318,217,104518,6,0,L|370:329,2,120,6|10|2,0:0|0:0|0:0,0:0:0:0:
125,217,105599,2,0,L|99:97,1,120,2|10,0:0|0:0,0:0:0:0:
195,99,106140,2,0,L|220:216,1,120,2|10,0:0|0:0,0:0:0:0:
124,216,106680,1,2,0:0:0:0:
316,216,107221,6,0,P|363:152|256:47,1,240,2|2,0:0|0:0,0:0:0:0:
466,45,108302,2,0,L|466:176,1,120,2|10,0:0|0:0,0:0:0:0:
369,165,108843,6,0,P|389:246|259:324,1,240,6|2,0:0|0:0,0:0:0:0:
83,327,109924,2,0,P|96:233|187:108,1,240,6|2,0:0|0:0,0:0:0:0:
369,115,111005,6,0,L|385:237,1,120,6|2,0:0|0:0,0:0:0:0:
288,233,111545,2,0,L|272:351,1,120,2|2,0:0|0:0,0:0:0:0:
176,351,112086,2,0,P|113:286|204:51,1,360,2|2,0:0|0:0,0:0:0:0:
315,57,113167,5,4,0:0:0:0:
256,192,113707,12,0,114789,0:0:0:0:
