osu file format v14

[General]
AudioFilename: audio.mp3
AudioLeadIn: 0
PreviewTime: 59193
Countdown: 0
SampleSet: Soft
StackLeniency: 0.2
Mode: 0
LetterboxInBreaks: 0
WidescreenStoryboard: 1

[Editor]
DistanceSpacing: 1.2
BeatDivisor: 8
GridSize: 8
TimelineZoom: 2.3

[Metadata]
Title:Internet bitch P*Light Remix
TitleUnicode:Internet bitch P*Light Remix
Artist:P*Light
ArtistUnicode:P*Light
Creator:Imprixie
Version:CyberSpace
Source:
Tags:
BeatmapID:1948884
BeatmapSetID:933524

[Difficulty]
HPDrainRate:5
CircleSize:4.7
OverallDifficulty:5
ApproachRate:9
SliderMultiplier:1.4
SliderTickRate:1

[Events]
//Background and Video events
0,0,"7e8c1a12f5e7578b60cb6d077df2b8ee.jpg",0,0
//Break Periods
2,44393,54650
2,56564,62878
2,77050,130078
//Storyboard Layer 0 (Background)
//Storyboard Layer 1 (Fail)
//Storyboard Layer 2 (Pass)
//Storyboard Layer 3 (Foreground)
//Storyboard Sound Samples

[TimingPoints]
393,342.857142857143,4,2,0,100,1,0
393,-50,4,2,0,100,0,0
2964,-25,4,2,0,100,0,0
3135,-50,4,2,0,100,0,0
5364,-33.3333333333333,4,2,0,100,0,0
5535,-26.3157894736842,4,2,0,100,0,0
5878,-50,4,2,0,100,0,0
8450,-25,4,2,0,100,0,0
8621,-50,4,2,0,100,0,0
9650,-25,4,2,0,100,0,0
9993,-100,4,2,0,100,0,0
10335,-66.6666666666667,4,2,0,100,0,0
10678,-50,4,2,0,100,0,0
11021,-100,4,2,0,100,0,0
11364,-50,4,2,0,100,0,0
13935,-25,4,2,0,100,0,0
14107,-50,4,2,0,100,0,0
16335,-33.3333333333333,4,2,0,100,0,0
16507,-26.3157894736842,4,2,0,100,0,0
18907,-50,4,2,0,100,0,0
19250,-25,4,2,0,100,0,0
27821,-66.6666666666667,4,2,0,100,0,0
55421,-25,4,2,0,100,0,0
63478,-111.111111111111,4,2,0,100,0,0
64850,-222.222222222222,4,2,0,100,0,0
66221,-12.5,4,2,0,100,0,0
67593,-25,4,2,0,100,0,0
68621,-16.6666666666667,4,2,0,100,0,0
68964,-12.5,4,2,0,100,0,0
69307,-50,4,2,0,100,0,0
70335,-25,4,2,0,100,0,0
71107,-100,4,2,0,100,0,0
71707,-12.5,4,2,0,100,0,0
73078,-25,4,2,0,100,0,0
74107,-16.6666666666667,4,2,0,100,0,0
74450,-12.5,4,2,0,100,0,0
74793,-50,4,2,0,100,0,0
75821,-66.6666666666667,4,2,0,100,0,0
130678,-25,4,2,0,100,0,0
131707,-100,4,2,0,100,0,0
132050,-25,4,2,0,100,0,0

[Colours]
Combo1 : 18,48,188
Combo2 : 151,82,243
Combo3 : 210,0,210
Combo4 : 0,128,64

[HitObjects]
161,124,393,6,0,B|128:129|98:168,1,70
203,313,564,6,0,P|231:313|252:335,1,35
294,273,650,2,0,P|280:248|288:219,1,35
213,214,735,2,0,P|199:238|169:245,1,35
339,47,907,6,0,P|321:98|299:118,1,70
232,264,1078,1,0,0:0:0:0:
339,47,1250,6,0,P|318:76|310:110,1,70
232,264,1421,1,0,0:0:0:0:
491,195,1593,6,0,P|477:170|485:141,1,35
410,137,1679,2,0,P|395:161|366:168,1,35
400,235,1764,2,0,P|428:235|449:257,1,35
180,307,1935,6,0,P|231:289|251:267,1,70
436,187,2107,1,0,0:0:0:0:
180,307,2278,6,0,P|209:286|243:278,1,70
436,187,2450,1,0,0:0:0:0:
227,55,2621,6,0,P|227:83|205:104,1,35
267,146,2707,2,0,P|291:132|320:140,1,35
326,65,2792,2,0,P|301:51|294:21,1,35
51,205,2964,6,0,P|108:220|82:161,1,140
152,130,3135,6,0,B|119:135|119:135|89:174,1,70
293,327,3307,6,0,B|313:323|313:323|337:354,1,35
385,281,3393,2,0,B|371:265|371:265|386:229,1,35
299,224,3478,2,0,B|292:243|292:243|253:248,1,35
397,73,3650,6,0,P|388:126|369:149,1,70
329,278,3821,1,0,0:0:0:0:
397,73,3993,6,0,P|381:105|379:140,1,70
329,278,4164,1,0,0:0:0:0:
84,130,4335,6,0,B|97:114|97:114|82:78,1,35
170,73,4421,2,0,B|176:92|176:92|215:97,1,35
176,176,4507,2,0,B|156:172|156:172|132:203,1,35
416,178,4678,5,0,0:0:0:0:
126,327,4850,6,0,B|146:323|146:323|154:334,1,35
218,281,4936,2,0,B|204:265|204:265|210:252,1,35
132,224,5021,2,0,B|125:243|125:243|110:245,1,35
65,303,5107,2,0,B|58:322|58:322|43:324,1,35
383,132,5364,6,0,P|376:189|424:231,1,105.000004005432
512,256,5535,6,0,B|511:288|495:321|445:315|401:305|399:278|395:250|403:221|403:221|396:250|379:285|327:272|299:256|282:230|284:201|297:170|322:143,1,398.999989345551
297,82,5878,6,0,B|330:72|330:72|361:88,1,70
359,323,6050,6,0,B|339:319|339:319|315:350,1,35
267,277,6136,2,0,B|280:261|280:261|265:225,1,35
353,220,6221,2,0,B|359:239|359:239|398:244,1,35
119,50,6393,6,0,P|160:84|172:111,1,70
327,270,6564,1,0,0:0:0:0:
119,50,6736,6,0,P|139:79|168:98,1,70
327,270,6907,1,0,0:0:0:0:
333,73,7078,6,0,B|353:77|353:77|377:46,1,35
425,119,7164,2,0,B|412:135|412:135|427:171,1,35
339,176,7249,2,0,B|333:157|333:157|294:152,1,35
109,245,7421,6,0,P|155:217|185:216,1,70
365,126,7593,1,0,0:0:0:0:
109,245,7764,6,0,P|143:236|171:215,1,70
365,126,7936,1,0,0:0:0:0:
166,50,8107,6,0,B|150:63|150:63|114:48,1,35
109,135,8193,2,0,B|128:142|128:142|133:181,1,35
212,142,8278,2,0,B|207:122|207:122|238:98,1,35
439,190,8450,6,0,P|454:247|395:221,1,140
364,291,8621,6,0,B|369:258|369:258|408:228,1,70
448,92,8793,1,0,0:0:0:0:
364,291,8964,6,0,B|393:268|393:268|398:235,1,70
448,92,9135,1,0,0:0:0:0:
125,285,9307,6,0,L|160:279,1,35
160,280,9393,6,0,L|188:301,1,35
188,301,9478,6,0,L|220:313,1,35
220,313,9564,6,0,L|226:347,1,35
227,348,9650,2,0,B|243:348|260:346|276:338|286:319|289:303|287:289|276:276|262:263|242:262|229:268|229:268|238:247|249:233|267:225|288:224|310:229|325:240|336:260|337:275|337:275|351:273|362:264|364:249|360:234|353:220|345:210|336:200|320:190|307:182|289:180|289:180|307:141|353:134,1,490
367,145,9993,6,0,P|410:200|418:259,1,105
483,264,10335,6,0,P|424:211|342:186,1,157.500006008148
285,194,10678,6,0,L|291:159,1,35
257,220,10764,6,0,L|250:185,1,35
222,259,10850,6,0,L|228:224,1,35
174,276,10935,6,0,L|209:270,1,35
37,341,11021,6,0,P|63:311|86:306,1,35
58,313,11193,2,0,P|32:343|9:348,1,35
110,280,11364,6,0,P|94:247|98:201,1,70
480,322,11535,6,0,L|446:328,1,35
383,329,11621,2,0,L|350:321,1,35
289,308,11706,2,0,L|255:312,1,35
297,98,11878,6,0,B|262:128|278:173,1,70
329,252,12050,2,0,L|363:260,1,35
426,259,12136,2,0,L|460:253,1,35
384,105,12221,6,0,B|353:74|309:86,1,70
383,198,12393,1,0,0:0:0:0:
98,88,12564,6,0,L|92:122,1,35
91,185,12650,2,0,L|99:218,1,35
112,279,12735,2,0,L|108:313,1,35
397,166,12907,6,0,B|353:134|322:147,1,70
243,197,13079,2,0,L|234:231,1,35
236,294,13165,2,0,L|242:328,1,35
390,251,13250,6,0,B|423:210|409:176,1,70
239,67,13421,2,0,L|230:101,1,35
232,164,13507,2,0,L|238:198,1,35
303,265,13593,6,0,L|269:259,1,35
206,258,13679,2,0,L|173:266,1,35
112,279,13764,2,0,L|78:275,1,35
159,105,13935,6,0,P|216:90|190:149,1,140
260,180,14107,6,0,B|227:175|227:175|197:136,1,70
232,94,14278,6,0,L|266:88,1,35
329,87,14364,2,0,L|362:95,1,35
423,108,14449,2,0,L|457:104,1,35
293,317,14621,6,0,B|267:283|274:242,1,70
322,187,14793,2,0,L|357:178,1,35
404,209,14878,2,0,L|398:243,1,35
386,306,14964,6,0,B|351:331|311:325,1,70
256,258,15135,2,0,L|250:224,1,35
246,162,15221,2,0,L|211:154,1,35
156,91,15307,6,0,L|162:125,1,35
163,188,15393,2,0,L|155:221,1,35
142,282,15478,2,0,L|146:316,1,35
298,150,15650,5,0,0:0:0:0:
58,86,15821,6,0,L|52:120,1,35
51,183,15907,2,0,L|59:216,1,35
72,277,15992,2,0,L|68:311,1,35
137,331,16078,2,0,L|171:327,1,35
243,344,16164,1,0,0:0:0:0:
286,76,16335,6,0,P|339:85|381:133,1,105.000004005432
388,136,16507,6,0,B|401:182|368:214|330:214|294:201|282:172|280:138|283:119|283:119|284:91|271:77|252:62|225:57|203:61|175:79|163:106|165:122|175:153,1,398.999989345551
46,225,16850,5,0,0:0:0:0:
40,237,16935,1,0,0:0:0:0:
37,250,17021,1,0,0:0:0:0:
35,263,17107,1,0,0:0:0:0:
35,276,17193,1,0,0:0:0:0:
38,288,17278,1,0,0:0:0:0:
45,296,17364,5,0,0:0:0:0:
87,286,17450,1,0,0:0:0:0:
129,282,17535,1,0,0:0:0:0:
155,290,17621,5,0,0:0:0:0:
183,303,17707,1,0,0:0:0:0:
213,313,17793,1,0,0:0:0:0:
245,319,17878,1,0,0:0:0:0:
277,317,17964,1,0,0:0:0:0:
316,302,18050,5,0,0:0:0:0:
304,267,18136,1,0,0:0:0:0:
292,230,18221,1,0,0:0:0:0:
322,228,18307,5,0,0:0:0:0:
356,211,18393,1,0,0:0:0:0:
379,178,18478,1,0,0:0:0:0:
378,138,18564,1,0,0:0:0:0:
352,108,18650,1,0,0:0:0:0:
326,97,18735,5,0,0:0:0:0:
278,135,18821,1,0,0:0:0:0:
246,164,18907,6,0,L|211:158,1,35
135,151,18993,6,0,L|107:172,1,35
108,233,19078,6,0,L|120:265,1,35
164,310,19164,6,0,L|198:316,1,35
226,324,19250,6,0,B|247:311|261:298|270:276|266:250|262:233|250:213|250:213|274:222|291:229|304:263|308:302|295:339|295:339|309:303|323:295|343:288|366:286|388:292|405:306|414:324|420:344,1,420
480,331,19593,5,0,0:0:0:0:
462,281,19678,1,0,0:0:0:0:
444,231,19764,1,0,0:0:0:0:
426,181,19850,1,0,0:0:0:0:
289,130,19935,5,0,0:0:0:0:
273,191,20021,1,0,0:0:0:0:
290,251,20107,1,0,0:0:0:0:
342,280,20193,1,0,0:0:0:0:
271,63,20278,5,0,0:0:0:0:
208,85,20363,1,0,0:0:0:0:
146,108,20449,1,0,0:0:0:0:
83,130,20535,1,0,0:0:0:0:
115,310,20621,5,0,0:0:0:0:
176,326,20707,1,0,0:0:0:0:
236,309,20793,1,0,0:0:0:0:
265,257,20879,1,0,0:0:0:0:
259,194,20964,1,0,0:0:0:0:
222,143,21050,1,0,0:0:0:0:
162,134,21136,5,0,0:0:0:0:
150,141,21221,1,0,0:0:0:0:
142,153,21307,1,0,0:0:0:0:
145,166,21393,1,0,0:0:0:0:
154,176,21478,1,0,0:0:0:0:
167,178,21564,1,0,0:0:0:0:
182,176,21650,2,0,B|201:179|201:179|211:191,12,35
441,57,22335,5,0,0:0:0:0:
378,168,22507,1,0,0:0:0:0:
447,63,22678,1,0,0:0:0:0:
369,164,22850,1,0,0:0:0:0:
257,93,23021,5,0,0:0:0:0:
350,260,23193,1,0,0:0:0:0:
209,183,23364,5,0,0:0:0:0:
259,258,23535,1,0,0:0:0:0:
62,222,23707,5,0,0:0:0:0:
140,323,23879,1,0,0:0:0:0:
71,218,24050,1,0,0:0:0:0:
134,329,24222,1,0,0:0:0:0:
143,127,24393,5,0,0:0:0:0:
124,334,24564,1,0,0:0:0:0:
112,338,24735,1,0,0:0:0:0:
99,339,24907,1,0,0:0:0:0:
270,190,25078,5,0,0:0:0:0:
220,265,25250,1,0,0:0:0:0:
229,274,25421,1,0,0:0:0:0:
362,70,25593,5,0,0:0:0:0:
373,78,25764,1,0,0:0:0:0:
394,267,25935,5,0,0:0:0:0:
397,253,26106,1,0,0:0:0:0:
396,238,26278,5,0,0:0:0:0:
209,108,26450,5,0,0:0:0:0:
298,341,26621,5,0,0:0:0:0:
442,218,26793,5,0,0:0:0:0:
106,299,26964,5,0,0:0:0:0:
99,288,27135,1,0,0:0:0:0:
219,224,27307,5,0,0:0:0:0:
132,173,27478,1,0,0:0:0:0:
307,274,27650,1,0,0:0:0:0:
396,85,27821,6,0,L|401:141,1,52.5000020027161
400,288,27993,1,0,0:0:0:0:
405,85,28164,6,0,L|400:141,1,52.5000020027161
400,288,28335,1,0,0:0:0:0:
267,92,28507,5,0,0:0:0:0:
137,165,28678,1,0,0:0:0:0:
271,175,28850,5,0,0:0:0:0:
206,211,29021,1,0,0:0:0:0:
423,278,29193,5,0,0:0:0:0:
297,256,29365,1,0,0:0:0:0:
419,285,29536,1,0,0:0:0:0:
297,246,29708,1,0,0:0:0:0:
387,198,29878,5,0,0:0:0:0:
324,319,30050,1,0,0:0:0:0:
338,330,30221,1,0,0:0:0:0:
352,333,30393,1,0,0:0:0:0:
260,139,30564,5,0,0:0:0:0:
367,330,30735,1,0,0:0:0:0:
386,324,30907,1,0,0:0:0:0:
307,52,31078,5,0,0:0:0:0:
291,60,31250,1,0,0:0:0:0:
183,223,31421,5,0,0:0:0:0:
169,214,31593,1,0,0:0:0:0:
378,79,31764,5,0,0:0:0:0:
249,270,31935,5,0,0:0:0:0:
429,176,32107,5,0,0:0:0:0:
436,189,32278,1,0,0:0:0:0:
224,150,32450,5,0,0:0:0:0:
214,162,32621,1,0,0:0:0:0:
277,314,32793,5,0,0:0:0:0:
289,325,32964,1,0,0:0:0:0:
298,335,33135,1,0,0:0:0:0:
416,154,33307,5,0,0:0:0:0:
457,321,33478,1,0,0:0:0:0:
357,51,33650,5,0,0:0:0:0:
316,218,33821,1,0,0:0:0:0:
112,167,33993,5,0,0:0:0:0:
248,113,34164,1,0,0:0:0:0:
172,218,34335,5,0,0:0:0:0:
240,191,34506,1,0,0:0:0:0:
139,284,34678,5,0,0:0:0:0:
306,325,34849,1,0,0:0:0:0:
18,249,35021,5,0,0:0:0:0:
185,208,35193,1,0,0:0:0:0:
120,144,35364,5,0,0:0:0:0:
287,185,35536,1,0,0:0:0:0:
277,195,35707,1,0,0:0:0:0:
265,204,35878,5,0,0:0:0:0:
237,24,36050,1,0,0:0:0:0:
276,279,36221,1,0,0:0:0:0:
269,291,36393,5,0,0:0:0:0:
456,324,36564,1,0,0:0:0:0:
463,308,36735,1,0,0:0:0:0:
177,313,36907,1,0,0:0:0:0:
187,327,37078,1,0,0:0:0:0:
202,338,37250,5,0,0:0:0:0:
190,90,37422,5,0,0:0:0:0:
216,348,37593,5,0,0:0:0:0:
483,223,37765,5,0,0:0:0:0:
104,280,37936,5,0,0:0:0:0:
93,266,38107,1,0,0:0:0:0:
172,207,38278,5,0,0:0:0:0:
185,220,38450,1,0,0:0:0:0:
189,237,38621,1,0,0:0:0:0:
387,132,38793,5,0,0:0:0:0:
357,243,38964,1,0,0:0:0:0:
356,133,39135,5,0,0:0:0:0:
366,265,39306,1,0,0:0:0:0:
413,131,39478,5,0,0:0:0:0:
372,282,39649,1,0,0:0:0:0:
288,81,39821,5,0,0:0:0:0:
439,41,39992,1,0,0:0:0:0:
296,297,40164,5,0,0:0:0:0:
132,252,40335,1,0,0:0:0:0:
294,251,40506,5,0,0:0:0:0:
99,266,40677,1,0,0:0:0:0:
299,334,40849,5,0,0:0:0:0:
76,274,41020,1,0,0:0:0:0:
346,63,41193,5,0,0:0:0:0:
370,292,41364,1,0,0:0:0:0:
134,98,41535,5,0,0:0:0:0:
169,272,41706,1,0,0:0:0:0:
171,46,41877,5,0,0:0:0:0:
150,318,42048,1,0,0:0:0:0:
54,94,42220,5,0,0:0:0:0:
130,359,42391,1,0,0:0:0:0:
301,91,42564,5,0,0:0:0:0:
225,356,42735,1,0,0:0:0:0:
302,152,43593,5,0,0:0:0:0:
324,152,43678,1,0,0:0:0:0:
346,159,43764,1,0,0:0:0:0:
363,172,43850,1,0,0:0:0:0:
382,188,43935,5,0,0:0:0:0:
308,165,44021,1,0,0:0:0:0:
231,169,44107,1,0,0:0:0:0:
166,210,44193,1,0,0:0:0:0:
379,39,55250,6,0,L|453:69,1,52.5000020027161
474,86,55421,2,0,P|306:130|42:84,1,420
24,61,55764,2,0,P|203:166|410:193,1,420
466,177,56107,2,0,P|298:221|34:175,1,420
357,61,63478,6,0,L|336:77,1,15.7499995193482
344,70,63564,6,0,L|321:82,1,15.7499995193482
330,77,63650,6,0,L|305:85,1,15.7499995193482
314,81,63736,6,0,L|288:84,1,15.7499995193482
298,82,63821,6,0,L|272:81,1,15.7499995193482
282,81,63907,6,0,L|256:75,1,15.7499995193482
266,77,63993,6,0,L|242:67,1,15.7499995193482
251,70,64079,6,0,L|229:56,1,15.7499995193482
228,56,64164,5,0,0:0:0:0:
149,97,64249,1,0,0:0:0:0:
106,175,64335,1,0,0:0:0:0:
111,263,64421,1,0,0:0:0:0:
163,335,64506,1,0,0:0:0:0:
245,368,64592,1,0,0:0:0:0:
332,351,64678,1,0,0:0:0:0:
397,289,64763,1,0,0:0:0:0:
412,192,64850,2,0,L|396:235,1,31.4999990386963
435,124,65193,2,0,L|451:81,1,31.4999990386963
256,48,65535,6,0,L|258:61,5,7.87499975967408
256,320,65878,5,0,0:0:0:0:
67,174,66221,6,0,B|51:194|39:212|35:233|40:256|55:272|83:278|97:278|114:276|125:269|135:265|145:263|153:263|165:266|187:271|196:276|204:289|207:299|207:320|207:327|202:340|191:351|183:358|174:365,1,280
199,332,66393,2,0,P|146:263|293:274,1,280
280,219,66564,2,0,P|160:220|198:106,1,280
198,106,66735,2,0,B|209:130|195:136|171:143|143:133|130:110|135:81|153:56|176:44|217:38|252:78|274:101|301:119|358:104|401:79|431:46,1,280
426,70,66907,5,0,0:0:0:0:
417,164,66993,1,0,0:0:0:0:
408,258,67078,1,0,0:0:0:0:
400,324,67164,5,0,0:0:0:0:
408,258,67250,5,0,0:0:0:0:
417,164,67335,1,0,0:0:0:0:
426,70,67421,1,0,0:0:0:0:
50,76,67593,6,0,L|480:105,1,420
50,308,67935,6,0,L|480:279,1,420
46,153,68278,5,0,0:0:0:0:
185,162,68363,1,0,0:0:0:0:
325,171,68449,1,0,0:0:0:0:
465,181,68535,1,0,0:0:0:0:
473,193,68621,6,0,B|482:208|487:228|488:250|482:267|464:284|436:296|411:302|384:275|363:243|380:195|414:197|414:197|412:161|404:142|395:100|364:70|317:68|275:62|240:88|204:110|168:134|167:202|168:262|231:301|293:301|293:301,1,735.000028038026
284,297,68964,6,0,P|313:269|191:279,1,280
181,197,69135,2,0,B|192:221|178:227|154:234|126:224|113:201|118:172|136:147|159:135|200:129|235:169|257:192|284:210|341:195|384:170|414:137,1,280
482,266,69307,6,0,L|460:313,1,35
421,216,69393,6,0,L|384:252,1,35
380,148,69478,6,0,L|332:169,1,35
365,70,69564,6,0,L|313:74,1,35
247,156,69650,6,0,L|221:130,1,35
219,203,69736,2,0,L|186:187,1,35
208,258,69821,6,0,L|171:254,1,35
218,313,69907,2,0,L|182:322,1,35
103,157,69993,6,0,P|99:123|120:96,1,70
119,95,70164,2,0,P|123:129|103:157,1,70
462,76,70335,6,0,L|32:105,1,420
462,308,70677,6,0,L|32:279,1,420
37,264,71021,5,0,0:0:0:0:
78,272,71107,2,0,L|87:300,1,17.5
147,259,71193,1,0,0:0:0:0:
187,268,71278,2,0,L|196:296,1,17.5
232,275,71364,6,0,B|254:271|254:271|272:282|272:282|292:281|292:281|314:292|314:292|339:290,1,105
369,290,71707,6,0,P|386:253|275:304,1,280
239,231,71878,2,0,B|239:241|240:257|247:269|252:273|268:287|278:291|293:293|303:289|321:276|331:269|336:262|341:254|344:243|346:230|355:216|364:205|387:188|409:187|429:197|443:214|449:235|457:263,1,280
444,229,72050,2,0,P|390:232|440:85,1,280
418,80,72221,2,0,B|444:83|466:94|470:123|458:161|416:155|384:144|360:103|335:74|279:66|228:100,1,280
125,70,72393,5,0,0:0:0:0:
134,164,72479,1,0,0:0:0:0:
143,258,72564,1,0,0:0:0:0:
151,324,72650,5,0,0:0:0:0:
143,258,72736,5,0,0:0:0:0:
134,164,72821,1,0,0:0:0:0:
125,70,72907,1,0,0:0:0:0:
462,308,73078,6,0,L|32:279,1,420
462,76,73421,6,0,L|32:105,1,420
479,239,73764,5,0,0:0:0:0:
340,230,73849,1,0,0:0:0:0:
200,221,73935,1,0,0:0:0:0:
60,211,74021,1,0,0:0:0:0:
53,190,74107,6,0,B|32:173|29:147|41:118|61:98|99:100|132:118|138:161|111:192|111:192|126:184|140:162|188:115|241:122|288:159|316:231|350:318|190:383|135:306,1,630.000024032594
162,327,74450,6,0,B|136:324|114:313|110:284|122:246|170:230|201:257|220:304|241:347|301:341|352:307,1,280
317,324,74621,2,0,B|326:320|341:313|350:303|352:296|359:276|360:266|355:255|345:245|331:231|321:224|313:221|303:220|292:220|280:223|259:234|248:220|226:199|217:179|220:155|231:137|249:124|273:107,1,280
306,76,74793,6,0,L|328:29,1,35
367,126,74879,6,0,L|404:90,1,35
408,194,74964,6,0,L|456:173,1,35
423,272,75050,6,0,L|475:268,1,35
258,283,75136,6,0,L|232:309,1,35
230,236,75222,2,0,L|197:252,1,35
219,181,75307,6,0,L|182:185,1,35
229,126,75393,2,0,L|193:117,1,35
103,227,75478,6,0,P|99:261|120:288,1,70
119,289,75649,2,0,P|123:255|103:227,1,70
80,88,75821,6,0,B|168:136|168:136|224:120,1,157.500006008148
216,192,76164,2,0,B|272:176|272:176|360:224,1,157.500006008148
367,153,76507,2,0,B|417:181|417:181|446:277,1,157.500006008148
472,344,76850,5,0,0:0:0:0:
230,184,130678,6,0,B|225:162|223:143|234:129|245:121|265:112|286:117|308:127|321:151|312:171|301:199|272:200|272:200|277:221|287:239|301:253|330:258|357:256|376:244|397:231|407:210|414:185|418:167|412:151|406:132|390:114|373:109|359:106|349:106|334:111|334:111|341:93|356:82|365:76|392:71|412:73|435:82|446:91|461:93|465:117|467:148|482:168|485:198|470:226|462:256|436:294|402:309|363:323|320:326|286:312|264:284|245:280|237:274|237:274|201:247|159:265|156:289|152:313|153:348|172:370|213:367|235:352|249:343|254:321|244:291,1,1260
133,84,131707,6,0,L|164:90,7,17.5
125,103,132050,2,0,P|95:195|244:208,1,280
422,65,132393,2,0,P|330:35|317:184,1,280
452,232,132735,6,0,L|158:253,1,280
361,315,133078,2,0,L|67:336,1,280
348,74,133421,6,0,B|303:95|303:95|303:147|303:147|337:169,1,140
487,242,133593,1,0,0:0:0:0:
348,74,133764,6,0,B|383:109|383:109|365:157|365:157|325:167,1,140
159,184,133936,1,0,0:0:0:0:
