osu file format v14

[General]
AudioFilename: audio.mp3
AudioLeadIn: 0
PreviewTime: 89788
Countdown: 0
SampleSet: Normal
StackLeniency: 0.7
Mode: 1
LetterboxInBreaks: 0
WidescreenStoryboard: 0

[Editor]
Bookmarks: 5140,10266,29562,65743,68155,69361,91070,92276,94688,95894,97100,99512,101321,104336,105241,105542,106447
DistanceSpacing: 1.3
BeatDivisor: 4
GridSize: 32
TimelineZoom: 3.599999

[Metadata]
Title:Innocent Floor
TitleUnicode:Innocent Floor
Artist:P*Light
ArtistUnicode:P*Light
Creator:Raiden
Version:Raidcore
Source:SOUND VOLTEX III GRAVITY WARS
Tags:SDVX taiko Nardoxyribonucleic
BeatmapID:951709
BeatmapSetID:442554

[Difficulty]
HPDrainRate:6
CircleSize:2
OverallDifficulty:6.5
ApproachRate:10
SliderMultiplier:1.4
SliderTickRate:1

[Events]
//Background and Video events
0,0,"INO.png",0,0
//Break Periods
//Storyboard Layer 0 (Background)
//Storyboard Layer 1 (Fail)
//Storyboard Layer 2 (Pass)
//Storyboard Layer 3 (Foreground)
//Storyboard Sound Samples

[TimingPoints]
618,301.507537688442,4,1,0,80,1,0
49989,-133.333333333333,4,1,0,50,0,0
58432,-117.647058823529,4,1,0,65,0,0
63256,-105.263157894737,4,1,0,77,0,0
65668,-100,4,1,0,100,0,0
70567,-100,4,1,0,100,0,1
80517,-100,4,1,0,100,0,0
84964,-95.2380952380952,4,1,0,100,0,0
86170,-90.9090909090909,4,1,0,100,0,0
87376,-80,4,1,0,100,0,0
89864,-100,4,1,0,100,0,1
109160,-100,4,1,0,100,0,0

[HitObjects]
145,268,618,5,4,0:0:0:0:
138,119,768,1,0,1:0:0:0:
138,119,844,1,0,1:0:0:0:
380,270,919,1,8,1:0:0:0:
151,125,1070,1,0,1:0:0:0:
160,135,1145,1,0,1:0:0:0:
373,285,1221,1,8,1:0:0:0:
373,286,1296,1,8,1:0:0:0:
122,78,1371,1,0,1:0:0:0:
391,262,1522,1,8,1:0:0:0:
167,112,1673,1,0,1:0:0:0:
167,112,1748,1,0,1:0:0:0:
167,112,1824,1,0,1:0:0:0:
142,100,1974,1,0,0:0:0:0:
400,272,2125,1,8,0:0:0:0:
144,80,2276,1,0,0:0:0:0:
415,296,2351,1,8,0:0:0:0:
369,258,2427,1,8,0:0:0:0:
144,101,2502,1,0,0:0:0:0:
144,101,2577,1,0,0:0:0:0:
387,282,2728,1,8,0:0:0:0:
98,85,2803,1,0,0:0:0:0:
357,246,2879,1,8,0:0:0:0:
389,270,2954,1,8,0:0:0:0:
103,79,3030,1,0,0:0:0:0:
169,74,3180,1,0,0:0:0:0:
404,296,3331,1,8,0:0:0:0:
151,105,3482,1,0,0:0:0:0:
387,282,3557,1,8,0:0:0:0:
151,105,3633,1,0,0:0:0:0:
376,276,3708,1,8,0:0:0:0:
102,75,3783,1,0,0:0:0:0:
135,92,3859,1,0,0:0:0:0:
389,281,3934,1,8,0:0:0:0:
405,268,4085,1,8,0:0:0:0:
405,268,4160,1,8,0:0:0:0:
405,268,4236,1,8,0:0:0:0:
131,99,4386,1,0,0:0:0:0:
411,263,4537,1,8,0:0:0:0:
425,265,4688,1,8,0:0:0:0:
135,92,4763,1,0,0:0:0:0:
395,276,4839,1,8,0:0:0:0:
395,261,4914,1,8,0:0:0:0:
159,70,4989,1,0,0:0:0:0:
182,110,5065,1,0,0:0:0:0:
424,274,5140,5,8,0:0:0:0:
436,101,5291,1,12,0:0:0:0:
436,101,5442,1,12,0:0:0:0:
162,89,5592,1,0,0:0:0:0:
162,89,5668,1,0,0:0:0:0:
395,276,5743,1,8,0:0:0:0:
141,92,5894,1,0,0:0:0:0:
416,276,6045,1,8,0:0:0:0:
144,86,6195,1,0,0:0:0:0:
144,86,6271,1,0,0:0:0:0:
390,227,6346,1,8,0:0:0:0:
404,113,6497,1,12,0:0:0:0:
404,113,6648,1,12,0:0:0:0:
100,75,6798,1,0,0:0:0:0:
376,302,6874,1,8,0:0:0:0:
348,281,6949,1,8,0:0:0:0:
391,96,7100,1,12,0:0:0:0:
391,96,7251,1,12,0:0:0:0:
143,65,7401,1,0,0:0:0:0:
420,327,7477,1,8,0:0:0:0:
151,114,7552,1,0,0:0:0:0:
391,96,7703,1,12,0:0:0:0:
416,321,7854,1,8,0:0:0:0:
175,103,7929,1,0,0:0:0:0:
175,103,8004,1,0,0:0:0:0:
175,103,8080,1,0,0:0:0:0:
420,327,8155,1,8,0:0:0:0:
386,284,8231,1,8,0:0:0:0:
131,101,8306,1,0,0:0:0:0:
135,68,8381,1,0,0:0:0:0:
411,300,8457,1,8,0:0:0:0:
122,103,8532,1,0,0:0:0:0:
355,316,8607,1,8,0:0:0:0:
381,269,8683,1,8,0:0:0:0:
61,105,8758,1,0,0:0:0:0:
141,107,8834,1,0,0:0:0:0:
382,269,8909,1,8,0:0:0:0:
385,72,9060,1,12,0:0:0:0:
391,128,9286,1,12,0:0:0:0:
391,128,9512,1,12,0:0:0:0:
391,128,9738,1,12,0:0:0:0:
414,281,9964,1,8,0:0:0:0:
414,281,10040,1,8,0:0:0:0:
414,281,10115,1,8,0:0:0:0:
414,281,10190,1,8,0:0:0:0:
166,274,10266,5,4,0:0:0:0:
162,119,10416,1,0,0:0:0:0:
162,119,10492,1,0,0:0:0:0:
340,256,10567,1,8,0:0:0:0:
399,275,10718,1,8,0:0:0:0:
151,107,10869,1,0,0:0:0:0:
151,111,11020,1,0,0:0:0:0:
151,111,11095,1,0,0:0:0:0:
372,292,11170,1,8,0:0:0:0:
149,132,11246,1,0,0:0:0:0:
375,271,11321,1,8,0:0:0:0:
163,104,11472,1,0,0:0:0:0:
387,293,11623,1,8,0:0:0:0:
151,107,11698,1,0,0:0:0:0:
327,241,11773,1,8,0:0:0:0:
327,241,11849,1,8,0:0:0:0:
145,87,11924,1,0,0:0:0:0:
157,94,12075,1,0,0:0:0:0:
375,271,12226,1,8,0:0:0:0:
186,99,12301,1,0,0:0:0:0:
377,296,12376,1,8,0:0:0:0:
365,268,12527,1,8,0:0:0:0:
152,93,12678,1,0,0:0:0:0:
158,101,12829,1,0,0:0:0:0:
158,101,12904,1,0,0:0:0:0:
394,283,12979,1,8,0:0:0:0:
382,262,13130,1,8,0:0:0:0:
382,262,13205,1,8,0:0:0:0:
157,96,13281,1,0,0:0:0:0:
138,84,13432,1,0,0:0:0:0:
138,84,13507,1,0,0:0:0:0:
396,274,13582,1,8,0:0:0:0:
152,93,13658,1,0,0:0:0:0:
416,276,13733,1,8,0:0:0:0:
407,269,13808,1,8,0:0:0:0:
156,71,13884,1,0,0:0:0:0:
176,81,14035,1,0,0:0:0:0:
178,75,14110,1,0,0:0:0:0:
418,276,14185,1,8,0:0:0:0:
178,75,14336,1,0,0:0:0:0:
178,75,14411,1,0,0:0:0:0:
383,265,14487,1,8,0:0:0:0:
164,102,14562,1,0,0:0:0:0:
164,102,14638,1,0,0:0:0:0:
164,102,14713,1,0,0:0:0:0:
384,265,14788,1,8,0:0:0:0:
165,99,14864,1,0,0:0:0:0:
358,243,14939,1,8,0:0:0:0:
363,239,15014,1,8,0:0:0:0:
180,116,15090,1,0,0:0:0:0:
193,129,15241,1,0,0:0:0:0:
193,129,15316,1,0,0:0:0:0:
420,284,15391,1,8,0:0:0:0:
394,313,15542,1,8,0:0:0:0:
131,93,15693,1,0,0:0:0:0:
433,201,15844,1,0,0:0:0:0:
144,112,15919,1,0,0:0:0:0:
411,290,15994,1,8,0:0:0:0:
411,290,16070,1,8,0:0:0:0:
408,288,16145,1,8,0:0:0:0:
160,138,16221,1,0,0:0:0:0:
444,332,16296,1,8,0:0:0:0:
175,92,16447,1,0,0:0:0:0:
384,281,16597,1,8,0:0:0:0:
367,268,16673,1,8,0:0:0:0:
133,89,16748,1,0,0:0:0:0:
400,295,16824,1,8,0:0:0:0:
109,108,16899,1,0,0:0:0:0:
116,104,17050,1,0,0:0:0:0:
160,99,17125,1,0,0:0:0:0:
361,250,17200,1,8,0:0:0:0:
156,96,17276,1,0,0:0:0:0:
411,272,17351,1,8,0:0:0:0:
387,297,17427,1,8,0:0:0:0:
156,96,17502,1,0,0:0:0:0:
179,105,17653,1,0,0:0:0:0:
188,107,17728,1,0,0:0:0:0:
418,283,17803,1,8,0:0:0:0:
399,248,17954,1,8,0:0:0:0:
133,114,18105,1,0,0:0:0:0:
133,114,18180,1,0,0:0:0:0:
133,114,18256,1,0,0:0:0:0:
133,114,18331,1,0,0:0:0:0:
353,268,18406,1,8,0:0:0:0:
353,268,18482,1,8,0:0:0:0:
353,268,18557,1,8,0:0:0:0:
353,268,18633,1,8,0:0:0:0:
118,76,18708,1,0,0:0:0:0:
132,124,18859,1,0,0:0:0:0:
136,93,19009,1,0,0:0:0:0:
136,93,19085,1,0,0:0:0:0:
136,93,19160,1,0,0:0:0:0:
136,93,19236,1,0,0:0:0:0:
323,105,19311,1,12,0:0:0:0:
323,105,19537,1,12,0:0:0:0:
323,105,19763,1,12,0:0:0:0:
111,301,19914,1,4,0:0:0:0:
172,113,20065,1,0,0:0:0:0:
172,113,20140,1,0,0:0:0:0:
356,248,20215,1,8,0:0:0:0:
182,91,20366,1,0,0:0:0:0:
182,91,20442,1,0,0:0:0:0:
182,91,20517,1,0,0:0:0:0:
377,295,20668,1,8,0:0:0:0:
182,91,20743,1,0,0:0:0:0:
159,119,20894,1,0,0:0:0:0:
388,299,20969,1,8,0:0:0:0:
386,310,21045,1,8,0:0:0:0:
157,101,21120,1,0,0:0:0:0:
156,87,21271,1,0,0:0:0:0:
393,255,21422,1,8,0:0:0:0:
80,107,21572,1,0,0:0:0:0:
80,107,21648,1,0,0:0:0:0:
367,295,21723,1,8,0:0:0:0:
389,290,21798,1,8,0:0:0:0:
363,283,21949,1,8,0:0:0:0:
421,282,22025,1,8,0:0:0:0:
407,288,22175,1,8,0:0:0:0:
118,113,22326,1,0,0:0:0:0:
350,233,22477,1,8,0:0:0:0:
70,54,22552,1,0,0:0:0:0:
355,280,22628,1,8,0:0:0:0:
375,268,22778,1,8,0:0:0:0:
150,124,22854,1,0,0:0:0:0:
150,124,22929,1,0,0:0:0:0:
149,127,23080,1,0,0:0:0:0:
386,271,23155,1,8,0:0:0:0:
137,110,23306,1,0,0:0:0:0:
283,214,23381,1,8,0:0:0:0:
138,105,23532,1,0,0:0:0:0:
393,262,23683,1,8,0:0:0:0:
164,92,23758,1,0,0:0:0:0:
318,222,23834,1,8,0:0:0:0:
407,278,23984,1,8,0:0:0:0:
164,101,24135,1,0,0:0:0:0:
167,103,24286,1,0,0:0:0:0:
361,246,24361,1,8,0:0:0:0:
400,250,24512,1,8,0:0:0:0:
103,74,24587,1,0,0:0:0:0:
143,244,24738,1,4,0:0:0:0:
407,278,24889,1,8,0:0:0:0:
407,278,24964,1,8,0:0:0:0:
100,95,25040,1,0,0:0:0:0:
407,263,25190,1,8,0:0:0:0:
143,244,25341,1,4,0:0:0:0:
402,264,25492,1,8,0:0:0:0:
402,264,25567,1,8,0:0:0:0:
160,96,25643,1,0,0:0:0:0:
382,236,25793,1,8,0:0:0:0:
143,244,25944,1,4,0:0:0:0:
402,240,26095,1,8,0:0:0:0:
143,244,26246,1,4,0:0:0:0:
402,240,26396,1,8,0:0:0:0:
131,89,26547,1,0,0:0:0:0:
162,88,26623,1,0,0:0:0:0:
162,88,26698,1,0,0:0:0:0:
162,88,26773,1,0,0:0:0:0:
373,244,26849,1,8,0:0:0:0:
374,244,26924,1,8,0:0:0:0:
374,244,26999,1,8,0:0:0:0:
375,244,27075,1,8,0:0:0:0:
124,108,27150,1,0,0:0:0:0:
395,236,27301,1,8,0:0:0:0:
395,236,27376,1,8,0:0:0:0:
176,96,27452,1,0,0:0:0:0:
165,104,27602,1,0,0:0:0:0:
165,104,27678,1,0,0:0:0:0:
406,237,27753,1,8,0:0:0:0:
202,122,27829,1,0,0:0:0:0:
349,219,27904,1,8,0:0:0:0:
349,219,27979,1,8,0:0:0:0:
350,219,28055,1,8,0:0:0:0:
387,227,28205,1,8,0:0:0:0:
386,227,28281,1,8,0:0:0:0:
187,92,28356,1,0,0:0:0:0:
367,248,28507,1,8,0:0:0:0:
141,111,28658,1,0,0:0:0:0:
393,237,28808,1,8,0:0:0:0:
391,247,28959,1,8,0:0:0:0:
389,244,29009,1,8,0:0:0:0:
389,244,29060,1,8,0:0:0:0:
389,244,29110,1,8,0:0:0:0:
389,244,29160,1,8,0:0:0:0:
389,243,29210,1,8,0:0:0:0:
133,72,29261,1,0,0:0:0:0:
111,301,29562,5,4,0:0:0:0:
172,113,29713,1,0,0:0:0:0:
172,113,29788,1,0,0:0:0:0:
356,248,29863,1,8,0:0:0:0:
182,91,30014,1,0,0:0:0:0:
182,91,30090,1,0,0:0:0:0:
182,91,30165,1,0,0:0:0:0:
377,295,30316,1,8,0:0:0:0:
182,91,30391,1,0,0:0:0:0:
159,119,30542,1,0,0:0:0:0:
388,299,30617,1,8,0:0:0:0:
386,310,30693,1,8,0:0:0:0:
157,101,30768,1,0,0:0:0:0:
156,87,30919,1,0,0:0:0:0:
393,255,31070,1,8,0:0:0:0:
80,107,31220,1,0,0:0:0:0:
80,107,31296,1,0,0:0:0:0:
367,295,31371,1,8,0:0:0:0:
389,290,31446,1,8,0:0:0:0:
10,49,31597,1,0,0:0:0:0:
421,282,31673,1,8,0:0:0:0:
407,288,31823,1,8,0:0:0:0:
118,113,31974,1,0,0:0:0:0:
350,233,32125,1,8,0:0:0:0:
70,54,32200,1,0,0:0:0:0:
355,280,32351,1,8,0:0:0:0:
375,268,32426,1,8,0:0:0:0:
150,124,32577,1,0,0:0:0:0:
149,127,32728,1,0,0:0:0:0:
386,271,32803,1,8,0:0:0:0:
137,110,32954,1,0,0:0:0:0:
283,214,33029,1,8,0:0:0:0:
138,105,33180,1,0,0:0:0:0:
393,262,33331,1,8,0:0:0:0:
164,92,33406,1,0,0:0:0:0:
318,222,33557,1,8,0:0:0:0:
407,278,33632,1,8,0:0:0:0:
164,101,33783,1,0,0:0:0:0:
167,103,33934,1,0,0:0:0:0:
361,246,34009,1,8,0:0:0:0:
103,74,34160,1,0,0:0:0:0:
400,250,34235,1,8,0:0:0:0:
143,244,34386,1,4,0:0:0:0:
407,278,34537,1,8,0:0:0:0:
407,278,34612,1,8,0:0:0:0:
100,95,34688,1,0,0:0:0:0:
151,91,34838,1,0,0:0:0:0:
407,263,34914,1,8,0:0:0:0:
143,244,34989,1,0,0:0:0:0:
402,264,35140,1,8,0:0:0:0:
402,264,35215,1,8,0:0:0:0:
160,96,35366,1,0,0:0:0:0:
382,236,35441,1,8,0:0:0:0:
143,244,35592,1,4,0:0:0:0:
358,257,35743,1,8,0:0:0:0:
358,257,35819,1,8,0:0:0:0:
180,141,35894,1,0,0:0:0:0:
170,135,36045,1,0,0:0:0:0:
356,268,36195,1,8,0:0:0:0:
337,257,36271,1,0,0:0:0:0:
169,123,36346,1,0,0:0:0:0:
353,265,36422,1,8,0:0:0:0:
192,128,36497,1,0,0:0:0:0:
168,116,36572,1,0,0:0:0:0:
384,256,36648,1,8,0:0:0:0:
382,98,36798,1,12,0:0:0:0:
382,98,37025,1,12,0:0:0:0:
382,98,37251,1,12,0:0:0:0:
87,297,37401,1,4,0:0:0:0:
135,285,37628,1,4,0:0:0:0:
382,98,37854,1,12,0:0:0:0:
87,297,38004,1,4,0:0:0:0:
87,297,38231,1,4,0:0:0:0:
87,297,38457,1,4,0:0:0:0:
373,83,38607,1,12,0:0:0:0:
373,83,38834,1,12,0:0:0:0:
118,294,39060,1,4,0:0:0:0:
136,128,39210,5,0,0:0:0:0:
472,337,39286,1,8,0:0:0:0:
449,302,39361,1,8,0:0:0:0:
160,142,39437,1,0,0:0:0:0:
468,294,39512,1,8,0:0:0:0:
468,294,39587,1,8,0:0:0:0:
158,118,39663,1,0,0:0:0:0:
150,112,39738,1,0,0:0:0:0:
371,264,39813,1,8,0:0:0:0:
146,116,39889,1,0,0:0:0:0:
322,232,39964,1,8,0:0:0:0:
322,232,40040,1,8,0:0:0:0:
322,232,40115,1,8,0:0:0:0:
149,102,40190,1,0,0:0:0:0:
391,229,40266,1,8,0:0:0:0:
417,259,40341,1,8,0:0:0:0:
391,97,40567,1,12,0:0:0:0:
391,97,40718,1,12,0:0:0:0:
391,97,41020,1,12,0:0:0:0:
175,305,41246,1,4,0:0:0:0:
391,97,41472,1,12,0:0:0:0:
175,305,41623,1,4,0:0:0:0:
135,277,41849,1,4,0:0:0:0:
135,277,42075,1,4,0:0:0:0:
391,97,42226,1,12,0:0:0:0:
230,261,42452,1,4,0:0:0:0:
140,282,42678,1,4,0:0:0:0:
391,97,42829,1,12,0:0:0:0:
391,97,43055,1,12,0:0:0:0:
178,281,43281,1,4,0:0:0:0:
391,97,43432,1,12,0:0:0:0:
391,97,43658,1,12,0:0:0:0:
391,97,43884,1,12,0:0:0:0:
73,350,44035,1,4,0:0:0:0:
435,314,44185,1,8,0:0:0:0:
219,155,44261,1,0,0:0:0:0:
433,332,44336,1,8,0:0:0:0:
433,280,44487,1,8,0:0:0:0:
189,114,44638,1,4,0:0:0:0:
424,265,44788,1,8,0:0:0:0:
425,265,44864,1,8,0:0:0:0:
151,106,44939,1,0,0:0:0:0:
431,290,45090,1,8,0:0:0:0:
157,63,45241,1,4,0:0:0:0:
322,212,45391,1,8,0:0:0:0:
387,235,45467,1,8,0:0:0:0:
387,235,45542,1,8,0:0:0:0:
215,105,45693,1,4,0:0:0:0:
215,105,45844,1,4,0:0:0:0:
383,241,45994,1,8,0:0:0:0:
170,83,46070,1,0,0:0:0:0:
368,230,46296,1,12,0:0:0:0:
189,94,46447,1,0,0:0:0:0:
189,94,46522,1,0,0:0:0:0:
189,94,46673,1,4,0:0:0:0:
157,93,46899,1,0,0:0:0:0:
423,264,46974,1,8,0:0:0:0:
423,264,47050,1,8,0:0:0:0:
167,75,47125,1,0,0:0:0:0:
386,244,47200,1,8,0:0:0:0:
387,238,47276,1,8,0:0:0:0:
384,236,47351,1,8,0:0:0:0:
127,67,47427,1,0,0:0:0:0:
377,242,47502,1,8,0:0:0:0:
162,88,47577,1,0,0:0:0:0:
345,242,47653,1,8,0:0:0:0:
296,227,47728,1,8,0:0:0:0:
157,93,47879,1,4,0:0:0:0:
170,101,48105,1,0,0:0:0:0:
411,250,48256,1,8,0:0:0:0:
151,94,48331,1,0,0:0:0:0:
311,225,48406,1,8,0:0:0:0:
364,237,48482,1,8,0:0:0:0:
138,82,48557,1,0,0:0:0:0:
336,215,48633,1,8,0:0:0:0:
334,213,48708,1,8,0:0:0:0:
98,47,48783,1,0,0:0:0:0:
256,192,48859,12,0,49914,0:0:0:0:
159,102,50065,5,0,0:0:0:0:
223,107,51271,1,0,0:0:0:0:
223,107,52477,1,0,0:0:0:0:
223,107,53683,1,0,0:0:0:0:
223,107,54889,1,0,0:0:0:0:
223,107,56095,1,0,0:0:0:0:
223,107,57301,1,0,0:0:0:0:
160,254,58507,5,4,0:0:0:0:
168,148,58658,1,0,0:0:0:0:
168,148,58733,1,0,0:0:0:0:
168,148,58884,1,0,0:0:0:0:
358,266,58959,1,8,0:0:0:0:
367,258,59110,1,8,0:0:0:0:
367,258,59261,1,8,0:0:0:0:
367,258,59336,1,8,0:0:0:0:
149,103,59487,1,0,0:0:0:0:
397,262,59562,1,8,0:0:0:0:
397,262,59713,1,8,0:0:0:0:
374,250,59864,1,8,0:0:0:0:
180,114,59939,1,0,0:0:0:0:
189,123,60090,1,0,0:0:0:0:
411,262,60165,1,8,0:0:0:0:
411,262,60316,1,8,0:0:0:0:
397,253,60467,1,8,0:0:0:0:
397,253,60542,1,8,0:0:0:0:
169,137,60693,1,0,0:0:0:0:
438,289,60768,1,8,0:0:0:0:
163,103,60919,1,0,0:0:0:0:
393,285,61070,1,8,0:0:0:0:
164,109,61145,1,0,0:0:0:0:
163,108,61296,1,0,0:0:0:0:
426,289,61371,1,8,0:0:0:0:
426,289,61522,1,8,0:0:0:0:
191,123,61673,1,0,0:0:0:0:
387,263,61748,1,8,0:0:0:0:
183,117,61899,1,0,0:0:0:0:
388,265,61974,1,8,0:0:0:0:
382,271,62125,1,8,0:0:0:0:
396,278,62276,1,8,0:0:0:0:
148,138,62351,1,0,0:0:0:0:
124,87,62502,1,0,0:0:0:0:
124,87,62577,1,0,0:0:0:0:
394,263,62728,1,8,0:0:0:0:
125,109,62879,1,0,0:0:0:0:
187,142,62954,1,0,0:0:0:0:
158,120,63105,1,0,0:0:0:0:
361,273,63180,1,8,0:0:0:0:
155,276,63331,5,4,0:0:0:0:
160,118,63482,1,0,0:0:0:0:
160,118,63557,1,0,0:0:0:0:
401,289,63633,1,8,0:0:0:0:
138,112,63708,1,0,0:0:0:0:
138,112,63859,1,0,0:0:0:0:
400,266,63934,1,8,0:0:0:0:
177,118,64009,5,0,0:0:0:0:
322,236,64160,1,8,0:0:0:0:
347,256,64236,1,0,0:0:0:0:
363,259,64386,1,8,0:0:0:0:
139,261,64537,1,4,0:0:0:0:
155,98,64688,1,0,0:0:0:0:
344,229,64763,1,8,0:0:0:0:
399,298,64839,1,8,0:0:0:0:
138,84,64914,1,0,0:0:0:0:
106,110,65065,1,0,0:0:0:0:
350,266,65140,1,8,0:0:0:0:
352,270,65215,1,8,0:0:0:0:
80,99,65291,1,0,0:0:0:0:
407,267,65366,1,8,0:0:0:0:
136,90,65517,1,0,0:0:0:0:
376,275,65592,1,8,0:0:0:0:
438,338,65743,5,8,0:0:0:0:
169,111,65819,1,0,0:0:0:0:
169,111,65894,1,0,0:0:0:0:
410,292,65969,1,8,0:0:0:0:
409,283,66045,1,8,0:0:0:0:
180,106,66120,1,0,0:0:0:0:
409,283,66195,1,8,0:0:0:0:
158,101,66271,1,0,0:0:0:0:
409,283,66346,1,8,0:0:0:0:
158,101,66422,1,0,0:0:0:0:
126,65,66497,1,0,0:0:0:0:
459,307,66572,1,8,0:0:0:0:
396,290,66648,1,8,0:0:0:0:
226,86,66723,1,0,0:0:0:0:
396,290,66798,1,8,0:0:0:0:
129,110,66874,1,0,0:0:0:0:
414,266,66949,1,8,0:0:0:0:
425,242,67025,1,8,0:0:0:0:
233,90,67100,1,0,0:0:0:0:
378,257,67175,1,8,0:0:0:0:
412,283,67251,1,8,0:0:0:0:
177,88,67326,1,0,0:0:0:0:
385,278,67401,1,8,0:0:0:0:
146,98,67477,1,0,0:0:0:0:
378,256,67552,1,8,0:0:0:0:
387,272,67628,1,8,0:0:0:0:
120,106,67703,1,0,0:0:0:0:
362,270,67778,1,8,0:0:0:0:
367,264,67854,1,8,0:0:0:0:
156,96,67929,1,0,0:0:0:0:
422,256,68004,1,8,0:0:0:0:
411,272,68079,1,8,0:0:0:0:
256,192,68155,12,0,69210,0:0:0:0:
160,74,69361,5,0,0:0:0:0:
147,77,69437,1,0,0:0:0:0:
382,274,69587,1,8,0:0:0:0:
382,274,69663,1,8,0:0:0:0:
382,274,69813,1,8,0:0:0:0:
382,274,69889,1,8,0:0:0:0:
112,63,69964,5,0,0:0:0:0:
112,63,70014,1,0,0:0:0:0:
112,63,70065,1,0,0:0:0:0:
112,63,70115,1,0,0:0:0:0:
112,63,70165,1,0,0:0:0:0:
112,63,70215,1,0,0:0:0:0:
400,312,70266,1,8,0:0:0:0:
160,254,70567,5,4,0:0:0:0:
168,148,70718,1,0,0:0:0:0:
168,148,70793,1,0,0:0:0:0:
168,148,70944,1,0,0:0:0:0:
358,266,71019,1,8,0:0:0:0:
367,258,71170,1,8,0:0:0:0:
153,95,71246,1,0,0:0:0:0:
367,258,71321,1,8,0:0:0:0:
367,258,71396,1,8,0:0:0:0:
149,103,71547,1,0,0:0:0:0:
397,262,71622,1,8,0:0:0:0:
397,262,71773,1,8,0:0:0:0:
374,250,71924,1,8,0:0:0:0:
180,114,71999,1,0,0:0:0:0:
189,123,72150,1,0,0:0:0:0:
411,262,72225,1,8,0:0:0:0:
153,95,72301,1,0,0:0:0:0:
411,262,72376,1,8,0:0:0:0:
397,253,72527,1,8,0:0:0:0:
397,253,72602,1,8,0:0:0:0:
169,137,72753,1,0,0:0:0:0:
438,289,72828,1,8,0:0:0:0:
163,103,72979,1,0,0:0:0:0:
393,285,73130,1,8,0:0:0:0:
164,109,73205,1,0,0:0:0:0:
163,108,73356,1,0,0:0:0:0:
426,289,73431,1,8,0:0:0:0:
438,289,73507,1,8,0:0:0:0:
426,289,73582,1,8,0:0:0:0:
191,123,73733,1,0,0:0:0:0:
387,263,73808,1,8,0:0:0:0:
183,117,73959,1,0,0:0:0:0:
388,265,74034,1,8,0:0:0:0:
382,271,74185,1,8,0:0:0:0:
396,278,74336,1,8,0:0:0:0:
148,138,74411,1,0,0:0:0:0:
124,87,74562,1,0,0:0:0:0:
124,87,74637,1,0,0:0:0:0:
405,265,74713,1,8,0:0:0:0:
394,263,74788,1,8,0:0:0:0:
125,109,74939,1,0,0:0:0:0:
187,142,75014,1,0,0:0:0:0:
158,120,75165,1,0,0:0:0:0:
361,273,75240,1,8,0:0:0:0:
385,275,75391,5,8,0:0:0:0:
160,118,75542,1,0,0:0:0:0:
358,280,75617,1,8,0:0:0:0:
138,112,75768,1,0,0:0:0:0:
138,112,75844,1,0,0:0:0:0:
400,266,75994,1,8,0:0:0:0:
113,107,76069,5,0,0:0:0:0:
322,236,76220,1,8,0:0:0:0:
134,87,76296,1,0,0:0:0:0:
395,328,76371,1,8,0:0:0:0:
363,259,76446,1,8,0:0:0:0:
139,261,76597,1,0,0:0:0:0:
155,98,76748,1,0,0:0:0:0:
344,229,76823,1,8,0:0:0:0:
399,298,76899,1,8,0:0:0:0:
138,84,76974,1,0,0:0:0:0:
106,110,77125,1,0,0:0:0:0:
350,266,77200,1,8,0:0:0:0:
352,270,77275,1,8,0:0:0:0:
80,99,77351,1,0,0:0:0:0:
407,267,77426,1,8,0:0:0:0:
136,90,77577,1,0,0:0:0:0:
376,275,77652,1,8,0:0:0:0:
164,119,77728,1,0,0:0:0:0:
351,230,77803,1,8,0:0:0:0:
187,101,77954,1,0,0:0:0:0:
187,101,78030,1,0,0:0:0:0:
366,239,78180,1,8,0:0:0:0:
151,105,78256,1,0,0:0:0:0:
345,247,78406,1,8,0:0:0:0:
185,141,78557,1,0,0:0:0:0:
349,263,78633,1,8,0:0:0:0:
334,257,78783,1,8,0:0:0:0:
188,137,78859,1,0,0:0:0:0:
383,103,79009,1,12,0:0:0:0:
185,264,79236,1,4,0:0:0:0:
383,103,79462,1,12,0:0:0:0:
185,264,79612,1,4,0:0:0:0:
383,103,79839,1,12,0:0:0:0:
157,294,80065,1,4,0:0:0:0:
193,312,80517,5,4,0:0:0:0:
156,134,80668,1,0,0:0:0:0:
156,134,80743,1,0,0:0:0:0:
429,259,80819,1,8,0:0:0:0:
156,134,80969,1,0,0:0:0:0:
156,134,81045,1,0,0:0:0:0:
156,134,81120,1,0,0:0:0:0:
156,134,81271,1,0,0:0:0:0:
473,279,81422,1,8,0:0:0:0:
162,100,81572,1,0,0:0:0:0:
148,56,81648,1,0,0:0:0:0:
136,84,81723,1,0,0:0:0:0:
156,91,81874,1,0,0:0:0:0:
406,257,82025,1,8,0:0:0:0:
418,265,82175,1,8,0:0:0:0:
418,265,82251,1,8,0:0:0:0:
133,127,82326,1,0,0:0:0:0:
169,110,82477,1,0,0:0:0:0:
420,280,82628,1,8,0:0:0:0:
169,110,82778,1,0,0:0:0:0:
352,288,82854,1,8,0:0:0:0:
384,256,82929,1,8,0:0:0:0:
370,256,83080,1,8,0:0:0:0:
462,262,83231,1,8,0:0:0:0:
119,80,83381,1,0,0:0:0:0:
138,99,83457,1,0,0:0:0:0:
391,201,83532,1,8,0:0:0:0:
420,259,83683,1,8,0:0:0:0:
142,108,83834,1,0,0:0:0:0:
142,108,83984,1,0,0:0:0:0:
142,108,84060,1,0,0:0:0:0:
435,282,84135,1,8,0:0:0:0:
164,92,84286,1,0,0:0:0:0:
384,288,84437,1,8,0:0:0:0:
368,274,84512,1,8,0:0:0:0:
82,13,84587,1,0,0:0:0:0:
429,313,84738,1,8,0:0:0:0:
159,58,84889,1,0,0:0:0:0:
179,262,85040,1,4,0:0:0:0:
179,262,85190,1,4,0:0:0:0:
175,247,85341,1,4,0:0:0:0:
175,247,85492,1,4,0:0:0:0:
404,111,85643,1,12,0:0:0:0:
404,111,85793,1,12,0:0:0:0:
400,96,85944,1,12,0:0:0:0:
400,96,86095,1,12,0:0:0:0:
179,262,86246,1,4,0:0:0:0:
363,106,86396,1,12,0:0:0:0:
359,91,86547,1,12,0:0:0:0:
359,91,86698,1,12,0:0:0:0:
372,88,86849,1,12,0:0:0:0:
179,262,86999,1,4,0:0:0:0:
395,82,87150,1,12,0:0:0:0:
175,247,87301,1,4,0:0:0:0:
411,265,87452,1,8,0:0:0:0:
173,81,87527,1,0,0:0:0:0:
173,81,87602,1,0,0:0:0:0:
173,81,87678,1,0,0:0:0:0:
371,268,87753,1,8,0:0:0:0:
371,268,87829,1,8,0:0:0:0:
164,98,87904,1,0,0:0:0:0:
136,110,87979,1,0,0:0:0:0:
391,269,88055,1,8,0:0:0:0:
158,85,88130,1,0,0:0:0:0:
128,85,88205,1,0,0:0:0:0:
128,85,88281,1,0,0:0:0:0:
356,249,88356,1,8,0:0:0:0:
352,233,88507,1,8,0:0:0:0:
58,275,88808,2,0,L|465:81,1,437.5
156,323,89864,5,4,0:0:0:0:
153,78,90014,1,0,0:0:0:0:
344,250,90090,1,8,0:0:0:0:
164,81,90165,1,0,0:0:0:0:
164,81,90241,1,0,0:0:0:0:
338,235,90316,1,8,0:0:0:0:
179,93,90391,1,0,0:0:0:0:
344,250,90467,1,8,0:0:0:0:
344,250,90542,1,8,0:0:0:0:
142,80,90617,1,0,0:0:0:0:
139,82,90693,1,0,0:0:0:0:
341,259,90768,1,8,0:0:0:0:
166,94,90844,1,0,0:0:0:0:
311,221,90919,1,8,0:0:0:0:
315,221,90994,1,8,0:0:0:0:
137,75,91070,1,0,0:0:0:0:
171,62,91145,1,0,0:0:0:0:
364,279,91221,1,8,0:0:0:0:
189,112,91296,1,0,0:0:0:0:
388,274,91371,1,8,0:0:0:0:
382,273,91447,1,8,0:0:0:0:
367,285,91522,1,8,0:0:0:0:
124,59,91597,1,0,0:0:0:0:
380,265,91673,1,8,0:0:0:0:
178,105,91748,1,0,0:0:0:0:
409,327,91824,1,8,0:0:0:0:
406,297,91899,1,8,0:0:0:0:
406,297,91974,1,8,0:0:0:0:
159,101,92050,1,0,0:0:0:0:
365,255,92125,1,8,0:0:0:0:
347,230,92200,1,8,0:0:0:0:
203,116,92276,1,0,0:0:0:0:
200,121,92427,1,0,0:0:0:0:
200,121,92502,1,0,0:0:0:0:
200,122,92653,1,0,0:0:0:0:
351,218,92728,1,8,0:0:0:0:
187,76,92879,1,0,0:0:0:0:
191,87,93030,1,0,0:0:0:0:
365,255,93105,1,8,0:0:0:0:
338,253,93256,1,8,0:0:0:0:
338,253,93331,1,8,0:0:0:0:
337,249,93482,1,8,0:0:0:0:
334,252,93633,1,8,0:0:0:0:
107,91,93708,1,0,0:0:0:0:
107,91,93859,1,0,0:0:0:0:
351,285,93934,1,8,0:0:0:0:
351,285,94085,1,8,0:0:0:0:
370,254,94236,1,8,0:0:0:0:
370,254,94311,1,8,0:0:0:0:
137,114,94462,1,0,0:0:0:0:
380,257,94537,1,8,0:0:0:0:
153,78,94688,1,0,0:0:0:0:
344,250,94764,1,8,0:0:0:0:
164,81,94839,1,0,0:0:0:0:
164,81,94915,1,0,0:0:0:0:
338,235,94990,1,8,0:0:0:0:
179,93,95065,1,0,0:0:0:0:
344,250,95141,1,8,0:0:0:0:
344,250,95216,1,8,0:0:0:0:
307,257,95291,1,8,0:0:0:0:
139,82,95367,1,0,0:0:0:0:
341,259,95442,1,8,0:0:0:0:
166,94,95518,1,0,0:0:0:0:
311,221,95593,1,8,0:0:0:0:
315,221,95668,1,8,0:0:0:0:
137,75,95744,1,0,0:0:0:0:
171,62,95819,1,0,0:0:0:0:
364,279,95895,1,8,0:0:0:0:
189,112,95970,1,0,0:0:0:0:
176,50,96045,1,0,0:0:0:0:
382,273,96121,1,8,0:0:0:0:
367,285,96196,1,8,0:0:0:0:
124,59,96271,1,0,0:0:0:0:
380,265,96347,1,8,0:0:0:0:
178,105,96422,1,0,0:0:0:0:
409,327,96498,1,8,0:0:0:0:
406,297,96573,1,8,0:0:0:0:
406,297,96648,1,8,0:0:0:0:
159,101,96724,1,0,0:0:0:0:
365,255,96799,1,8,0:0:0:0:
167,87,96874,1,0,0:0:0:0:
448,331,96950,1,8,0:0:0:0:
395,276,97025,1,8,0:0:0:0:
154,112,97100,1,0,0:0:0:0:
363,117,97326,1,12,0:0:0:0:
359,117,97552,1,12,0:0:0:0:
135,114,97703,1,4,0:0:0:0:
391,103,97929,1,12,0:0:0:0:
380,106,98155,1,12,0:0:0:0:
139,114,98306,1,4,0:0:0:0:
405,131,98532,1,12,0:0:0:0:
405,131,98758,1,12,0:0:0:0:
405,131,98909,1,12,0:0:0:0:
135,114,99135,1,4,0:0:0:0:
135,114,99361,1,4,0:0:0:0:
418,275,99512,1,8,0:0:0:0:
150,115,99587,1,0,0:0:0:0:
418,275,99663,1,8,0:0:0:0:
418,275,99738,1,8,0:0:0:0:
165,122,99813,1,0,0:0:0:0:
167,123,99889,1,0,0:0:0:0:
357,288,99964,1,8,0:0:0:0:
199,128,100040,1,0,0:0:0:0:
376,270,100115,1,8,0:0:0:0:
135,114,100190,1,0,0:0:0:0:
135,114,100266,1,0,0:0:0:0:
380,247,100341,1,8,0:0:0:0:
380,247,100416,1,8,0:0:0:0:
367,263,100492,1,8,0:0:0:0:
138,96,100567,1,0,0:0:0:0:
367,263,100643,1,8,0:0:0:0:
365,248,100718,1,8,0:0:0:0:
168,99,100793,1,0,0:0:0:0:
372,232,100869,1,8,0:0:0:0:
372,232,100944,1,8,0:0:0:0:
174,109,101020,1,0,0:0:0:0:
344,239,101095,1,8,0:0:0:0:
133,79,101170,1,0,0:0:0:0:
133,79,101246,1,0,0:0:0:0:
189,66,101321,1,0,0:0:0:0:
380,247,101396,1,8,0:0:0:0:
356,92,101547,1,12,0:0:0:0:
331,82,101773,1,12,0:0:0:0:
366,255,101924,1,8,0:0:0:0:
366,255,101999,1,8,0:0:0:0:
309,30,102150,1,12,0:0:0:0:
339,72,102376,1,12,0:0:0:0:
126,271,102527,1,4,0:0:0:0:
350,107,102753,1,12,0:0:0:0:
350,107,102979,1,12,0:0:0:0:
371,266,103130,1,8,0:0:0:0:
371,266,103205,1,8,0:0:0:0:
371,266,103356,1,8,0:0:0:0:
371,266,103432,1,8,0:0:0:0:
371,266,103582,1,8,0:0:0:0:
371,266,103658,1,8,0:0:0:0:
156,73,103733,1,0,0:0:0:0:
353,84,103959,1,12,0:0:0:0:
353,84,104185,1,12,0:0:0:0:
156,73,104336,5,0,0:0:0:0:
156,73,104411,1,0,0:0:0:0:
367,260,104487,1,8,0:0:0:0:
130,66,104562,1,0,0:0:0:0:
404,296,104638,1,8,0:0:0:0:
147,65,104713,1,0,0:0:0:0:
374,265,104788,1,8,0:0:0:0:
374,265,104864,1,8,0:0:0:0:
120,56,104939,1,0,0:0:0:0:
397,286,105014,1,8,0:0:0:0:
397,286,105090,1,8,0:0:0:0:
156,73,105165,1,0,0:0:0:0:
413,296,105241,5,8,0:0:0:0:
151,96,105542,1,0,0:0:0:0:
404,296,105617,1,8,0:0:0:0:
353,243,105693,1,8,0:0:0:0:
144,70,105768,1,0,0:0:0:0:
356,228,105844,1,8,0:0:0:0:
148,69,105919,1,0,0:0:0:0:
359,248,105994,1,8,0:0:0:0:
353,243,106070,1,8,0:0:0:0:
392,235,106145,1,8,0:0:0:0:
151,96,106221,1,0,0:0:0:0:
373,211,106296,1,8,0:0:0:0:
375,204,106371,1,8,0:0:0:0:
156,35,106447,1,0,0:0:0:0:
149,60,106522,1,0,0:0:0:0:
402,274,106597,1,8,0:0:0:0:
382,260,106673,1,8,0:0:0:0:
153,74,106748,1,0,0:0:0:0:
153,80,106899,1,0,0:0:0:0:
153,80,106974,1,0,0:0:0:0:
153,81,107125,1,0,0:0:0:0:
374,265,107200,1,8,0:0:0:0:
186,91,107351,1,0,0:0:0:0:
362,246,107502,1,8,0:0:0:0:
171,74,107577,1,0,0:0:0:0:
171,74,107728,1,0,0:0:0:0:
407,268,107803,1,8,0:0:0:0:
408,268,107954,1,8,0:0:0:0:
408,268,108105,1,8,0:0:0:0:
408,268,108180,1,8,0:0:0:0:
111,96,108331,1,0,0:0:0:0:
407,268,108406,1,8,0:0:0:0:
387,256,108557,1,8,0:0:0:0:
133,82,108633,1,0,0:0:0:0:
401,272,108708,1,8,0:0:0:0:
369,244,108783,1,8,0:0:0:0:
168,100,108859,1,0,0:0:0:0:
168,100,108934,1,0,0:0:0:0:
408,268,109009,1,8,0:0:0:0:
439,308,109085,1,8,0:0:0:0:
200,124,109160,1,0,0:0:0:0:
407,268,109386,1,8,0:0:0:0:
407,263,109612,1,8,0:0:0:0:
408,268,109763,1,8,0:0:0:0:
408,268,109839,1,8,0:0:0:0:
408,268,109989,1,8,0:0:0:0:
407,268,110215,1,8,0:0:0:0:
407,268,110291,1,8,0:0:0:0:
407,268,110366,1,8,0:0:0:0:
407,263,110592,1,8,0:0:0:0:
408,268,110819,1,8,0:0:0:0:
408,268,110969,1,8,0:0:0:0:
407,268,111045,1,8,0:0:0:0:
407,268,111195,1,8,0:0:0:0:
347,100,111422,5,8,0:0:0:0:
