osu file format v14

[General]
AudioFilename: audio.mp3
AudioLeadIn: 0
PreviewTime: 46448
Countdown: 1
SampleSet: Normal
StackLeniency: 0.7
Mode: 1
LetterboxInBreaks: 0
WidescreenStoryboard: 1

[Editor]
Bookmarks: 22672,23317,45897,79123,89768,100091
DistanceSpacing: 0.8
BeatDivisor: 4
GridSize: 32
TimelineZoom: 1.699999

[Metadata]
Title:Gekkou Ranbu
TitleUnicode:月光乱舞
Artist:P*Light
ArtistUnicode:P*Light
Creator:kanpakyin
Version:Muzukashii
Source:SOUND VOLTEX III GRAVITY WARS
Tags:bemani konami beatnation RHYZE SDVX 天下一音ゲ祭 2015 ブロック決勝課題曲 Rasis Steins video game electronic instrumental Cynplytholowazy -gn junior Consified _54fied
BeatmapID:2514787
BeatmapSetID:454392

[Difficulty]
HPDrainRate:6.5
CircleSize:5
OverallDifficulty:4.5
ApproachRate:5
SliderMultiplier:1.4
SliderTickRate:1

[Events]
//Background and Video events
0,0,"BG.png",0,100
//Break Periods
//Storyboard Layer 0 (Background)
//Storyboard Layer 1 (Fail)
//Storyboard Layer 2 (Pass)
//Storyboard Layer 3 (Foreground)
//Storyboard Layer 4 (Overlay)
//Storyboard Sound Samples

[TimingPoints]
1327,322.58064516129,4,1,1,75,1,8
2617,322.58064516129,4,1,0,80,1,8
2618,322.58064516129,4,1,1,80,1,0
11650,-100,4,1,1,65,0,0
12295,-100,4,1,1,80,0,0
22053,-100,4,1,1,85,0,0
22295,-100,4,1,1,85,0,0
22537,-100,4,1,1,85,0,0
23263,-100,4,1,1,80,0,0
28424,-100,4,1,1,83,0,0
29714,-100,4,1,1,85,0,0
31005,-100,4,1,1,87,0,0
32456,-100,4,1,1,90,0,0
33585,-100,4,1,1,75,0,0
38424,-100,4,1,1,80,0,0
40037,-100,4,1,1,83,0,0
41327,-100,4,1,1,85,0,0
42779,-100,4,1,1,87,0,0
44230,-100,4,1,1,75,0,0
51166,-100,4,1,1,85,0,0
51488,-100,4,1,1,75,0,0
61650,-100,4,1,1,80,0,0
62537,-100,4,1,1,83,0,0
63747,-100,4,1,1,85,0,0
65843,-100,4,1,1,87,0,0
68424,-100,4,1,1,65,0,0
79634,-100,4,1,1,90,0,0
79876,-100,4,1,1,75,0,0
85037,-100,4,1,1,80,0,0
85682,-100,4,1,1,83,0,0
86327,-100,4,1,1,85,0,0
86972,-100,4,1,1,87,0,0
89392,-100,4,1,1,75,0,0
90037,-100,4,1,1,85,0,0
90359,-100,4,1,1,80,0,1
99553,-100,4,1,1,85,0,1
100279,-100,4,1,1,85,0,0
100682,-100,4,1,1,80,0,1
109714,-100,4,1,1,85,0,1
111005,-100,4,1,1,75,0,0

[HitObjects]
386,81,1972,5,0,0:0:0:0:
386,81,2133,1,8,0:0:0:0:
386,81,2294,1,8,0:0:0:0:
386,81,2456,1,8,0:0:0:0:
386,81,2618,1,4,0:0:0:0:
386,81,2940,1,8,0:0:0:0:
386,81,3263,1,0,0:0:0:0:
386,81,3424,1,8,0:0:0:0:
386,81,3585,1,8,0:0:0:0:
386,81,3747,1,8,0:0:0:0:
386,81,3908,1,4,0:0:0:0:
386,81,4230,1,8,0:0:0:0:
386,81,4392,1,0,0:0:0:0:
386,81,4553,1,0,0:0:0:0:
386,81,4714,1,8,0:0:0:0:
386,81,4876,1,8,0:0:0:0:
386,81,5198,1,4,0:0:0:0:
386,81,5682,1,4,0:0:0:0:
386,81,6005,1,8,0:0:0:0:
386,81,6166,1,4,0:0:0:0:
386,81,6327,1,8,0:0:0:0:
386,81,6488,1,4,0:0:0:0:
390,83,6811,1,8,0:0:0:0:
390,83,6972,1,0,0:0:0:0:
391,83,7134,1,8,0:0:0:0:
391,83,7295,1,8,0:0:0:0:
391,84,7376,1,8,0:0:0:0:
391,83,7456,1,8,0:0:0:0:
390,83,7617,1,8,0:0:0:0:
390,83,7779,1,4,0:0:0:0:
391,83,8101,1,8,0:0:0:0:
391,83,8424,1,8,0:0:0:0:
390,83,8747,1,8,0:0:0:0:
391,83,9069,1,4,0:0:0:0:
391,83,9392,1,8,0:0:0:0:
390,83,9714,1,8,0:0:0:0:
391,83,10037,1,8,0:0:0:0:
391,83,10198,1,8,0:0:0:0:
391,83,10359,1,4,0:0:0:0:
390,83,10521,1,8,0:0:0:0:
390,83,10682,1,0,0:0:0:0:
391,83,10843,1,8,0:0:0:0:
391,83,11005,1,0,0:0:0:0:
391,83,11166,1,8,0:0:0:0:
391,83,11247,1,8,0:0:0:0:
391,83,11327,1,8,0:0:0:0:
390,83,11488,1,8,0:0:0:0:
390,83,11650,1,0,0:0:0:0:
396,77,12295,1,0,0:0:0:0:
397,78,12456,1,8,0:0:0:0:
397,78,12617,1,8,0:0:0:0:
397,77,12779,1,8,0:0:0:0:
397,77,12940,1,4,0:0:0:0:
396,77,13182,1,8,0:0:0:0:
397,78,13424,1,8,0:0:0:0:
396,85,13585,1,0,0:0:0:0:
402,80,13908,1,8,0:0:0:0:
401,79,14069,1,8,0:0:0:0:
402,79,14230,1,0,0:0:0:0:
402,80,14472,1,8,0:0:0:0:
402,80,14714,1,8,0:0:0:0:
402,80,14876,1,0,0:0:0:0:
402,79,15198,1,8,0:0:0:0:
402,80,15359,1,8,0:0:0:0:
401,89,15521,1,0,0:0:0:0:
401,89,15763,1,8,0:0:0:0:
401,89,16005,1,8,0:0:0:0:
402,89,16166,1,0,0:0:0:0:
401,89,16488,1,8,0:0:0:0:
401,89,16650,1,8,0:0:0:0:
401,89,16811,1,0,0:0:0:0:
402,89,17295,1,8,0:0:0:0:
401,89,17456,1,0,0:0:0:0:
401,89,17617,1,8,0:0:0:0:
401,89,17779,1,8,0:0:0:0:
407,94,17940,1,8,0:0:0:0:
402,89,18101,1,4,0:0:0:0:
402,89,18343,1,8,0:0:0:0:
406,86,18585,1,8,0:0:0:0:
406,85,18747,1,0,0:0:0:0:
403,95,18908,1,0,0:0:0:0:
403,95,19069,1,8,0:0:0:0:
403,95,19230,1,8,0:0:0:0:
403,95,19392,1,4,0:0:0:0:
404,95,19634,1,8,0:0:0:0:
403,95,19876,1,8,0:0:0:0:
403,95,20037,1,0,0:0:0:0:
403,95,20198,1,8,0:0:0:0:
408,101,20279,1,8,0:0:0:0:
403,95,20359,1,8,0:0:0:0:
404,95,20521,1,0,0:0:0:0:
404,95,20682,1,0,0:0:0:0:
403,95,20843,1,8,0:0:0:0:
403,95,21166,1,0,0:0:0:0:
403,95,21327,1,0,0:0:0:0:
404,95,21488,1,8,0:0:0:0:
404,95,21650,1,8,0:0:0:0:
403,95,21811,1,0,0:0:0:0:
403,95,22134,1,12,0:0:0:0:
404,95,22376,1,12,0:0:0:0:
404,95,22617,1,12,0:0:0:0:
410,107,23263,1,8,0:0:0:0:
410,107,23505,1,8,0:0:0:0:
403,122,23747,1,8,0:0:0:0:
407,109,23908,1,0,0:0:0:0:
407,109,24069,1,0,0:0:0:0:
410,107,24230,1,8,0:0:0:0:
405,110,24392,1,8,0:0:0:0:
407,109,24553,1,0,0:0:0:0:
407,109,24795,1,8,0:0:0:0:
407,109,25037,1,8,0:0:0:0:
404,111,25198,1,0,0:0:0:0:
407,109,25521,1,8,0:0:0:0:
407,109,25682,1,8,0:0:0:0:
407,109,25843,1,0,0:0:0:0:
407,109,26085,1,8,0:0:0:0:
399,112,26327,1,0,0:0:0:0:
399,112,26488,1,8,0:0:0:0:
403,113,26811,1,8,0:0:0:0:
407,109,26972,1,0,0:0:0:0:
404,111,27134,1,8,0:0:0:0:
407,109,27376,1,8,0:0:0:0:
407,109,27617,1,8,0:0:0:0:
407,109,27779,1,0,0:0:0:0:
407,109,27940,1,8,0:0:0:0:
404,111,28101,1,8,0:0:0:0:
407,109,28424,1,4,0:0:0:0:
407,109,28908,1,0,0:0:0:0:
407,109,28988,1,0,0:0:0:0:
404,111,29069,1,0,0:0:0:0:
407,109,29230,1,8,0:0:0:0:
407,109,29392,1,8,0:0:0:0:
407,109,29553,1,8,0:0:0:0:
407,109,29714,1,4,0:0:0:0:
416,117,30198,1,0,0:0:0:0:
389,97,30279,1,0,0:0:0:0:
416,117,30359,1,0,0:0:0:0:
401,105,30521,1,8,0:0:0:0:
401,105,30682,1,8,0:0:0:0:
401,105,30843,1,0,0:0:0:0:
401,106,31005,1,4,0:0:0:0:
401,106,31247,1,0,0:0:0:0:
401,105,31488,1,0,0:0:0:0:
401,105,31650,1,0,0:0:0:0:
401,106,31811,1,8,0:0:0:0:
401,106,31972,1,8,0:0:0:0:
401,106,32053,1,8,0:0:0:0:
401,106,32134,1,8,0:0:0:0:
389,97,32456,1,12,0:0:0:0:
389,97,32698,1,12,0:0:0:0:
389,97,32940,1,12,0:0:0:0:
399,106,33585,1,0,0:0:0:0:
387,115,33827,1,8,0:0:0:0:
387,115,34069,1,0,0:0:0:0:
387,115,34230,1,8,0:0:0:0:
388,116,34392,1,0,0:0:0:0:
388,116,34553,1,8,0:0:0:0:
387,115,34714,1,8,0:0:0:0:
387,115,34876,1,8,0:0:0:0:
394,113,35198,1,8,0:0:0:0:
394,114,35521,1,8,0:0:0:0:
394,114,35628,1,8,0:0:0:0:
394,114,35736,1,8,0:0:0:0:
389,122,35843,1,8,0:0:0:0:
390,118,36166,1,8,0:0:0:0:
390,118,36408,1,8,0:0:0:0:
394,114,36650,1,0,0:0:0:0:
389,122,36811,1,8,0:0:0:0:
387,115,36972,1,8,0:0:0:0:
387,115,37053,1,8,0:0:0:0:
390,118,37134,1,8,0:0:0:0:
390,118,37295,1,8,0:0:0:0:
390,118,37456,1,0,0:0:0:0:
391,119,37698,1,8,0:0:0:0:
391,119,37940,1,0,0:0:0:0:
391,119,38101,1,8,0:0:0:0:
382,119,38263,1,8,0:0:0:0:
390,118,38424,1,8,0:0:0:0:
390,118,38505,1,8,0:0:0:0:
391,119,38585,1,8,0:0:0:0:
389,122,38747,1,4,0:0:0:0:
390,118,39069,1,0,0:0:0:0:
388,113,39230,1,0,0:0:0:0:
390,118,39392,1,0,0:0:0:0:
391,119,39553,1,0,0:0:0:0:
391,119,39714,1,0,0:0:0:0:
391,119,39876,1,8,0:0:0:0:
391,119,40037,1,4,0:0:0:0:
391,119,40521,1,0,0:0:0:0:
391,119,40682,1,8,0:0:0:0:
391,119,40790,1,8,0:0:0:0:
391,119,40897,1,8,0:0:0:0:
391,119,41005,1,8,0:0:0:0:
398,111,41166,1,8,0:0:0:0:
398,111,41327,1,0,0:0:0:0:
398,111,41569,1,8,0:0:0:0:
399,111,41811,1,0,0:0:0:0:
399,111,41972,1,0,0:0:0:0:
398,111,42214,1,8,0:0:0:0:
398,111,42456,1,8,0:0:0:0:
398,111,42617,1,0,0:0:0:0:
399,111,42779,1,8,0:0:0:0:
398,111,42859,1,8,0:0:0:0:
399,111,42940,1,8,0:0:0:0:
398,111,43101,1,8,0:0:0:0:
398,111,43263,1,8,0:0:0:0:
398,111,43343,1,8,0:0:0:0:
405,112,43424,1,8,0:0:0:0:
398,111,43505,1,8,0:0:0:0:
399,111,43585,1,8,0:0:0:0:
399,111,43747,1,8,0:0:0:0:
399,111,43908,1,0,0:0:0:0:
398,111,44230,1,8,0:0:0:0:
398,111,44392,1,0,0:0:0:0:
398,111,44553,1,8,0:0:0:0:
399,111,44714,1,8,0:0:0:0:
399,111,44876,1,0,0:0:0:0:
398,111,45198,1,12,0:0:0:0:
398,111,45359,1,4,0:0:0:0:
398,111,45521,1,12,0:0:0:0:
399,111,45682,1,12,0:0:0:0:
399,111,45843,1,4,0:0:0:0:
398,116,46488,1,4,0:0:0:0:
389,108,46650,1,0,0:0:0:0:
389,108,46811,1,8,0:0:0:0:
391,109,46972,1,8,0:0:0:0:
391,109,47134,1,0,0:0:0:0:
392,109,47295,1,8,0:0:0:0:
392,109,47456,1,0,0:0:0:0:
389,108,47617,1,8,0:0:0:0:
389,108,47779,1,0,0:0:0:0:
391,109,48101,1,8,0:0:0:0:
392,109,48263,1,8,0:0:0:0:
392,109,48424,1,0,0:0:0:0:
389,108,48747,1,8,0:0:0:0:
410,108,48908,1,8,0:0:0:0:
400,105,48988,1,8,0:0:0:0:
391,109,49069,1,8,0:0:0:0:
400,108,49392,1,0,0:0:0:0:
400,104,49553,1,8,0:0:0:0:
401,108,49634,1,8,0:0:0:0:
400,104,49714,1,8,0:0:0:0:
395,96,49876,1,0,0:0:0:0:
400,104,50037,1,8,0:0:0:0:
400,104,50359,1,0,0:0:0:0:
400,104,50521,1,0,0:0:0:0:
400,104,50682,1,8,0:0:0:0:
400,104,50843,1,8,0:0:0:0:
400,104,51005,1,0,0:0:0:0:
400,104,51166,1,4,0:0:0:0:
400,104,51327,1,4,0:0:0:0:
384,104,51650,1,0,0:0:0:0:
378,112,51730,1,0,0:0:0:0:
389,113,51811,1,0,0:0:0:0:
393,101,51972,1,12,0:0:0:0:
393,101,52295,1,0,0:0:0:0:
400,104,52617,1,8,0:0:0:0:
395,101,52779,1,0,0:0:0:0:
395,102,52940,1,8,0:0:0:0:
395,102,53021,1,8,0:0:0:0:
393,101,53101,1,8,0:0:0:0:
408,99,53263,1,8,0:0:0:0:
408,99,53424,1,8,0:0:0:0:
408,99,53585,1,0,0:0:0:0:
391,97,53908,1,8,0:0:0:0:
409,100,54069,1,4,0:0:0:0:
409,101,54230,1,12,0:0:0:0:
409,100,54714,1,4,0:0:0:0:
409,100,54876,1,12,0:0:0:0:
409,100,55037,1,0,0:0:0:0:
409,101,55198,1,8,0:0:0:0:
408,99,55521,1,12,0:0:0:0:
409,100,55682,1,12,0:0:0:0:
409,100,55843,1,12,0:0:0:0:
409,100,56005,1,12,0:0:0:0:
409,101,56166,1,12,0:0:0:0:
408,99,56327,1,0,0:0:0:0:
411,104,56408,1,0,0:0:0:0:
410,103,56488,1,0,0:0:0:0:
409,100,56811,1,4,0:0:0:0:
415,97,56972,1,8,0:0:0:0:
429,86,57053,1,8,0:0:0:0:
415,97,57134,1,8,0:0:0:0:
415,97,57295,1,8,0:0:0:0:
415,97,57456,1,0,0:0:0:0:
416,97,57617,1,0,0:0:0:0:
416,98,57779,1,8,0:0:0:0:
415,97,57940,1,8,0:0:0:0:
415,97,58101,1,0,0:0:0:0:
415,97,58343,1,8,0:0:0:0:
416,97,58585,1,0,0:0:0:0:
416,98,58747,1,8,0:0:0:0:
415,97,58854,1,8,0:0:0:0:
415,97,58962,1,8,0:0:0:0:
415,97,59069,1,8,0:0:0:0:
407,95,59392,1,0,0:0:0:0:
409,97,59553,1,8,0:0:0:0:
394,93,59634,1,8,0:0:0:0:
407,96,59714,1,8,0:0:0:0:
408,96,59876,1,8,0:0:0:0:
408,96,60037,1,0,0:0:0:0:
407,95,60198,1,8,0:0:0:0:
407,95,60359,1,0,0:0:0:0:
407,96,60521,1,8,0:0:0:0:
407,96,60682,1,0,0:0:0:0:
408,96,60924,1,8,0:0:0:0:
407,95,61166,1,8,0:0:0:0:
407,95,61327,1,0,0:0:0:0:
407,96,61488,1,0,0:0:0:0:
407,96,61650,1,8,0:0:0:0:
408,96,61730,1,8,0:0:0:0:
408,96,61811,1,8,0:0:0:0:
408,96,61972,1,0,0:0:0:0:
407,96,62456,1,8,0:0:0:0:
407,96,62617,1,0,0:0:0:0:
408,96,62779,1,8,0:0:0:0:
408,96,62940,1,8,0:0:0:0:
407,95,63101,1,8,0:0:0:0:
407,95,63263,1,0,0:0:0:0:
408,96,63747,1,8,0:0:0:0:
408,96,63908,1,8,0:0:0:0:
408,96,64015,1,8,0:0:0:0:
407,95,64123,1,8,0:0:0:0:
407,95,64230,1,8,0:0:0:0:
401,93,64553,1,8,0:0:0:0:
401,93,64795,1,0,0:0:0:0:
402,93,65037,1,0,0:0:0:0:
407,95,65198,1,8,0:0:0:0:
400,93,65440,1,0,0:0:0:0:
401,93,65682,1,0,0:0:0:0:
401,93,65843,1,0,0:0:0:0:
402,93,65924,1,0,0:0:0:0:
402,93,66005,1,0,0:0:0:0:
400,89,66166,1,0,0:0:0:0:
401,89,66327,1,0,0:0:0:0:
400,93,66488,1,0,0:0:0:0:
401,93,66569,1,0,0:0:0:0:
401,93,66650,1,0,0:0:0:0:
401,93,66811,1,8,0:0:0:0:
405,78,66892,1,8,0:0:0:0:
401,90,66972,1,8,0:0:0:0:
400,89,67053,1,8,0:0:0:0:
400,89,67134,1,8,0:0:0:0:
408,95,69069,1,0,0:0:0:0:
408,95,69230,1,8,0:0:0:0:
408,95,69392,1,8,0:0:0:0:
408,95,69553,1,8,0:0:0:0:
408,95,69714,1,8,0:0:0:0:
408,95,70359,1,0,0:0:0:0:
408,95,70521,1,8,0:0:0:0:
408,95,70682,1,8,0:0:0:0:
408,95,70843,1,8,0:0:0:0:
408,95,71005,1,8,0:0:0:0:
408,95,71650,1,0,0:0:0:0:
408,95,71811,1,8,0:0:0:0:
408,95,71972,1,8,0:0:0:0:
408,95,72134,1,8,0:0:0:0:
408,95,72295,1,0,0:0:0:0:
408,95,72617,1,8,0:0:0:0:
408,95,72779,1,8,0:0:0:0:
408,95,72940,1,0,0:0:0:0:
408,95,73101,1,8,0:0:0:0:
408,95,73263,1,8,0:0:0:0:
408,95,73424,1,8,0:0:0:0:
408,95,73585,1,0,0:0:0:0:
408,95,74230,1,0,0:0:0:0:
408,95,74392,1,8,0:0:0:0:
408,95,74553,1,8,0:0:0:0:
408,95,74714,1,8,0:0:0:0:
408,95,74876,1,8,0:0:0:0:
408,95,75521,1,0,0:0:0:0:
408,95,75682,1,8,0:0:0:0:
408,95,75843,1,8,0:0:0:0:
408,95,76005,1,8,0:0:0:0:
408,95,76166,1,8,0:0:0:0:
408,95,76811,1,0,0:0:0:0:
408,95,76972,1,8,0:0:0:0:
408,95,77134,1,8,0:0:0:0:
408,95,77295,1,8,0:0:0:0:
408,95,77456,1,0,0:0:0:0:
408,95,77779,1,8,0:0:0:0:
408,95,77940,1,8,0:0:0:0:
408,95,78101,1,0,0:0:0:0:
408,95,78263,1,8,0:0:0:0:
408,95,78424,1,0,0:0:0:0:
408,95,78585,1,8,0:0:0:0:
408,95,78747,1,8,0:0:0:0:
408,95,79714,1,12,0:0:0:0:
408,95,80037,1,8,0:0:0:0:
408,95,80117,1,8,0:0:0:0:
408,95,80198,1,8,0:0:0:0:
408,95,80359,1,8,0:0:0:0:
408,95,80682,1,0,0:0:0:0:
408,95,80843,1,8,0:0:0:0:
408,95,81005,1,0,0:0:0:0:
408,95,81166,1,0,0:0:0:0:
408,95,81327,1,8,0:0:0:0:
408,95,81408,1,8,0:0:0:0:
408,95,81488,1,8,0:0:0:0:
408,95,81650,1,8,0:0:0:0:
408,95,81972,1,0,0:0:0:0:
408,95,82134,1,8,0:0:0:0:
408,95,82295,1,0,0:0:0:0:
408,95,82456,1,8,0:0:0:0:
408,95,82617,1,0,0:0:0:0:
417,91,82859,1,8,0:0:0:0:
408,95,83101,1,8,0:0:0:0:
408,95,83343,1,8,0:0:0:0:
408,95,83585,1,0,0:0:0:0:
412,96,83747,1,8,0:0:0:0:
412,96,83908,1,0,0:0:0:0:
408,95,84150,1,8,0:0:0:0:
408,95,84392,1,8,0:0:0:0:
408,95,84553,1,0,0:0:0:0:
412,96,84876,1,8,0:0:0:0:
414,117,85037,1,0,0:0:0:0:
408,95,85198,1,4,0:0:0:0:
412,106,85682,1,0,0:0:0:0:
414,106,85843,1,0,0:0:0:0:
414,106,86005,1,8,0:0:0:0:
414,106,86166,1,0,0:0:0:0:
414,106,86327,1,0,0:0:0:0:
411,106,86408,1,0,0:0:0:0:
411,106,86488,1,0,0:0:0:0:
414,106,86972,1,0,0:0:0:0:
414,106,87134,1,8,0:0:0:0:
414,106,87295,1,0,0:0:0:0:
411,106,87456,1,0,0:0:0:0:
412,106,87537,1,0,0:0:0:0:
412,106,87617,1,0,0:0:0:0:
394,106,87698,1,0,0:0:0:0:
412,106,87779,1,0,0:0:0:0:
414,106,87940,1,0,0:0:0:0:
414,106,88101,1,0,0:0:0:0:
439,114,88263,1,0,0:0:0:0:
411,106,88424,1,0,0:0:0:0:
432,107,88585,1,0,0:0:0:0:
412,106,88747,1,8,0:0:0:0:
422,108,88827,1,8,0:0:0:0:
422,108,88908,1,8,0:0:0:0:
423,108,88988,1,8,0:0:0:0:
422,108,89069,1,8,0:0:0:0:
440,108,89392,1,8,0:0:0:0:
423,108,90037,1,4,0:0:0:0:
419,110,90359,1,8,0:0:0:0:
426,111,90521,1,0,0:0:0:0:
426,111,90682,1,8,0:0:0:0:
426,111,90843,1,0,0:0:0:0:
423,108,90924,1,0,0:0:0:0:
426,111,91005,1,0,0:0:0:0:
426,111,91327,1,8,0:0:0:0:
426,111,91488,1,8,0:0:0:0:
426,111,91569,1,8,0:0:0:0:
426,111,91650,1,8,0:0:0:0:
426,111,91811,1,0,0:0:0:0:
423,108,91972,1,8,0:0:0:0:
426,111,92295,1,0,0:0:0:0:
426,111,92456,1,8,0:0:0:0:
426,111,92617,1,0,0:0:0:0:
405,105,92779,1,8,0:0:0:0:
405,105,92859,1,8,0:0:0:0:
428,113,92940,1,8,0:0:0:0:
426,111,93182,1,8,0:0:0:0:
426,111,93424,1,8,0:0:0:0:
426,111,93666,1,8,0:0:0:0:
428,113,93908,1,8,0:0:0:0:
426,111,94069,1,8,0:0:0:0:
426,111,94230,1,0,0:0:0:0:
426,111,94472,1,8,0:0:0:0:
420,110,94714,1,8,0:0:0:0:
426,111,94956,1,8,0:0:0:0:
426,111,95198,1,8,0:0:0:0:
444,112,95359,1,0,0:0:0:0:
426,111,95521,1,12,0:0:0:0:
435,103,95682,1,0,0:0:0:0:
426,111,95843,1,8,0:0:0:0:
408,103,96166,1,0,0:0:0:0:
426,111,96488,1,8,0:0:0:0:
406,96,96650,1,0,0:0:0:0:
420,110,96811,1,4,0:0:0:0:
431,108,96972,1,0,0:0:0:0:
426,111,97134,1,8,0:0:0:0:
423,118,97456,1,0,0:0:0:0:
426,111,97617,1,8,0:0:0:0:
426,111,98101,1,12,0:0:0:0:
426,111,98263,1,8,0:0:0:0:
426,111,98343,1,8,0:0:0:0:
426,111,98585,1,8,0:0:0:0:
420,110,98747,1,8,0:0:0:0:
426,111,98908,1,0,0:0:0:0:
426,111,98988,1,0,0:0:0:0:
426,111,99069,1,0,0:0:0:0:
395,124,99230,1,8,0:0:0:0:
432,128,99311,1,8,0:0:0:0:
434,116,99553,1,12,0:0:0:0:
434,116,99795,1,12,0:0:0:0:
434,116,100037,1,4,0:0:0:0:
430,113,100279,1,4,0:0:0:0:
434,116,100682,1,8,0:0:0:0:
434,116,101005,1,8,0:0:0:0:
430,113,101166,1,8,0:0:0:0:
415,114,101247,1,8,0:0:0:0:
413,121,101488,1,0,0:0:0:0:
434,116,101650,1,8,0:0:0:0:
434,116,101730,1,8,0:0:0:0:
434,116,101811,1,8,0:0:0:0:
434,116,101972,1,0,0:0:0:0:
434,116,102295,1,8,0:0:0:0:
407,99,102456,1,8,0:0:0:0:
434,116,102537,1,8,0:0:0:0:
434,116,102779,1,0,0:0:0:0:
434,116,102940,1,8,0:0:0:0:
434,116,103021,1,8,0:0:0:0:
430,113,103101,1,8,0:0:0:0:
434,116,103263,1,0,0:0:0:0:
434,116,103505,1,8,0:0:0:0:
434,116,103747,1,8,0:0:0:0:
434,116,103988,1,8,0:0:0:0:
434,116,104230,1,8,0:0:0:0:
434,116,104392,1,8,0:0:0:0:
434,116,104553,1,0,0:0:0:0:
425,113,104795,1,8,0:0:0:0:
430,113,105037,1,8,0:0:0:0:
434,116,105279,1,8,0:0:0:0:
434,116,105521,1,8,0:0:0:0:
434,116,105682,1,0,0:0:0:0:
434,116,105843,1,12,0:0:0:0:
424,107,106327,1,8,0:0:0:0:
424,118,106408,1,8,0:0:0:0:
434,116,106488,1,8,0:0:0:0:
434,116,106650,1,0,0:0:0:0:
434,116,106811,1,8,0:0:0:0:
430,113,106972,1,0,0:0:0:0:
434,116,107134,1,12,0:0:0:0:
412,117,107456,1,8,0:0:0:0:
430,108,107617,1,8,0:0:0:0:
414,129,107698,1,8,0:0:0:0:
434,116,107779,1,8,0:0:0:0:
430,113,107940,1,0,0:0:0:0:
434,116,108101,1,8,0:0:0:0:
434,116,108263,1,0,0:0:0:0:
434,116,108424,1,12,0:0:0:0:
434,116,108666,1,8,0:0:0:0:
430,113,108908,1,8,0:0:0:0:
434,116,109069,1,8,0:0:0:0:
434,116,109150,1,8,0:0:0:0:
434,116,109230,1,8,0:0:0:0:
434,116,109392,1,8,0:0:0:0:
434,116,109472,1,8,0:0:0:0:
434,116,109553,1,8,0:0:0:0:
434,116,109714,1,4,0:0:0:0:
430,113,109956,1,12,0:0:0:0:
434,116,110198,1,4,0:0:0:0:
434,116,110440,1,12,0:0:0:0:
434,116,110682,1,12,0:0:0:0:
434,116,111005,1,4,0:0:0:0:
