osu file format v14

[General]
AudioFilename: audio.mp3
AudioLeadIn: 0
PreviewTime: 46448
Countdown: 1
SampleSet: Normal
StackLeniency: 0.7
Mode: 1
LetterboxInBreaks: 0
WidescreenStoryboard: 0

[Editor]
DistanceSpacing: 0.8
BeatDivisor: 4
GridSize: 32
TimelineZoom: 2.599999

[Metadata]
Title:Gekkou Ranbu
TitleUnicode:月光乱舞
Artist:P*Light
ArtistUnicode:P*Light
Creator:kanpakyin
Version:Inner Oni
Source:SOUND VOLTEX III GRAVITY WARS
Tags:bemani konami beatnation RHYZE SDVX 天下一音ゲ祭 2015 ブロック決勝課題曲 Rasis Steins video game electronic instrumental Cynplytholowazy -gn junior Consified _54fied
BeatmapID:974260
BeatmapSetID:454392

[Difficulty]
HPDrainRate:6
CircleSize:5
OverallDifficulty:6.5
ApproachRate:5
SliderMultiplier:1.4
SliderTickRate:1

[Events]
//Background and Video events
0,0,"BG.png",0,100
//Break Periods
//Storyboard Layer 0 (Background)
//Storyboard Layer 1 (Fail)
//Storyboard Layer 2 (Pass)
//Storyboard Layer 3 (Foreground)
//Storyboard Layer 4 (Overlay)
//Storyboard Sound Samples

[TimingPoints]
1327,322.58064516129,4,1,1,75,1,8
1972,-125,4,1,1,75,0,8
2133,-117.647058823529,4,1,1,75,0,8
2294,-111.111111111111,4,1,1,75,0,8
2456,-105.263157894737,4,1,1,75,0,8
2563,-100,4,1,1,75,0,0
2617,322.58064516129,4,1,0,80,1,8
2618,322.58064516129,4,1,1,80,1,0
11650,-100,4,1,1,65,0,0
12295,-99.009900990099,4,1,1,80,0,0
12376,-98.0392156862745,4,1,1,80,0,0
12456,-97.0873786407767,4,1,1,80,0,0
12537,-96.1538461538461,4,1,1,80,0,0
12617,-95.2380952380952,4,1,1,80,0,0
12779,-93.0232558139535,4,1,1,80,0,0
12940,-90.9090909090909,4,1,1,80,0,0
22053,-83.3333333333333,4,1,1,85,0,0
22295,-76.9230769230769,4,1,1,85,0,0
22537,-71.4285714285714,4,1,1,85,0,0
22859,-58.8235294117647,4,1,1,80,0,0
23263,-90.9090909090909,4,1,1,80,0,0
28424,-88.8888888888889,4,1,1,83,0,0
29714,-86.9565217391304,4,1,1,85,0,0
31005,-85.1063829787234,4,1,1,87,0,0
31166,-85.0340136054422,4,1,1,87,0,0
31247,-84.9617672047578,4,1,1,87,0,0
31408,-84.8896434634975,4,1,1,87,0,0
31488,-84.8176420695505,4,1,1,87,0,0
31650,-84.7457627118644,4,1,1,87,0,0
31730,-84.0336134453781,4,1,1,87,0,0
31811,-83.3333333333333,4,1,1,87,0,0
31892,-82.6446280991736,4,1,1,87,0,0
31972,-81.9672131147541,4,1,1,87,0,0
32053,-81.3008130081301,4,1,1,87,0,0
32134,-80.6451612903226,4,1,1,87,0,0
32214,-80,4,1,1,75,0,0
32456,-76.9230769230769,4,1,1,90,0,0
32698,-71.4285714285714,4,1,1,90,0,0
32940,-66.6666666666667,4,1,1,90,0,0
33101,-68.9655172413793,4,1,1,80,0,0
33263,-71.4285714285714,4,1,1,80,0,0
33585,-100,4,1,1,75,0,0
38021,-99.502487562189,4,1,1,75,0,0
38101,-99.009900990099,4,1,1,75,0,0
38182,-98.5221674876847,4,1,1,75,0,0
38263,-98.0392156862745,4,1,1,75,0,0
38343,-97.5609756097561,4,1,1,75,0,0
38424,-97.0873786407767,4,1,1,80,0,0
38505,-96.6183574879227,4,1,1,80,0,0
38585,-96.1538461538461,4,1,1,80,0,0
38666,-95.6937799043062,4,1,1,80,0,0
38747,-95.2380952380952,4,1,1,80,0,0
40037,-90.9090909090909,4,1,1,83,0,0
40521,-90.4977375565611,4,1,1,83,0,0
40601,-90.0900900900901,4,1,1,83,0,0
40682,-89.6860986547085,4,1,1,83,0,0
40790,-89.2857142857143,4,1,1,83,0,0
40897,-88.8888888888889,4,1,1,83,0,0
41005,-88.4955752212389,4,1,1,83,0,0
41085,-88.1057268722467,4,1,1,83,0,0
41166,-87.719298245614,4,1,1,83,0,0
41247,-87.3362445414847,4,1,1,83,0,0
41327,-86.9565217391304,4,1,1,85,0,0
41569,-86.2068965517241,4,1,1,85,0,0
41650,-85.4700854700855,4,1,1,85,0,0
41811,-84.7457627118644,4,1,1,85,0,0
41892,-84.0336134453781,4,1,1,85,0,0
41972,-83.3333333333333,4,1,1,85,0,0
42134,-82.6446280991736,4,1,1,85,0,0
42295,-81.9672131147541,4,1,1,85,0,0
42456,-81.3008130081301,4,1,1,85,0,0
42537,-80.6451612903226,4,1,1,85,0,0
42617,-80,4,1,1,85,0,0
42779,-79.3650793650794,4,1,1,87,0,0
42859,-78.7401574803149,4,1,1,87,0,0
42940,-78.125,4,1,1,87,0,0
43021,-77.5193798449612,4,1,1,87,0,0
43101,-76.9230769230769,4,1,1,87,0,0
43182,-76.3358778625954,4,1,1,87,0,0
43263,-75.7575757575758,4,1,1,87,0,0
43343,-74.6268656716418,4,1,1,87,0,0
43424,-73.5294117647059,4,1,1,87,0,0
43505,-72.463768115942,4,1,1,87,0,0
43585,-71.4285714285714,4,1,1,87,0,0
43666,-70.4225352112676,4,1,1,87,0,0
43747,-69.4444444444444,4,1,1,87,0,0
43827,-68.4931506849315,4,1,1,87,0,0
43908,-67.5675675675676,4,1,1,87,0,0
44230,-105.263157894737,4,1,1,75,0,0
45198,-90.9090909090909,4,1,1,75,0,0
45359,-86.9565217391304,4,1,1,75,0,0
45521,-83.3333333333333,4,1,1,75,0,0
45682,-80,4,1,1,75,0,0
45843,-76.9230769230769,4,1,1,75,0,0
46166,-100,4,1,1,75,0,0
51166,-100,4,1,1,85,0,0
51488,-100,4,1,1,75,0,0
61650,-99.009900990099,4,1,1,80,0,0
61730,-98.0392156862745,4,1,1,80,0,0
61811,-97.0873786407767,4,1,1,80,0,0
61892,-96.1538461538461,4,1,1,80,0,0
61972,-95.2380952380952,4,1,1,80,0,0
62537,-94.7867298578199,4,1,1,83,0,0
62617,-94.3396226415094,4,1,1,83,0,0
62698,-93.8967136150235,4,1,1,83,0,0
62779,-93.4579439252336,4,1,1,83,0,0
62859,-93.0232558139535,4,1,1,83,0,0
62940,-92.5925925925926,4,1,1,83,0,0
63021,-92.1658986175115,4,1,1,83,0,0
63101,-91.743119266055,4,1,1,83,0,0
63182,-91.324200913242,4,1,1,83,0,0
63263,-90.9090909090909,4,1,1,83,0,0
63747,-90.4977375565611,4,1,1,85,0,0
63827,-90.0900900900901,4,1,1,85,0,0
63908,-89.6860986547085,4,1,1,85,0,0
64015,-89.2857142857143,4,1,1,85,0,0
64123,-88.8888888888889,4,1,1,85,0,0
64230,-88.4955752212389,4,1,1,85,0,0
64311,-88.1057268722467,4,1,1,85,0,0
64392,-87.719298245614,4,1,1,85,0,0
64472,-87.3362445414847,4,1,1,85,0,0
64553,-86.9565217391304,4,1,1,85,0,0
65843,-86.2068965517241,4,1,1,87,0,0
65924,-85.8369098712446,4,1,1,87,0,0
66005,-85.4700854700855,4,1,1,87,0,0
66085,-85.1063829787234,4,1,1,87,0,0
66166,-84.7457627118644,4,1,1,87,0,0
66247,-84.3881856540084,4,1,1,87,0,0
66327,-84.0336134453781,4,1,1,87,0,0
66408,-83.6820083682008,4,1,1,87,0,0
66488,-83.3333333333333,4,1,1,87,0,0
66569,-81.9672131147541,4,1,1,87,0,0
66650,-80.6451612903226,4,1,1,87,0,0
66730,-79.3650793650794,4,1,1,87,0,0
66811,-78.125,4,1,1,87,0,0
66892,-76.9230769230769,4,1,1,87,0,0
66972,-75.7575757575758,4,1,1,87,0,0
67053,-74.6268656716418,4,1,1,87,0,0
67134,-73.5294117647059,4,1,1,87,0,0
68424,-125,4,1,1,65,0,0
69069,-142.857142857143,4,1,1,65,0,0
79634,-62.5,4,1,1,90,0,0
79876,-100,4,1,1,75,0,0
85037,-97.0873786407767,4,1,1,80,0,0
85117,-96.1538461538461,4,1,1,80,0,0
85198,-95.2380952380952,4,1,1,80,0,0
85279,-94.3396226415094,4,1,1,80,0,0
85359,-93.4579439252336,4,1,1,80,0,0
85521,-93.0232558139535,4,1,1,80,0,0
85682,-92.5925925925926,4,1,1,83,0,0
85763,-91.743119266055,4,1,1,83,0,0
85843,-90.9090909090909,4,1,1,83,0,0
85924,-90.0900900900901,4,1,1,83,0,0
86005,-89.2857142857143,4,1,1,83,0,0
86085,-88.4955752212389,4,1,1,83,0,0
86166,-87.719298245614,4,1,1,83,0,0
86327,-86.9565217391304,4,1,1,85,0,0
86408,-86.2068965517241,4,1,1,85,0,0
86488,-85.4700854700855,4,1,1,85,0,0
86569,-84.7457627118644,4,1,1,85,0,0
86650,-84.0336134453781,4,1,1,85,0,0
86730,-83.3333333333333,4,1,1,85,0,0
86811,-82.6446280991736,4,1,1,85,0,0
86972,-81.3008130081301,4,1,1,87,0,0
87053,-80.6451612903226,4,1,1,87,0,0
87134,-80,4,1,1,87,0,0
87214,-79.3650793650794,4,1,1,87,0,0
87295,-78.7401574803149,4,1,1,87,0,0
87376,-78.125,4,1,1,87,0,0
87456,-77.5193798449612,4,1,1,87,0,0
87537,-76.9230769230769,4,1,1,87,0,0
87617,-76.3358778625954,4,1,1,87,0,0
87698,-75.7575757575758,4,1,1,87,0,0
87779,-75.187969924812,4,1,1,87,0,0
87859,-74.0740740740741,4,1,1,87,0,0
87940,-72.992700729927,4,1,1,87,0,0
88021,-71.9424460431655,4,1,1,87,0,0
88101,-70.9219858156028,4,1,1,87,0,0
88182,-69.9300699300699,4,1,1,87,0,0
88263,-68.9655172413793,4,1,1,87,0,0
88343,-68.0272108843537,4,1,1,87,0,0
88424,-67.1140939597315,4,1,1,87,0,0
88505,-66.2251655629139,4,1,1,87,0,0
88585,-65.359477124183,4,1,1,87,0,0
88666,-64.5161290322581,4,1,1,87,0,0
88747,-63.6942675159236,4,1,1,87,0,0
89392,-76.9230769230769,4,1,1,75,0,0
89714,-86.9565217391304,4,1,1,75,0,0
89795,-87.719298245614,4,1,1,75,0,0
89876,-88.4955752212389,4,1,1,75,0,0
89956,-89.2857142857143,4,1,1,75,0,0
90037,-90.0900900900901,4,1,1,85,0,0
90359,-100,4,1,1,80,0,1
99553,-76.9230769230769,4,1,1,85,0,1
99714,-80,4,1,1,85,0,1
99876,-83.3333333333333,4,1,1,85,0,1
100117,-86.9565217391304,4,1,1,85,0,1
100279,-86.9565217391304,4,1,1,85,0,0
100682,-83.3333333333333,4,1,1,80,0,1
108585,-82.6446280991736,4,1,1,80,0,1
108666,-81.9672131147541,4,1,1,80,0,1
108827,-80.6451612903226,4,1,1,80,0,1
108908,-80,4,1,1,80,0,1
109069,-78.7401574803149,4,1,1,80,0,1
109150,-78.125,4,1,1,80,0,1
109230,-77.5193798449612,4,1,1,80,0,1
109311,-76.9230769230769,4,1,1,80,0,1
109392,-76.3358778625954,4,1,1,80,0,1
109472,-75.7575757575758,4,1,1,80,0,1
109553,-75.187969924812,4,1,1,80,0,1
109634,-74.6268656716418,4,1,1,80,0,1
109714,-74.0740740740741,4,1,1,85,0,1
109956,-76.9230769230769,4,1,1,85,0,1
110198,-80,4,1,1,85,0,1
110359,-83.3333333333333,4,1,1,85,0,1
110682,-86.9565217391304,4,1,1,85,0,1
111005,-100,4,1,1,75,0,0

[HitObjects]
386,81,1972,5,0,0:0:0:0:
386,81,2133,1,8,0:0:0:0:
386,81,2294,1,8,0:0:0:0:
386,81,2456,1,8,0:0:0:0:
386,81,2618,1,4,0:0:0:0:
386,81,2940,1,8,0:0:0:0:
386,81,3101,1,0,0:0:0:0:
386,81,3182,1,0,0:0:0:0:
386,81,3263,1,0,0:0:0:0:
386,81,3424,1,8,0:0:0:0:
386,81,3585,1,8,0:0:0:0:
386,81,3747,1,8,0:0:0:0:
386,81,3908,1,4,0:0:0:0:
386,81,4230,1,8,0:0:0:0:
386,81,4392,1,0,0:0:0:0:
386,81,4472,1,0,0:0:0:0:
386,81,4553,1,0,0:0:0:0:
386,81,4714,1,8,0:0:0:0:
386,81,4876,1,8,0:0:0:0:
386,81,5037,1,8,0:0:0:0:
386,81,5198,1,4,0:0:0:0:
386,81,5359,1,8,0:0:0:0:
386,81,5440,1,8,0:0:0:0:
386,81,5521,1,8,0:0:0:0:
386,81,5682,1,4,0:0:0:0:
386,81,5843,1,8,0:0:0:0:
386,81,5924,1,8,0:0:0:0:
386,81,6005,1,8,0:0:0:0:
386,81,6166,1,4,0:0:0:0:
386,81,6327,1,8,0:0:0:0:
386,81,6488,1,4,0:0:0:0:
390,83,6811,1,8,0:0:0:0:
390,83,6972,1,0,0:0:0:0:
391,83,7134,1,8,0:0:0:0:
391,83,7295,1,0,0:0:0:0:
391,84,7376,1,8,0:0:0:0:
391,83,7456,1,8,0:0:0:0:
390,83,7617,1,8,0:0:0:0:
390,83,7779,1,4,0:0:0:0:
391,83,8101,1,8,0:0:0:0:
391,83,8424,1,8,0:0:0:0:
390,83,8585,1,0,0:0:0:0:
390,83,8747,1,8,0:0:0:0:
391,83,8908,1,8,0:0:0:0:
391,83,9069,1,4,0:0:0:0:
391,83,9392,1,8,0:0:0:0:
390,83,9714,1,8,0:0:0:0:
391,83,9876,1,0,0:0:0:0:
391,83,10037,1,8,0:0:0:0:
391,83,10198,1,8,0:0:0:0:
391,83,10359,1,4,0:0:0:0:
390,83,10521,1,8,0:0:0:0:
390,83,10601,1,8,0:0:0:0:
390,83,10682,1,0,0:0:0:0:
391,83,10843,1,8,0:0:0:0:
391,83,10924,1,8,0:0:0:0:
391,83,11005,1,0,0:0:0:0:
391,83,11085,1,0,0:0:0:0:
391,83,11166,1,0,0:0:0:0:
391,83,11247,1,0,0:0:0:0:
391,83,11327,1,8,0:0:0:0:
390,83,11408,1,8,0:0:0:0:
390,83,11488,1,8,0:0:0:0:
390,83,11569,1,8,0:0:0:0:
390,83,11650,1,0,0:0:0:0:
396,77,11972,1,0,0:0:0:0:
396,77,12295,1,0,0:0:0:0:
397,78,12376,1,8,0:0:0:0:
396,78,12456,1,8,0:0:0:0:
397,78,12537,1,8,0:0:0:0:
397,78,12617,1,0,0:0:0:0:
397,77,12779,1,8,0:0:0:0:
397,77,12940,1,4,0:0:0:0:
396,77,13101,1,0,0:0:0:0:
396,77,13182,1,8,0:0:0:0:
396,85,13263,1,0,0:0:0:0:
397,78,13424,1,8,0:0:0:0:
396,85,13585,1,0,0:0:0:0:
385,98,13747,1,0,0:0:0:0:
402,80,13908,1,8,0:0:0:0:
401,79,14069,1,8,0:0:0:0:
402,79,14230,1,0,0:0:0:0:
402,80,14392,1,0,0:0:0:0:
402,80,14472,1,8,0:0:0:0:
402,80,14553,1,0,0:0:0:0:
402,80,14714,1,8,0:0:0:0:
402,80,14876,1,0,0:0:0:0:
401,79,15037,1,8,0:0:0:0:
397,93,15117,1,0,0:0:0:0:
402,79,15198,1,8,0:0:0:0:
402,80,15359,1,8,0:0:0:0:
401,89,15440,1,8,0:0:0:0:
401,89,15521,1,0,0:0:0:0:
401,89,15682,1,8,0:0:0:0:
401,89,15763,1,8,0:0:0:0:
409,98,15843,1,0,0:0:0:0:
401,89,16005,1,8,0:0:0:0:
402,89,16166,1,0,0:0:0:0:
402,89,16327,1,8,0:0:0:0:
401,89,16488,1,8,0:0:0:0:
401,89,16650,1,8,0:0:0:0:
401,89,16811,1,0,0:0:0:0:
401,89,16972,1,8,0:0:0:0:
401,89,17053,1,8,0:0:0:0:
402,89,17134,1,0,0:0:0:0:
402,89,17295,1,8,0:0:0:0:
402,89,17376,1,8,0:0:0:0:
401,89,17456,1,0,0:0:0:0:
401,89,17617,1,8,0:0:0:0:
401,89,17779,1,8,0:0:0:0:
407,94,17940,1,8,0:0:0:0:
402,89,18101,1,4,0:0:0:0:
402,89,18263,1,8,0:0:0:0:
402,89,18343,1,8,0:0:0:0:
401,89,18424,1,0,0:0:0:0:
406,86,18585,1,8,0:0:0:0:
407,90,18747,1,0,0:0:0:0:
407,94,18908,1,0,0:0:0:0:
404,95,18988,1,8,0:0:0:0:
403,95,19069,1,8,0:0:0:0:
403,95,19230,1,8,0:0:0:0:
403,95,19392,1,4,0:0:0:0:
404,95,19553,1,8,0:0:0:0:
404,95,19634,1,8,0:0:0:0:
403,95,19714,1,0,0:0:0:0:
403,95,19876,1,0,0:0:0:0:
403,95,20037,1,8,0:0:0:0:
403,95,20198,1,8,0:0:0:0:
408,101,20279,1,8,0:0:0:0:
403,95,20359,1,8,0:0:0:0:
404,95,20521,1,0,0:0:0:0:
404,95,20682,1,0,0:0:0:0:
403,95,20843,1,8,0:0:0:0:
408,97,20924,1,0,0:0:0:0:
403,95,21085,1,8,0:0:0:0:
403,95,21166,1,0,0:0:0:0:
403,95,21327,1,0,0:0:0:0:
404,95,21488,1,8,0:0:0:0:
404,95,21650,1,8,0:0:0:0:
403,95,21811,1,0,0:0:0:0:
403,95,22134,1,12,0:0:0:0:
404,95,22376,1,12,0:0:0:0:
404,95,22617,1,12,0:0:0:0:
407,109,22940,1,4,0:0:0:0:
410,107,23263,1,8,0:0:0:0:
410,107,23505,1,8,0:0:0:0:
403,142,23585,1,0,0:0:0:0:
403,122,23747,1,8,0:0:0:0:
407,109,23827,1,8,0:0:0:0:
407,109,23908,1,0,0:0:0:0:
407,109,24069,1,0,0:0:0:0:
410,107,24230,1,8,0:0:0:0:
405,110,24392,1,8,0:0:0:0:
407,109,24553,1,0,0:0:0:0:
407,109,24795,1,8,0:0:0:0:
407,109,24876,1,0,0:0:0:0:
407,109,25037,1,8,0:0:0:0:
404,111,25198,1,0,0:0:0:0:
407,109,25279,1,8,0:0:0:0:
405,110,25359,1,0,0:0:0:0:
405,110,25440,1,0,0:0:0:0:
407,109,25521,1,8,0:0:0:0:
407,109,25682,1,8,0:0:0:0:
407,109,25763,1,8,0:0:0:0:
407,109,25843,1,0,0:0:0:0:
407,109,26085,1,8,0:0:0:0:
390,108,26166,1,0,0:0:0:0:
399,112,26327,1,0,0:0:0:0:
399,112,26488,1,8,0:0:0:0:
405,113,26569,1,0,0:0:0:0:
403,113,26650,1,8,0:0:0:0:
401,119,26730,1,0,0:0:0:0:
403,113,26811,1,8,0:0:0:0:
407,109,26972,1,0,0:0:0:0:
404,111,27134,1,8,0:0:0:0:
407,109,27295,1,0,0:0:0:0:
407,109,27376,1,8,0:0:0:0:
407,109,27456,1,0,0:0:0:0:
407,109,27617,1,8,0:0:0:0:
407,109,27779,1,0,0:0:0:0:
401,108,27859,1,0,0:0:0:0:
407,109,27940,1,8,0:0:0:0:
404,111,28021,1,8,0:0:0:0:
404,111,28101,1,8,0:0:0:0:
407,109,28263,1,8,0:0:0:0:
407,109,28424,1,4,0:0:0:0:
407,109,28585,1,0,0:0:0:0:
407,109,28747,1,8,0:0:0:0:
407,109,28908,1,0,0:0:0:0:
404,111,28988,1,8,0:0:0:0:
404,111,29069,1,0,0:0:0:0:
407,109,29230,1,8,0:0:0:0:
387,110,29311,1,0,0:0:0:0:
407,109,29392,1,8,0:0:0:0:
407,109,29553,1,8,0:0:0:0:
407,109,29714,1,0,0:0:0:0:
417,117,29795,1,0,0:0:0:0:
407,109,29876,1,8,0:0:0:0:
410,111,29956,1,0,0:0:0:0:
410,111,30037,1,8,0:0:0:0:
416,117,30198,1,0,0:0:0:0:
389,97,30279,1,8,0:0:0:0:
416,117,30359,1,0,0:0:0:0:
401,105,30521,1,8,0:0:0:0:
401,105,30601,1,0,0:0:0:0:
401,105,30682,1,8,0:0:0:0:
401,105,30763,1,8,0:0:0:0:
401,106,30843,1,0,0:0:0:0:
401,106,31005,1,4,0:0:0:0:
401,106,31166,1,8,0:0:0:0:
401,106,31247,1,0,0:0:0:0:
401,106,31408,1,8,0:0:0:0:
401,105,31488,1,0,0:0:0:0:
401,105,31650,1,0,0:0:0:0:
401,105,31730,1,0,0:0:0:0:
401,106,31811,1,8,0:0:0:0:
401,106,31892,1,0,0:0:0:0:
401,106,31972,1,8,0:0:0:0:
401,106,32053,1,8,0:0:0:0:
401,106,32134,1,8,0:0:0:0:
401,106,32214,1,0,0:0:0:0:
389,97,32456,1,12,0:0:0:0:
389,97,32698,1,12,0:0:0:0:
389,97,32940,1,12,0:0:0:0:
392,106,33101,1,0,0:0:0:0:
389,97,33263,1,8,0:0:0:0:
399,106,33585,1,0,0:0:0:0:
387,115,33827,1,0,0:0:0:0:
387,115,33908,1,8,0:0:0:0:
387,115,34069,1,0,0:0:0:0:
388,116,34150,1,0,0:0:0:0:
387,115,34230,1,8,0:0:0:0:
388,116,34392,1,0,0:0:0:0:
388,116,34553,1,8,0:0:0:0:
387,115,34714,1,8,0:0:0:0:
387,115,34795,1,0,0:0:0:0:
387,115,34876,1,8,0:0:0:0:
387,115,35037,1,0,0:0:0:0:
373,104,35117,1,0,0:0:0:0:
394,113,35198,1,8,0:0:0:0:
394,114,35279,1,0,0:0:0:0:
394,114,35359,1,0,0:0:0:0:
394,114,35440,1,0,0:0:0:0:
394,114,35521,1,8,0:0:0:0:
394,114,35628,1,8,0:0:0:0:
394,114,35736,1,8,0:0:0:0:
389,122,35843,1,8,0:0:0:0:
387,115,35924,1,0,0:0:0:0:
387,115,36005,1,8,0:0:0:0:
390,118,36085,1,0,0:0:0:0:
390,118,36166,1,8,0:0:0:0:
390,118,36408,1,0,0:0:0:0:
390,118,36488,1,8,0:0:0:0:
394,114,36650,1,0,0:0:0:0:
394,114,36730,1,8,0:0:0:0:
389,122,36811,1,8,0:0:0:0:
387,115,36892,1,0,0:0:0:0:
387,115,36972,1,8,0:0:0:0:
387,115,37053,1,0,0:0:0:0:
390,118,37134,1,8,0:0:0:0:
390,118,37295,1,8,0:0:0:0:
390,118,37456,1,0,0:0:0:0:
391,119,37698,1,0,0:0:0:0:
389,122,37779,1,8,0:0:0:0:
391,119,37940,1,0,0:0:0:0:
391,119,38021,1,8,0:0:0:0:
391,119,38101,1,8,0:0:0:0:
390,118,38182,1,0,0:0:0:0:
382,119,38263,1,8,0:0:0:0:
390,118,38343,1,0,0:0:0:0:
390,118,38424,1,8,0:0:0:0:
390,118,38505,1,8,0:0:0:0:
391,119,38585,1,8,0:0:0:0:
391,119,38666,1,8,0:0:0:0:
389,122,38747,1,0,0:0:0:0:
391,119,38908,1,8,0:0:0:0:
391,119,38988,1,8,0:0:0:0:
391,119,39069,1,0,0:0:0:0:
390,118,39230,1,0,0:0:0:0:
390,118,39311,1,8,0:0:0:0:
390,118,39392,1,0,0:0:0:0:
391,119,39553,1,0,0:0:0:0:
391,119,39634,1,8,0:0:0:0:
391,119,39714,1,0,0:0:0:0:
391,119,39876,1,8,0:0:0:0:
391,119,40037,1,4,0:0:0:0:
394,122,40198,1,0,0:0:0:0:
394,122,40279,1,0,0:0:0:0:
394,122,40359,1,8,0:0:0:0:
391,119,40440,1,8,0:0:0:0:
391,119,40521,1,0,0:0:0:0:
391,119,40601,1,0,0:0:0:0:
391,119,40682,1,8,0:0:0:0:
391,119,40790,1,8,0:0:0:0:
391,119,40897,1,8,0:0:0:0:
391,119,41005,1,8,0:0:0:0:
398,111,41085,1,0,0:0:0:0:
398,111,41166,1,8,0:0:0:0:
398,111,41247,1,8,0:0:0:0:
398,111,41327,1,0,0:0:0:0:
398,111,41488,1,8,0:0:0:0:
398,111,41569,1,8,0:0:0:0:
398,111,41650,1,0,0:0:0:0:
399,111,41811,1,0,0:0:0:0:
399,111,41892,1,8,0:0:0:0:
399,111,41972,1,0,0:0:0:0:
398,111,42134,1,8,0:0:0:0:
398,111,42295,1,0,0:0:0:0:
398,111,42456,1,8,0:0:0:0:
398,111,42537,1,8,0:0:0:0:
398,111,42617,1,0,0:0:0:0:
399,111,42779,1,8,0:0:0:0:
399,111,42859,1,0,0:0:0:0:
399,111,42940,1,8,0:0:0:0:
398,111,43021,1,0,0:0:0:0:
398,111,43101,1,8,0:0:0:0:
398,111,43182,1,0,0:0:0:0:
398,111,43263,1,8,0:0:0:0:
398,111,43343,1,8,0:0:0:0:
398,111,43424,1,8,0:0:0:0:
398,111,43505,1,8,0:0:0:0:
398,111,43585,1,8,0:0:0:0:
399,111,43666,1,8,0:0:0:0:
399,111,43747,1,8,0:0:0:0:
399,111,43827,1,8,0:0:0:0:
399,111,43908,1,0,0:0:0:0:
398,111,44230,1,8,0:0:0:0:
398,111,44392,1,0,0:0:0:0:
398,111,44553,1,8,0:0:0:0:
399,111,44714,1,8,0:0:0:0:
399,111,44876,1,0,0:0:0:0:
398,111,45037,1,8,0:0:0:0:
398,111,45198,1,12,0:0:0:0:
398,111,45359,1,4,0:0:0:0:
398,111,45521,1,12,0:0:0:0:
399,111,45682,1,12,0:0:0:0:
399,111,45843,1,4,0:0:0:0:
398,116,46166,1,8,0:0:0:0:
398,116,46488,1,4,0:0:0:0:
389,108,46650,1,0,0:0:0:0:
391,108,46730,1,0,0:0:0:0:
389,108,46811,1,8,0:0:0:0:
389,108,46892,1,0,0:0:0:0:
391,109,46972,1,8,0:0:0:0:
391,109,47053,1,8,0:0:0:0:
391,109,47134,1,0,0:0:0:0:
392,109,47214,1,8,0:0:0:0:
392,109,47295,1,0,0:0:0:0:
392,109,47376,1,0,0:0:0:0:
392,109,47456,1,8,0:0:0:0:
389,108,47537,1,0,0:0:0:0:
389,108,47617,1,8,0:0:0:0:
391,108,47698,1,8,0:0:0:0:
389,108,47779,1,0,0:0:0:0:
389,108,47859,1,0,0:0:0:0:
389,108,47940,1,8,0:0:0:0:
391,109,48021,1,8,0:0:0:0:
391,109,48101,1,0,0:0:0:0:
392,109,48182,1,8,0:0:0:0:
392,109,48263,1,8,0:0:0:0:
392,109,48343,1,8,0:0:0:0:
392,109,48424,1,0,0:0:0:0:
389,108,48505,1,0,0:0:0:0:
366,99,48585,1,0,0:0:0:0:
391,108,48666,1,0,0:0:0:0:
389,108,48747,1,8,0:0:0:0:
400,106,48827,1,0,0:0:0:0:
410,108,48908,1,8,0:0:0:0:
400,105,48988,1,0,0:0:0:0:
391,109,49069,1,8,0:0:0:0:
400,105,49150,1,0,0:0:0:0:
398,114,49230,1,8,0:0:0:0:
400,108,49311,1,8,0:0:0:0:
400,104,49392,1,0,0:0:0:0:
400,107,49472,1,8,0:0:0:0:
400,104,49553,1,8,0:0:0:0:
401,108,49634,1,0,0:0:0:0:
400,104,49714,1,8,0:0:0:0:
400,107,49795,1,0,0:0:0:0:
397,117,49876,1,0,0:0:0:0:
400,106,49956,1,0,0:0:0:0:
400,104,50037,1,8,0:0:0:0:
399,106,50117,1,8,0:0:0:0:
398,114,50198,1,8,0:0:0:0:
400,104,50279,1,8,0:0:0:0:
400,104,50359,1,0,0:0:0:0:
400,104,50440,1,0,0:0:0:0:
400,104,50521,1,8,0:0:0:0:
400,104,50601,1,0,0:0:0:0:
400,104,50682,1,8,0:0:0:0:
399,106,50763,1,0,0:0:0:0:
400,104,50843,1,8,0:0:0:0:
400,104,50924,1,8,0:0:0:0:
400,104,51005,1,0,0:0:0:0:
400,104,51166,1,4,0:0:0:0:
400,104,51327,1,4,0:0:0:0:
400,104,51650,1,0,0:0:0:0:
382,102,51730,1,0,0:0:0:0:
382,102,51811,1,0,0:0:0:0:
382,102,51892,1,0,0:0:0:0:
382,102,51972,1,8,0:0:0:0:
382,102,52053,1,0,0:0:0:0:
393,101,52134,1,8,0:0:0:0:
393,101,52214,1,0,0:0:0:0:
393,101,52295,1,8,0:0:0:0:
393,101,52376,1,8,0:0:0:0:
393,101,52456,1,0,0:0:0:0:
400,104,52537,1,0,0:0:0:0:
400,104,52617,1,8,0:0:0:0:
394,101,52698,1,8,0:0:0:0:
395,101,52779,1,0,0:0:0:0:
395,102,52859,1,0,0:0:0:0:
395,102,52940,1,8,0:0:0:0:
395,102,53021,1,0,0:0:0:0:
395,102,53101,1,8,0:0:0:0:
393,101,53182,1,0,0:0:0:0:
408,99,53263,1,8,0:0:0:0:
393,101,53343,1,8,0:0:0:0:
408,99,53424,1,8,0:0:0:0:
409,100,53505,1,8,0:0:0:0:
408,99,53585,1,0,0:0:0:0:
409,100,53666,1,8,0:0:0:0:
409,100,53747,1,8,0:0:0:0:
409,100,53827,1,8,0:0:0:0:
409,100,53908,1,0,0:0:0:0:
409,100,54069,1,4,0:0:0:0:
409,101,54230,1,12,0:0:0:0:
408,99,54392,1,0,0:0:0:0:
408,99,54472,1,0,0:0:0:0:
409,100,54553,1,0,0:0:0:0:
409,100,54714,1,4,0:0:0:0:
409,100,54876,1,12,0:0:0:0:
409,100,55037,1,0,0:0:0:0:
409,101,55117,1,0,0:0:0:0:
409,101,55198,1,8,0:0:0:0:
408,99,55359,1,0,0:0:0:0:
408,99,55521,1,12,0:0:0:0:
409,100,55682,1,8,0:0:0:0:
409,100,55763,1,0,0:0:0:0:
409,100,55843,1,8,0:0:0:0:
409,100,56005,1,8,0:0:0:0:
409,101,56166,1,8,0:0:0:0:
429,95,56247,1,0,0:0:0:0:
408,99,56327,1,8,0:0:0:0:
411,104,56408,1,0,0:0:0:0:
410,103,56488,1,8,0:0:0:0:
409,100,56650,1,8,0:0:0:0:
409,100,56811,1,4,0:0:0:0:
415,97,56972,1,8,0:0:0:0:
415,97,57053,1,0,0:0:0:0:
415,97,57134,1,8,0:0:0:0:
410,121,57214,1,0,0:0:0:0:
415,97,57295,1,8,0:0:0:0:
415,97,57376,1,8,0:0:0:0:
415,97,57456,1,0,0:0:0:0:
415,97,57537,1,8,0:0:0:0:
416,97,57617,1,0,0:0:0:0:
422,113,57698,1,0,0:0:0:0:
416,98,57779,1,8,0:0:0:0:
415,97,57940,1,8,0:0:0:0:
415,97,58021,1,8,0:0:0:0:
415,97,58101,1,0,0:0:0:0:
415,97,58182,1,8,0:0:0:0:
415,97,58263,1,0,0:0:0:0:
415,97,58343,1,0,0:0:0:0:
415,97,58424,1,8,0:0:0:0:
401,116,58505,1,0,0:0:0:0:
416,97,58585,1,8,0:0:0:0:
416,98,58666,1,0,0:0:0:0:
416,98,58747,1,8,0:0:0:0:
415,97,58854,1,8,0:0:0:0:
415,97,58962,1,8,0:0:0:0:
415,97,59069,1,8,0:0:0:0:
407,95,59150,1,0,0:0:0:0:
407,95,59230,1,0,0:0:0:0:
407,95,59311,1,8,0:0:0:0:
407,95,59392,1,0,0:0:0:0:
407,96,59553,1,0,0:0:0:0:
407,96,59634,1,8,0:0:0:0:
407,96,59714,1,0,0:0:0:0:
401,120,59795,1,0,0:0:0:0:
408,96,59876,1,8,0:0:0:0:
408,96,59956,1,8,0:0:0:0:
408,96,60037,1,0,0:0:0:0:
400,120,60117,1,0,0:0:0:0:
407,95,60198,1,8,0:0:0:0:
407,95,60279,1,8,0:0:0:0:
407,95,60359,1,0,0:0:0:0:
407,96,60521,1,8,0:0:0:0:
407,96,60682,1,0,0:0:0:0:
408,96,60843,1,8,0:0:0:0:
408,96,60924,1,8,0:0:0:0:
414,133,61005,1,0,0:0:0:0:
413,109,61085,1,0,0:0:0:0:
407,95,61166,1,8,0:0:0:0:
407,95,61247,1,8,0:0:0:0:
407,95,61327,1,0,0:0:0:0:
413,109,61408,1,8,0:0:0:0:
407,96,61488,1,0,0:0:0:0:
407,96,61650,1,8,0:0:0:0:
408,96,61730,1,8,0:0:0:0:
408,96,61811,1,8,0:0:0:0:
408,96,61892,1,8,0:0:0:0:
408,96,61972,1,0,0:0:0:0:
407,95,62134,1,0,0:0:0:0:
407,95,62214,1,0,0:0:0:0:
407,95,62295,1,8,0:0:0:0:
407,96,62456,1,8,0:0:0:0:
407,96,62537,1,8,0:0:0:0:
407,96,62617,1,0,0:0:0:0:
408,96,62698,1,8,0:0:0:0:
408,96,62779,1,8,0:0:0:0:
408,96,62859,1,8,0:0:0:0:
408,96,62940,1,0,0:0:0:0:
408,96,63021,1,0,0:0:0:0:
407,95,63101,1,8,0:0:0:0:
407,95,63182,1,8,0:0:0:0:
407,95,63263,1,0,0:0:0:0:
407,96,63424,1,0,0:0:0:0:
407,96,63505,1,0,0:0:0:0:
407,96,63585,1,8,0:0:0:0:
408,96,63747,1,8,0:0:0:0:
408,96,63827,1,8,0:0:0:0:
408,96,63908,1,0,0:0:0:0:
408,96,64015,1,8,0:0:0:0:
407,95,64123,1,8,0:0:0:0:
407,95,64230,1,8,0:0:0:0:
400,93,64311,1,0,0:0:0:0:
400,93,64392,1,0,0:0:0:0:
401,93,64472,1,0,0:0:0:0:
401,93,64553,1,8,0:0:0:0:
401,93,64714,1,8,0:0:0:0:
401,93,64795,1,0,0:0:0:0:
401,93,64876,1,8,0:0:0:0:
402,93,64956,1,8,0:0:0:0:
402,93,65037,1,0,0:0:0:0:
407,95,65117,1,8,0:0:0:0:
407,95,65198,1,0,0:0:0:0:
407,95,65279,1,8,0:0:0:0:
400,93,65359,1,8,0:0:0:0:
400,93,65440,1,0,0:0:0:0:
401,93,65521,1,8,0:0:0:0:
401,93,65601,1,8,0:0:0:0:
401,93,65682,1,0,0:0:0:0:
401,93,65763,1,8,0:0:0:0:
401,93,65843,1,0,0:0:0:0:
402,93,65924,1,8,0:0:0:0:
402,93,66005,1,0,0:0:0:0:
407,95,66085,1,0,0:0:0:0:
400,89,66166,1,8,0:0:0:0:
400,89,66247,1,0,0:0:0:0:
401,89,66327,1,0,0:0:0:0:
400,93,66408,1,8,0:0:0:0:
400,93,66488,1,0,0:0:0:0:
401,93,66569,1,0,0:0:0:0:
401,93,66650,1,0,0:0:0:0:
401,93,66730,1,0,0:0:0:0:
401,93,66811,1,8,0:0:0:0:
402,93,66892,1,8,0:0:0:0:
402,93,66972,1,8,0:0:0:0:
401,90,67053,1,8,0:0:0:0:
400,89,67134,1,0,0:0:0:0:
408,95,69069,1,0,0:0:0:0:
408,95,69230,1,8,0:0:0:0:
408,95,69392,1,8,0:0:0:0:
408,95,69553,1,0,0:0:0:0:
408,95,69714,1,8,0:0:0:0:
408,95,70359,1,0,0:0:0:0:
408,95,70521,1,8,0:0:0:0:
408,95,70682,1,8,0:0:0:0:
408,95,70843,1,0,0:0:0:0:
408,95,71005,1,8,0:0:0:0:
408,95,71650,1,0,0:0:0:0:
408,95,71811,1,8,0:0:0:0:
408,95,71972,1,8,0:0:0:0:
408,95,72134,1,0,0:0:0:0:
408,95,72295,1,8,0:0:0:0:
408,95,72456,1,0,0:0:0:0:
408,95,72617,1,8,0:0:0:0:
408,95,72779,1,8,0:0:0:0:
408,95,72940,1,0,0:0:0:0:
408,95,73101,1,8,0:0:0:0:
408,95,73263,1,8,0:0:0:0:
408,95,73424,1,8,0:0:0:0:
408,95,73585,1,0,0:0:0:0:
408,95,74230,1,0,0:0:0:0:
408,95,74392,1,8,0:0:0:0:
408,95,74553,1,8,0:0:0:0:
408,95,74714,1,0,0:0:0:0:
408,95,74876,1,8,0:0:0:0:
408,95,75521,1,0,0:0:0:0:
408,95,75682,1,8,0:0:0:0:
408,95,75843,1,8,0:0:0:0:
408,95,76005,1,0,0:0:0:0:
408,95,76166,1,8,0:0:0:0:
408,95,76811,1,0,0:0:0:0:
408,95,76972,1,8,0:0:0:0:
408,95,77134,1,8,0:0:0:0:
408,95,77295,1,0,0:0:0:0:
408,95,77456,1,8,0:0:0:0:
408,95,77617,1,8,0:0:0:0:
408,95,77779,1,0,0:0:0:0:
408,95,77940,1,8,0:0:0:0:
408,95,78101,1,8,0:0:0:0:
408,95,78263,1,8,0:0:0:0:
408,95,78424,1,0,0:0:0:0:
408,95,78585,1,8,0:0:0:0:
408,95,78747,1,8,0:0:0:0:
408,95,79714,1,12,0:0:0:0:
408,95,80037,1,8,0:0:0:0:
408,95,80117,1,8,0:0:0:0:
408,95,80198,1,0,0:0:0:0:
408,95,80359,1,8,0:0:0:0:
408,95,80521,1,0,0:0:0:0:
408,95,80601,1,8,0:0:0:0:
408,95,80682,1,0,0:0:0:0:
408,95,80763,1,0,0:0:0:0:
408,95,80843,1,8,0:0:0:0:
408,95,80924,1,8,0:0:0:0:
408,95,81005,1,8,0:0:0:0:
408,95,81085,1,0,0:0:0:0:
408,95,81166,1,0,0:0:0:0:
408,95,81247,1,0,0:0:0:0:
408,95,81327,1,8,0:0:0:0:
408,95,81408,1,8,0:0:0:0:
408,95,81488,1,0,0:0:0:0:
408,95,81650,1,8,0:0:0:0:
408,95,81811,1,0,0:0:0:0:
408,95,81892,1,8,0:0:0:0:
408,95,82053,1,0,0:0:0:0:
408,95,82134,1,8,0:0:0:0:
408,95,82214,1,8,0:0:0:0:
408,95,82295,1,0,0:0:0:0:
408,95,82376,1,8,0:0:0:0:
408,95,82456,1,8,0:0:0:0:
408,95,82537,1,0,0:0:0:0:
408,95,82617,1,8,0:0:0:0:
417,91,82859,1,8,0:0:0:0:
417,91,82940,1,0,0:0:0:0:
408,95,83101,1,8,0:0:0:0:
408,95,83263,1,0,0:0:0:0:
408,95,83343,1,8,0:0:0:0:
408,95,83505,1,0,0:0:0:0:
408,95,83585,1,8,0:0:0:0:
412,96,83747,1,8,0:0:0:0:
412,96,83908,1,0,0:0:0:0:
408,95,84069,1,0,0:0:0:0:
408,95,84150,1,8,0:0:0:0:
408,95,84311,1,0,0:0:0:0:
408,95,84392,1,8,0:0:0:0:
408,95,84553,1,0,0:0:0:0:
412,96,84634,1,8,0:0:0:0:
412,96,84795,1,0,0:0:0:0:
412,96,84876,1,8,0:0:0:0:
412,96,85037,1,8,0:0:0:0:
408,95,85117,1,0,0:0:0:0:
408,95,85198,1,0,0:0:0:0:
408,95,85279,1,8,0:0:0:0:
408,95,85359,1,0,0:0:0:0:
411,106,85521,1,8,0:0:0:0:
412,106,85682,1,0,0:0:0:0:
412,106,85763,1,8,0:0:0:0:
414,106,85843,1,0,0:0:0:0:
415,106,85924,1,8,0:0:0:0:
414,106,86005,1,8,0:0:0:0:
414,106,86085,1,8,0:0:0:0:
414,106,86166,1,0,0:0:0:0:
414,106,86327,1,0,0:0:0:0:
411,106,86408,1,0,0:0:0:0:
411,106,86488,1,8,0:0:0:0:
412,106,86569,1,8,0:0:0:0:
412,106,86650,1,0,0:0:0:0:
412,106,86730,1,0,0:0:0:0:
414,106,86811,1,8,0:0:0:0:
414,106,86972,1,0,0:0:0:0:
414,106,87053,1,8,0:0:0:0:
414,106,87134,1,0,0:0:0:0:
414,106,87214,1,8,0:0:0:0:
414,106,87295,1,8,0:0:0:0:
411,106,87376,1,8,0:0:0:0:
411,106,87456,1,0,0:0:0:0:
412,106,87537,1,0,0:0:0:0:
412,106,87617,1,8,0:0:0:0:
412,106,87698,1,8,0:0:0:0:
412,106,87779,1,0,0:0:0:0:
414,106,87859,1,8,0:0:0:0:
414,106,87940,1,0,0:0:0:0:
414,106,88021,1,8,0:0:0:0:
414,106,88101,1,0,0:0:0:0:
414,106,88182,1,8,0:0:0:0:
414,106,88263,1,0,0:0:0:0:
411,106,88343,1,0,0:0:0:0:
411,106,88424,1,0,0:0:0:0:
411,106,88505,1,8,0:0:0:0:
412,106,88585,1,8,0:0:0:0:
412,106,88666,1,0,0:0:0:0:
412,106,88747,1,8,0:0:0:0:
412,106,88800,1,8,0:0:0:0:
414,106,88854,1,8,0:0:0:0:
422,108,88908,1,8,0:0:0:0:
422,108,88962,1,8,0:0:0:0:
423,108,89015,1,8,0:0:0:0:
422,108,89069,1,0,0:0:0:0:
419,110,89392,1,8,0:0:0:0:
420,110,89714,1,8,0:0:0:0:
419,110,89795,1,8,0:0:0:0:
420,110,89876,1,8,0:0:0:0:
422,108,89956,1,8,0:0:0:0:
423,108,90037,1,4,0:0:0:0:
419,110,90359,1,8,0:0:0:0:
426,111,90440,1,8,0:0:0:0:
426,111,90521,1,0,0:0:0:0:
426,111,90682,1,8,0:0:0:0:
426,111,90843,1,0,0:0:0:0:
426,111,90924,1,8,0:0:0:0:
426,111,91085,1,8,0:0:0:0:
426,111,91166,1,8,0:0:0:0:
426,111,91247,1,8,0:0:0:0:
426,111,91327,1,0,0:0:0:0:
426,111,91408,1,8,0:0:0:0:
426,111,91488,1,8,0:0:0:0:
426,111,91569,1,8,0:0:0:0:
426,111,91650,1,0,0:0:0:0:
426,111,91730,1,8,0:0:0:0:
426,111,91811,1,0,0:0:0:0:
426,111,91892,1,0,0:0:0:0:
423,108,91972,1,8,0:0:0:0:
426,111,92134,1,0,0:0:0:0:
426,111,92214,1,8,0:0:0:0:
426,111,92376,1,8,0:0:0:0:
426,111,92456,1,8,0:0:0:0:
426,111,92537,1,8,0:0:0:0:
426,111,92617,1,0,0:0:0:0:
405,105,92698,1,8,0:0:0:0:
405,105,92779,1,8,0:0:0:0:
405,105,92859,1,0,0:0:0:0:
428,113,92940,1,8,0:0:0:0:
426,111,93021,1,0,0:0:0:0:
426,111,93101,1,0,0:0:0:0:
426,111,93182,1,8,0:0:0:0:
416,108,93263,1,0,0:0:0:0:
426,111,93343,1,0,0:0:0:0:
426,111,93424,1,8,0:0:0:0:
426,111,93505,1,8,0:0:0:0:
426,111,93585,1,0,0:0:0:0:
426,111,93666,1,8,0:0:0:0:
416,108,93747,1,0,0:0:0:0:
428,113,93827,1,0,0:0:0:0:
428,113,93908,1,8,0:0:0:0:
426,111,93988,1,0,0:0:0:0:
426,111,94069,1,8,0:0:0:0:
426,111,94150,1,8,0:0:0:0:
426,111,94230,1,0,0:0:0:0:
426,111,94392,1,0,0:0:0:0:
426,111,94472,1,8,0:0:0:0:
426,111,94553,1,8,0:0:0:0:
413,123,94634,1,0,0:0:0:0:
420,110,94714,1,8,0:0:0:0:
406,112,94795,1,0,0:0:0:0:
420,110,94876,1,0,0:0:0:0:
426,111,94956,1,8,0:0:0:0:
416,108,95037,1,8,0:0:0:0:
426,111,95117,1,0,0:0:0:0:
426,111,95198,1,8,0:0:0:0:
413,127,95279,1,0,0:0:0:0:
426,111,95359,1,8,0:0:0:0:
426,111,95440,1,0,0:0:0:0:
426,111,95521,1,8,0:0:0:0:
426,111,95601,1,8,0:0:0:0:
420,110,95682,1,0,0:0:0:0:
420,110,95843,1,8,0:0:0:0:
426,111,96005,1,0,0:0:0:0:
426,111,96085,1,8,0:0:0:0:
426,111,96247,1,0,0:0:0:0:
426,111,96327,1,8,0:0:0:0:
426,111,96408,1,8,0:0:0:0:
426,111,96488,1,0,0:0:0:0:
426,111,96569,1,8,0:0:0:0:
426,111,96650,1,8,0:0:0:0:
420,110,96730,1,0,0:0:0:0:
420,110,96811,1,8,0:0:0:0:
426,111,96892,1,8,0:0:0:0:
426,111,96972,1,0,0:0:0:0:
426,111,97053,1,0,0:0:0:0:
426,111,97134,1,8,0:0:0:0:
397,131,97214,1,0,0:0:0:0:
426,111,97295,1,8,0:0:0:0:
426,111,97376,1,8,0:0:0:0:
426,111,97537,1,0,0:0:0:0:
426,111,97617,1,8,0:0:0:0:
420,110,97698,1,8,0:0:0:0:
420,110,97779,1,8,0:0:0:0:
426,111,97859,1,0,0:0:0:0:
426,111,97940,1,8,0:0:0:0:
426,111,98021,1,0,0:0:0:0:
426,111,98101,1,8,0:0:0:0:
426,111,98263,1,0,0:0:0:0:
426,111,98343,1,8,0:0:0:0:
426,111,98505,1,0,0:0:0:0:
426,111,98585,1,8,0:0:0:0:
409,106,98666,1,0,0:0:0:0:
420,110,98747,1,8,0:0:0:0:
426,111,98827,1,0,0:0:0:0:
426,111,98908,1,0,0:0:0:0:
426,111,98988,1,0,0:0:0:0:
426,111,99069,1,8,0:0:0:0:
426,111,99150,1,8,0:0:0:0:
426,111,99230,1,0,0:0:0:0:
426,111,99271,1,0,0:0:0:0:
432,128,99311,1,8,0:0:0:0:
434,116,99553,1,12,0:0:0:0:
434,116,99795,1,12,0:0:0:0:
434,116,100037,1,4,0:0:0:0:
430,113,100279,1,4,0:0:0:0:
434,116,100682,1,8,0:0:0:0:
434,116,100763,1,8,0:0:0:0:
434,116,100843,1,0,0:0:0:0:
434,116,101005,1,8,0:0:0:0:
430,113,101166,1,0,0:0:0:0:
430,113,101247,1,8,0:0:0:0:
423,118,101327,1,0,0:0:0:0:
434,116,101408,1,0,0:0:0:0:
434,116,101488,1,0,0:0:0:0:
434,116,101569,1,8,0:0:0:0:
434,116,101650,1,8,0:0:0:0:
434,116,101730,1,0,0:0:0:0:
434,116,101811,1,8,0:0:0:0:
434,116,101892,1,0,0:0:0:0:
434,116,101972,1,8,0:0:0:0:
430,113,102053,1,8,0:0:0:0:
430,113,102134,1,0,0:0:0:0:
405,117,102214,1,0,0:0:0:0:
434,116,102295,1,8,0:0:0:0:
434,116,102456,1,0,0:0:0:0:
434,116,102537,1,8,0:0:0:0:
423,118,102617,1,0,0:0:0:0:
434,116,102698,1,0,0:0:0:0:
434,116,102779,1,8,0:0:0:0:
434,116,102859,1,8,0:0:0:0:
434,116,102940,1,0,0:0:0:0:
434,116,103021,1,8,0:0:0:0:
430,113,103101,1,0,0:0:0:0:
430,113,103182,1,8,0:0:0:0:
434,116,103263,1,8,0:0:0:0:
406,150,103343,1,0,0:0:0:0:
434,116,103424,1,0,0:0:0:0:
434,116,103505,1,8,0:0:0:0:
434,116,103585,1,8,0:0:0:0:
434,116,103666,1,0,0:0:0:0:
434,116,103747,1,8,0:0:0:0:
434,116,103827,1,8,0:0:0:0:
434,116,103908,1,0,0:0:0:0:
434,116,103988,1,8,0:0:0:0:
429,114,104069,1,8,0:0:0:0:
430,113,104150,1,0,0:0:0:0:
434,116,104230,1,8,0:0:0:0:
422,117,104311,1,0,0:0:0:0:
434,116,104392,1,8,0:0:0:0:
420,116,104472,1,0,0:0:0:0:
434,116,104553,1,8,0:0:0:0:
415,100,104634,1,8,0:0:0:0:
434,116,104714,1,0,0:0:0:0:
434,116,104795,1,8,0:0:0:0:
434,116,104876,1,8,0:0:0:0:
456,137,104956,1,0,0:0:0:0:
430,113,105037,1,8,0:0:0:0:
430,113,105117,1,0,0:0:0:0:
423,118,105198,1,0,0:0:0:0:
434,116,105279,1,8,0:0:0:0:
434,116,105359,1,0,0:0:0:0:
434,116,105440,1,0,0:0:0:0:
434,116,105521,1,8,0:0:0:0:
446,122,105601,1,0,0:0:0:0:
434,116,105682,1,8,0:0:0:0:
434,116,105843,1,8,0:0:0:0:
430,113,105924,1,0,0:0:0:0:
430,113,106005,1,0,0:0:0:0:
434,116,106166,1,8,0:0:0:0:
434,116,106327,1,0,0:0:0:0:
434,116,106408,1,8,0:0:0:0:
434,116,106488,1,0,0:0:0:0:
434,116,106569,1,0,0:0:0:0:
434,116,106650,1,8,0:0:0:0:
434,116,106730,1,8,0:0:0:0:
434,116,106811,1,0,0:0:0:0:
430,113,106892,1,8,0:0:0:0:
430,113,106972,1,8,0:0:0:0:
434,116,107053,1,0,0:0:0:0:
434,116,107134,1,8,0:0:0:0:
434,116,107214,1,8,0:0:0:0:
434,116,107295,1,0,0:0:0:0:
407,96,107376,1,0,0:0:0:0:
434,116,107456,1,8,0:0:0:0:
434,116,107617,1,0,0:0:0:0:
434,116,107698,1,8,0:0:0:0:
421,118,107779,1,0,0:0:0:0:
430,113,107859,1,0,0:0:0:0:
430,113,107940,1,8,0:0:0:0:
434,116,108021,1,0,0:0:0:0:
434,116,108101,1,8,0:0:0:0:
434,116,108182,1,0,0:0:0:0:
434,116,108263,1,8,0:0:0:0:
434,116,108343,1,0,0:0:0:0:
434,116,108424,1,8,0:0:0:0:
434,116,108585,1,0,0:0:0:0:
434,116,108666,1,8,0:0:0:0:
430,113,108827,1,0,0:0:0:0:
430,113,108908,1,8,0:0:0:0:
434,116,109069,1,8,0:0:0:0:
434,116,109150,1,8,0:0:0:0:
434,116,109230,1,0,0:0:0:0:
434,116,109311,1,0,0:0:0:0:
434,116,109392,1,8,0:0:0:0:
434,116,109472,1,8,0:0:0:0:
434,116,109553,1,0,0:0:0:0:
434,116,109634,1,8,0:0:0:0:
434,116,109714,1,4,0:0:0:0:
430,113,109956,1,12,0:0:0:0:
434,116,110198,1,4,0:0:0:0:
434,116,110440,1,12,0:0:0:0:
434,116,110682,1,12,0:0:0:0:
434,116,111005,1,4,0:0:0:0:
