osu file format v14

[General]
AudioFilename: audio.mp3
AudioLeadIn: 0
PreviewTime: 46448
Countdown: 1
SampleSet: Normal
StackLeniency: 0.7
Mode: 1
LetterboxInBreaks: 0
WidescreenStoryboard: 1

[Editor]
DistanceSpacing: 0.8
BeatDivisor: 4
GridSize: 32
TimelineZoom: 2.599999

[Metadata]
Title:Gekkou Ranbu
TitleUnicode:月光乱舞
Artist:P*Light
ArtistUnicode:P*Light
Creator:kanpakyin
Version:Cynp-zy's Lite Inner Oni
Source:SOUND VOLTEX III GRAVITY WARS
Tags:bemani konami beatnation RHYZE SDVX 天下一音ゲ祭 2015 ブロック決勝課題曲 Rasis Steins video game electronic instrumental Cynplytholowazy -gn junior Consified _54fied
BeatmapID:2516903
BeatmapSetID:454392

[Difficulty]
HPDrainRate:6
CircleSize:7
OverallDifficulty:6
ApproachRate:10
SliderMultiplier:1.4
SliderTickRate:1

[Events]
//Background and Video events
0,0,"BG.png",0,100
//Break Periods
//Storyboard Layer 0 (Background)
//Storyboard Layer 1 (Fail)
//Storyboard Layer 2 (Pass)
//Storyboard Layer 3 (Foreground)
//Storyboard Layer 4 (Overlay)
//Storyboard Sound Samples

[TimingPoints]
1327,322.58064516129,4,1,0,75,1,8
1972,-125,4,1,0,75,0,8
2563,-100,4,1,0,75,0,0
2617,322.58064516129,4,1,0,80,1,8
2618,322.58064516129,4,1,0,80,1,0
2618,-83.3333333333333,4,1,0,80,0,0
3263,-100,4,1,0,80,0,0
3888,-83.3333333333333,4,1,0,80,0,0
4533,-100,4,1,0,80,0,0
5198,-83.3333333333333,4,1,0,80,0,0
5359,-100,4,1,0,80,0,0
5662,-83.3333333333333,4,1,0,80,0,0
5823,-100,4,1,0,80,0,0
6146,-83.3333333333333,4,1,0,80,0,0
6307,-100,4,1,0,80,0,0
6468,-83.3333333333333,4,1,0,80,0,0
7113,-100,4,1,0,80,0,0
7779,-83.3333333333333,4,1,0,80,0,0
8101,-99.3788819875776,4,1,0,80,0,0
8263,-99.0712074303406,4,1,0,80,0,0
8424,-98.7654320987654,4,1,0,80,0,0
8585,-98.4615384615385,4,1,0,80,0,0
8747,-98.159509202454,4,1,0,80,0,0
8908,-97.8593272171254,4,1,0,80,0,0
9069,-81.6326530612245,4,1,0,80,0,0
9392,-96.969696969697,4,1,0,80,0,0
9553,-96.6767371601208,4,1,0,80,0,0
9714,-96.3855421686747,4,1,0,80,0,0
9876,-96.0960960960961,4,1,0,80,0,0
10037,-95.8083832335329,4,1,0,80,0,0
10198,-95.5223880597015,4,1,0,80,0,0
10359,-95.2380952380952,4,1,0,80,0,0
10521,-94.6774245468265,4,1,0,80,0,0
10682,-94.1234051965532,4,1,0,80,0,0
10843,-93.5757444184408,4,1,0,80,0,0
11005,-93.0345064984603,4,1,0,80,0,0
11085,-92.7661856121501,4,1,0,80,0,0
11166,-92.4994080037888,4,1,0,80,0,0
11247,-92.2341603970496,4,1,0,80,0,0
11327,-91.9704296674533,4,1,0,80,0,0
11408,-91.708202840203,4,1,0,80,0,0
11488,-91.4475507145254,4,1,0,80,0,0
11569,-91.1882928822066,4,1,0,80,0,0
11650,-90.9305009088503,4,1,0,65,0,0
12295,-99.009900990099,4,1,0,80,0,0
12376,-98.0392156862745,4,1,0,80,0,0
12456,-97.0873786407767,4,1,0,80,0,0
12537,-96.1538461538461,4,1,0,80,0,0
12617,-95.2380952380952,4,1,0,80,0,0
12779,-93.0232558139535,4,1,0,80,0,0
12940,-90.9090909090909,4,1,0,80,0,0
18101,-90.9090909090909,4,1,0,80,0,0
18343,-90.5243623690226,4,1,0,80,0,0
18424,-90.3967876597537,4,1,0,80,0,0
18585,-90.1427952018793,4,1,0,80,0,0
18747,-89.8902260559405,4,1,0,80,0,0
18908,-89.6391486432219,4,1,0,80,0,0
18988,-89.5140550493536,4,1,0,80,0,0
19069,-89.3893900157415,4,1,0,80,0,0
19230,-89.1410193097276,4,1,0,80,0,0
19392,-88.8940249881104,4,1,0,80,0,0
19634,-88.5261284868229,4,1,0,80,0,0
19714,-88.4041199856078,4,1,0,80,0,0
19876,-88.161186861162,4,1,0,80,0,0
20037,-87.9195852305647,4,1,0,80,0,0
20198,-87.6793810537133,4,1,0,80,0,0
20279,-87.5596938212627,4,1,0,80,0,0
20359,-87.4404093610205,4,1,0,80,0,0
20521,-87.2027367706908,4,1,0,80,0,0
20682,-86.9565217391304,4,1,0,80,0,0
20843,-86.4197424173157,4,1,0,80,0,0
20924,-86.153867360952,4,1,0,80,0,0
21166,-85.3658224271381,4,1,0,80,0,0
21327,-84.8485157024906,4,1,0,80,0,0
21488,-84.3373697198481,4,1,0,80,0,0
21650,-83.8323453691432,4,1,0,80,0,0
21811,-83.3333333333333,4,1,0,80,0,0
22053,-71.4285714285714,4,1,0,85,0,0
22295,-71.4285714285714,4,1,0,85,0,0
22537,-71.4285714285714,4,1,0,85,0,0
22859,-62.5,4,1,0,80,0,0
23263,-90.9090909090909,4,1,0,80,0,0
28424,-90.9090909090909,4,1,0,83,0,0
28666,-90.5243623690226,4,1,0,83,0,0
28747,-90.3967876597537,4,1,0,83,0,0
28908,-90.1427952018793,4,1,0,83,0,0
29069,-89.8902260559405,4,1,0,83,0,0
29230,-89.6391486432219,4,1,0,83,0,0
29311,-89.5140550493536,4,1,0,83,0,0
29392,-89.3893900157415,4,1,0,83,0,0
29553,-89.1410193097276,4,1,0,83,0,0
29714,-88.8940249881104,4,1,0,85,0,0
29956,-88.5261284868229,4,1,0,85,0,0
30037,-88.4041199856078,4,1,0,85,0,0
30198,-88.161186861162,4,1,0,85,0,0
30359,-87.9195852305647,4,1,0,85,0,0
30521,-87.6793810537133,4,1,0,85,0,0
30682,-87.4404093610205,4,1,0,85,0,0
30843,-87.2027367706908,4,1,0,85,0,0
31005,-86.9565217391304,4,1,0,87,0,0
31166,-86.4553064970298,4,1,0,87,0,0
31247,-86.2068965517241,4,1,0,87,0,0
31327,-85.9599100171662,4,1,0,87,0,0
31488,-85.4700854700855,4,1,0,87,0,0
31650,-84.9858116187503,4,1,0,87,0,0
31730,-84.7457627118644,4,1,0,87,0,0
31811,-84.5070660583285,4,1,0,87,0,0
31892,-84.2696392501013,4,1,0,87,0,0
31972,-84.0336134453782,4,1,0,87,0,0
32053,-83.7989060890799,4,1,0,87,0,0
32134,-83.5654363327475,4,1,0,87,0,0
32214,-83.3333333333333,4,1,0,75,0,0
32456,-71.4285714285714,4,1,0,90,0,0
32698,-71.4285714285714,4,1,0,90,0,0
32940,-71.4285714285714,4,1,0,90,0,0
33101,-66.6666666666667,4,1,0,80,0,0
33263,-62.5,4,1,0,80,0,0
33585,-100,4,1,0,75,0,0
33827,-99.7664467481626,4,1,0,75,0,0
33908,-99.6888710335044,4,1,0,75,0,0
34069,-99.5340809669935,4,1,0,75,0,0
34150,-99.4567671378928,4,1,0,75,0,0
34230,-99.379672086834,4,1,0,75,0,0
34311,-99.3026964654198,4,1,0,75,0,0
34392,-99.2258399963485,4,1,0,75,0,0
34553,-99.0723852568402,4,1,0,75,0,0
34714,-98.9195022766323,4,1,0,75,0,0
34876,-98.7669928611218,4,1,0,75,0,0
34956,-98.690963065894,4,1,0,75,0,0
35117,-98.5392540972622,4,1,0,75,0,0
35198,-98.4634774346326,4,1,0,75,0,0
35359,-98.3124665123161,4,1,0,75,0,0
35440,-98.2371346192574,4,1,0,75,0,0
35521,-98.1618217263523,4,1,0,75,0,0
35601,-98.0867204312677,4,1,0,75,0,0
35682,-98.0117339647903,4,1,0,75,0,0
35843,-97.8620086960181,4,1,0,75,0,0
36005,-97.7128356558046,4,1,0,75,0,0
36085,-97.6384195464305,4,1,0,75,0,0
36166,-97.5641166983913,4,1,0,75,0,0
36247,-97.4898318105422,4,1,0,75,0,0
36408,-97.3417903880822,4,1,0,75,0,0
36488,-97.2679381531542,4,1,0,75,0,0
36650,-97.1204750356675,4,1,0,75,0,0
36730,-97.0469581116215,4,1,0,75,0,0
36811,-96.9735524030531,4,1,0,75,0,0
36892,-96.9001637612768,4,1,0,75,0,0
36972,-96.8269798696709,4,1,0,75,0,0
37134,-96.6809432192821,4,1,0,75,0,0
37295,-96.5352532264495,4,1,0,75,0,0
37456,-96.3900945683218,4,1,0,75,0,0
37537,-96.3176788209946,4,1,0,75,0,0
37698,-96.1730807700002,4,1,0,75,0,0
37779,-96.1009906090112,4,1,0,75,0,0
37940,-95.9570419514592,4,1,0,75,0,0
38021,-95.8852751859455,4,1,0,75,0,0
38101,-95.8136156896712,4,1,0,75,0,0
38182,-95.742063222314,4,1,0,75,0,0
38263,-95.6705260156862,4,1,0,75,0,0
38424,-95.5279543452801,4,1,0,80,0,0
38505,-95.4568277405178,4,1,0,80,0,0
38585,-95.3857159890306,4,1,0,80,0,0
38666,-95.3148009588669,4,1,0,80,0,0
38747,-95.2380952380952,4,1,0,80,0,0
38908,-94.9554896142433,4,1,0,80,0,0
38988,-94.8147698655906,4,1,0,80,0,0
39069,-94.6745562130178,4,1,0,80,0,0
39230,-94.3952802359882,4,1,0,80,0,0
39311,-94.2562147835218,4,1,0,80,0,0
39392,-94.1176470588235,4,1,0,80,0,0
39472,-93.9793978364063,4,1,0,80,0,0
39553,-93.841642228739,4,1,0,80,0,0
39714,-93.5672514619883,4,1,0,80,0,0
39795,-93.4307005807652,4,1,0,80,0,0
39876,-93.2944606413994,4,1,0,80,0,0
39956,-93.1586174515901,4,1,0,80,0,0
40037,-93.0232558139535,4,1,0,83,0,0
40198,-92.7536231884058,4,1,0,83,0,0
40279,-92.6193492934996,4,1,0,83,0,0
40359,-92.485549132948,4,1,0,83,0,0
40521,-92.2190201729107,4,1,0,83,0,0
40601,-92.0862885358096,4,1,0,83,0,0
40682,-91.9540229885058,4,1,0,83,0,0
40763,-91.8221368480399,4,1,0,83,0,0
40843,-91.6905444126075,4,1,0,83,0,0
40924,-91.5593286137551,4,1,0,83,0,0
41005,-91.4285714285714,4,1,0,83,0,0
41166,-91.1680911680912,4,1,0,83,0,0
41247,-91.0383653879418,4,1,0,83,0,0
41327,-90.9090909090909,4,1,0,85,0,0
41488,-90.3954802259887,4,1,0,85,0,0
41569,-90.1408450704225,4,1,0,85,0,0
41650,-89.8876404494382,4,1,0,85,0,0
41811,-89.3854748603352,4,1,0,85,0,0
41892,-89.1364902506964,4,1,0,85,0,0
41972,-88.8888888888889,4,1,0,85,0,0
42134,-88.3977900552486,4,1,0,85,0,0
42214,-88.1542699724518,4,1,0,85,0,0
42295,-87.9120879120879,4,1,0,85,0,0
42456,-87.431693989071,4,1,0,85,0,0
42537,-87.1934604904632,4,1,0,85,0,0
42617,-86.9565217391304,4,1,0,85,0,0
42698,-86.4888801246824,4,1,0,85,0,0
42779,-86.0263154498961,4,1,0,87,0,0
42859,-85.5685990623393,4,1,0,87,0,0
42940,-85.1158000459625,4,1,0,87,0,0
43021,-84.6676962258528,4,1,0,87,0,0
43101,-84.224285904392,4,1,0,87,0,0
43182,-83.7855659254158,4,1,0,87,0,0
43263,-83.3513233272848,4,1,0,87,0,0
43343,-82.9215586931231,4,1,0,87,0,0
43424,-82.4962711685432,4,1,0,87,0,0
43505,-82.0752564441388,4,1,0,87,0,0
43585,-81.6585838278441,4,1,0,87,0,0
43666,-81.2460544884789,4,1,0,87,0,0
43747,-80.8376722953938,4,1,0,87,0,0
43827,-80.4334397199629,4,1,0,87,0,0
43908,-68.9655172413793,4,1,0,87,0,0
44230,-105.263157894737,4,1,0,75,0,0
45198,-71.4285714285714,4,1,0,75,0,0
45359,-71.4285714285714,4,1,0,75,0,0
45521,-71.4285714285714,4,1,0,75,0,0
45682,-71.4285714285714,4,1,0,75,0,0
45843,-71.4285714285714,4,1,0,75,0,0
46166,-62.5,4,1,0,75,0,0
46488,-100,4,1,0,75,0,0
51166,-100,4,1,0,85,0,0
51488,-100,4,1,0,75,0,0
51650,-111.111111111111,4,1,0,75,0,0
51972,-90.9090909090909,4,1,0,75,0,0
52134,-100,4,1,0,75,0,0
54230,-83.3333333333333,4,1,0,75,0,0
54553,-97.5733507664387,4,1,0,75,0,0
54714,-96.4035684744906,4,1,0,75,0,0
54876,-80.016579435259,4,1,0,75,0,0
55198,-93.0569294377221,4,1,0,75,0,0
55521,-90.9519209955233,4,1,0,75,0,0
55682,-89.5522120739665,4,1,0,75,0,0
55843,-88.2353200692118,4,1,0,75,0,0
56005,-86.9565217391304,4,1,0,75,0,0
56166,-85.7142612244968,4,1,0,75,0,0
56247,-85.1063829787234,4,1,0,75,0,0
56327,-84.5070660583285,4,1,0,75,0,0
56408,-83.91606044306,4,1,0,75,0,0
56488,-71.4285714285714,4,1,0,75,0,0
56791,-100,4,1,0,75,0,0
57033,-99.7664467481626,4,1,0,75,0,0
57114,-99.6888710335044,4,1,0,75,0,0
57275,-99.5340809669935,4,1,0,75,0,0
57356,-99.4567671378928,4,1,0,75,0,0
57436,-99.379672086834,4,1,0,75,0,0
57517,-99.3026964654198,4,1,0,75,0,0
57598,-99.2258399963485,4,1,0,75,0,0
57759,-99.0723852568402,4,1,0,75,0,0
57920,-98.9195022766323,4,1,0,75,0,0
58082,-98.7669928611218,4,1,0,75,0,0
58162,-98.690963065894,4,1,0,75,0,0
58323,-98.5392540972622,4,1,0,75,0,0
58404,-98.4634774346326,4,1,0,75,0,0
58565,-98.3124665123161,4,1,0,75,0,0
58646,-98.2371346192574,4,1,0,75,0,0
58727,-98.1618217263523,4,1,0,75,0,0
58807,-98.0867204312677,4,1,0,75,0,0
58888,-98.0117339647903,4,1,0,75,0,0
59049,-97.8620086960181,4,1,0,75,0,0
59211,-97.7128356558046,4,1,0,75,0,0
59291,-97.6384195464305,4,1,0,75,0,0
59372,-97.5641166983913,4,1,0,75,0,0
59453,-97.4898318105422,4,1,0,75,0,0
59614,-97.3417903880822,4,1,0,75,0,0
59694,-97.2679381531542,4,1,0,75,0,0
59856,-97.1204750356675,4,1,0,75,0,0
59936,-97.0469581116215,4,1,0,75,0,0
60017,-96.9735524030531,4,1,0,75,0,0
60098,-96.9001637612768,4,1,0,75,0,0
60178,-96.8269798696709,4,1,0,75,0,0
60340,-96.6809432192821,4,1,0,75,0,0
60501,-96.5352532264495,4,1,0,75,0,0
60662,-96.3900945683218,4,1,0,75,0,0
60743,-96.3176788209946,4,1,0,75,0,0
60904,-96.1730807700002,4,1,0,75,0,0
60985,-96.1009906090112,4,1,0,75,0,0
61146,-95.9570419514592,4,1,0,75,0,0
61227,-95.8852751859455,4,1,0,75,0,0
61307,-95.8136156896712,4,1,0,75,0,0
61388,-95.742063222314,4,1,0,75,0,0
61469,-95.6705260156862,4,1,0,75,0,0
61630,-95.5279543452801,4,1,0,75,0,0
61650,-95.5279543452801,4,1,0,80,0,0
61711,-95.4568277405178,4,1,0,80,0,0
61791,-95.3857159890306,4,1,0,80,0,0
61872,-95.3148009588669,4,1,0,80,0,0
61953,-95.2439912946992,4,1,0,80,0,0
62114,-94.9554896142433,4,1,0,80,0,0
62194,-94.8147698655906,4,1,0,80,0,0
62275,-94.6745562130178,4,1,0,80,0,0
62436,-94.3952802359882,4,1,0,80,0,0
62517,-94.2562147835218,4,1,0,80,0,0
62537,-94.2562147835218,4,1,0,83,0,0
62598,-94.1176470588235,4,1,0,83,0,0
62678,-93.9793978364063,4,1,0,83,0,0
62759,-93.841642228739,4,1,0,83,0,0
62920,-93.5672514619883,4,1,0,83,0,0
63001,-93.4307005807652,4,1,0,83,0,0
63082,-93.2944606413994,4,1,0,83,0,0
63162,-93.1586174515901,4,1,0,83,0,0
63243,-93.0232558139535,4,1,0,83,0,0
63404,-92.7536231884058,4,1,0,83,0,0
63485,-92.6193492934996,4,1,0,83,0,0
63565,-92.485549132948,4,1,0,83,0,0
63727,-92.2190201729107,4,1,0,83,0,0
63747,-92.2190201729107,4,1,0,85,0,0
63807,-92.0862885358096,4,1,0,85,0,0
63888,-91.9540229885058,4,1,0,85,0,0
63969,-91.8221368480399,4,1,0,85,0,0
64049,-91.6905444126075,4,1,0,85,0,0
64130,-91.5593286137551,4,1,0,85,0,0
64211,-91.4285714285714,4,1,0,85,0,0
64372,-91.1680911680912,4,1,0,85,0,0
64453,-91.0383653879418,4,1,0,85,0,0
64533,-90.9090909090909,4,1,0,85,0,0
64694,-90.3954802259887,4,1,0,85,0,0
64775,-90.1408450704225,4,1,0,85,0,0
64856,-89.8876404494382,4,1,0,85,0,0
65017,-89.3854748603352,4,1,0,85,0,0
65098,-89.1364902506964,4,1,0,85,0,0
65178,-88.8888888888889,4,1,0,85,0,0
65340,-88.3977900552486,4,1,0,85,0,0
65420,-88.1542699724518,4,1,0,85,0,0
65501,-87.9120879120879,4,1,0,85,0,0
65662,-87.431693989071,4,1,0,85,0,0
65743,-87.1934604904632,4,1,0,85,0,0
65823,-86.9565217391304,4,1,0,85,0,0
65843,-86.9565217391304,4,1,0,87,0,0
65904,-86.4888801246824,4,1,0,87,0,0
65985,-86.0263154498961,4,1,0,87,0,0
66065,-85.5685990623393,4,1,0,87,0,0
66146,-85.1158000459625,4,1,0,87,0,0
66227,-84.6676962258528,4,1,0,87,0,0
66307,-84.224285904392,4,1,0,87,0,0
66388,-83.7855659254158,4,1,0,87,0,0
66469,-83.3513233272848,4,1,0,87,0,0
66549,-82.9215586931231,4,1,0,87,0,0
66630,-82.4962711685432,4,1,0,87,0,0
66711,-82.0752564441388,4,1,0,87,0,0
66791,-81.6585838278441,4,1,0,87,0,0
66872,-81.2460544884789,4,1,0,87,0,0
66953,-80.8376722953938,4,1,0,87,0,0
67033,-80.4334397199629,4,1,0,87,0,0
67114,-68.9655172413793,4,1,0,87,0,0
68424,-125,4,1,0,65,0,0
69069,-142.857142857143,4,1,0,65,0,0
79634,-62.5,4,1,0,90,0,0
79876,-100,4,1,0,75,0,0
85037,-100,4,1,0,80,0,0
85198,-100,4,1,0,80,0,0
85359,-99.0735631113458,4,1,0,80,0,0
85440,-98.6168007526434,4,1,0,80,0,0
85521,-98.1642307212813,4,1,0,80,0,0
85682,-97.271344251069,4,1,0,83,0,0
85763,-96.8310114870629,4,1,0,83,0,0
85843,-96.3945544788284,4,1,0,83,0,0
86005,-95.5335212796142,4,1,0,83,0,0
86085,-95.1086568850583,4,1,0,83,0,0
86166,-94.6876443986577,4,1,0,83,0,0
86327,-93.8566152488843,4,1,0,85,0,0
86408,-93.4465906011419,4,1,0,85,0,0
86488,-93.0401328613097,4,1,0,85,0,0
86650,-92.2376484564952,4,1,0,85,0,0
86730,-91.8416172941439,4,1,0,85,0,0
86811,-91.4489723878973,4,1,0,85,0,0
86972,-90.6735868748169,4,1,0,87,0,0
87053,-90.2908448694936,4,1,0,87,0,0
87134,-89.9112396242429,4,1,0,87,0,0
87295,-89.1616840145583,4,1,0,87,0,0
87376,-88.7914944851603,4,1,0,87,0,0
87456,-88.4244444071097,4,1,0,87,0,0
87537,-88.0604164905458,4,1,0,87,0,0
87617,-87.6992966516409,4,1,0,87,0,0
87698,-87.3412027757034,4,1,0,87,0,0
87779,-86.9565217391304,4,1,0,87,0,0
87859,-86.4864864864865,4,1,0,87,0,0
87940,-86.0215053763441,4,1,0,87,0,0
88021,-85.5614973262032,4,1,0,87,0,0
88101,-85.1063829787234,4,1,0,87,0,0
88182,-84.6560846560847,4,1,0,87,0,0
88263,-84.2105263157895,4,1,0,87,0,0
88343,-83.7696335078534,4,1,0,87,0,0
88424,-83.3333333333333,4,1,0,87,0,0
88505,-82.9015544041451,4,1,0,87,0,0
88585,-82.4742268041237,4,1,0,87,0,0
88666,-82.0512820512821,4,1,0,87,0,0
88747,-81.6326530612245,4,1,0,87,0,0
88827,-81.2182741116751,4,1,0,87,0,0
88908,-80.8080808080808,4,1,0,87,0,0
88988,-80.4020100502513,4,1,0,87,0,0
89069,-80,4,1,0,87,0,0
89392,-80,4,1,0,75,0,0
89714,-99.009900990099,4,1,0,75,0,0
89795,-98.0392156862745,4,1,0,75,0,0
89875,-97.0873786407767,4,1,0,75,0,0
89956,-96.1538461538461,4,1,0,75,0,0
90036,-80,4,1,0,85,0,0
90359,-100,4,1,0,80,0,1
95521,-100,4,1,0,80,0,1
95601,-99.6884735202492,4,1,0,80,0,1
95682,-99.3788819875776,4,1,0,80,0,1
95843,-98.7654320987654,4,1,0,80,0,1
96005,-98.159509202454,4,1,0,80,0,1
96085,-97.8593272171254,4,1,0,80,0,1
96247,-97.2644376899696,4,1,0,80,0,1
96327,-96.969696969697,4,1,0,80,0,1
96408,-96.6767371601208,4,1,0,80,0,1
96488,-96.3855421686747,4,1,0,80,0,1
96569,-96.0960960960961,4,1,0,80,0,1
96650,-95.8083832335329,4,1,0,80,0,1
96730,-95.5223880597015,4,1,0,80,0,1
96811,-95.2380952380952,4,1,0,80,0,1
96892,-94.9554896142433,4,1,0,80,0,1
96972,-94.6745562130178,4,1,0,80,0,1
97134,-94.1176470588235,4,1,0,80,0,1
97295,-93.5672514619883,4,1,0,80,0,1
97376,-93.2944606413994,4,1,0,80,0,1
97537,-92.7536231884058,4,1,0,80,0,1
97617,-92.485549132948,4,1,0,80,0,1
97698,-92.2190201729107,4,1,0,80,0,1
97779,-91.9540229885058,4,1,0,80,0,1
97859,-91.6905444126075,4,1,0,80,0,1
97940,-91.4285714285714,4,1,0,80,0,1
98021,-91.1680911680912,4,1,0,80,0,1
98101,-90.9090909090909,4,1,0,80,0,1
98263,-89.8262759822503,4,1,0,80,0,1
98343,-89.294484279706,4,1,0,80,0,1
98585,-87.7363067752608,4,1,0,80,0,1
98747,-86.7273353286402,4,1,0,80,0,1
98827,-86.2315022648704,4,1,0,80,0,1
98908,-85.7413799903627,4,1,0,80,0,1
98988,-85.256725050472,4,1,0,80,0,1
99069,-84.7775183585716,4,1,0,80,0,1
99150,-84.303668558441,4,1,0,80,0,1
99230,-83.8350863249884,4,1,0,80,0,1
99311,-83.3716843081151,4,1,0,80,0,1
99553,-71.4285714285714,4,1,0,85,0,1
99714,-71.4285714285714,4,1,0,85,0,1
99876,-71.4285714285714,4,1,0,85,0,1
100117,-71.4285714285714,4,1,0,85,0,1
100279,-71.4285714285714,4,1,0,85,0,0
100682,-83.3333333333333,4,1,0,80,0,1
105843,-83.3333333333333,4,1,0,80,0,1
105924,-83.1174357938588,4,1,0,80,0,1
106005,-82.9026540455666,4,1,0,80,0,1
106166,-82.4764035009584,4,1,0,80,0,1
106327,-82.0545810662336,4,1,0,80,0,1
106408,-81.8452502745908,4,1,0,80,0,1
106488,-81.6369848196027,4,1,0,80,0,1
106569,-81.429776589265,4,1,0,80,0,1
106650,-81.2236175537233,4,1,0,80,0,1
106730,-81.0184997642362,4,1,0,80,0,1
106811,-80.8144153521528,4,1,0,80,0,1
106892,-80.6114215098681,4,1,0,80,0,1
106972,-80.4093802366609,4,1,0,80,0,1
107053,-80.2083492079024,4,1,0,80,0,1
107134,-80.00832086537,4,1,0,80,0,1
107214,-79.8092877260498,4,1,0,80,0,1
107295,-79.6112423812041,4,1,0,80,0,1
107456,-79.2180858058618,4,1,0,80,0,1
107617,-78.8288554601989,4,1,0,80,0,1
107698,-78.6356401884739,4,1,0,80,0,1
107779,-78.4433697702786,4,1,0,80,0,1
107859,-78.2520372917909,4,1,0,80,0,1
107940,-78.061635906479,4,1,0,80,0,1
108021,-77.8721588342849,4,1,0,80,0,1
108101,-77.6835993608194,4,1,0,80,0,1
108182,-77.4959508365688,4,1,0,80,0,1
108263,-77.3092664432944,4,1,0,80,0,1
108343,-77.1234198375318,4,1,0,80,0,1
108424,-76.9384646160001,4,1,0,80,0,1
108585,-76.1904761904762,4,1,0,80,0,1
108666,-75.8293838862559,4,1,0,80,0,1
108747,-75.4716981132076,4,1,0,80,0,1
108908,-74.7663551401869,4,1,0,80,0,1
109069,-74.0740740740741,4,1,0,80,0,1
109150,-73.7327188940092,4,1,0,80,0,1
109230,-73.394495412844,4,1,0,80,0,1
109311,-73.0593607305936,4,1,0,80,0,1
109392,-72.7272727272727,4,1,0,80,0,1
109472,-72.3981900452489,4,1,0,80,0,1
109553,-72.0720720720721,4,1,0,80,0,1
109634,-71.7488789237668,4,1,0,80,0,1
109714,-62.5,4,1,0,85,0,1
109956,-62.5,4,1,0,85,0,1
110198,-62.5,4,1,0,85,0,1
110359,-62.5,4,1,0,85,0,1
110682,-62.5,4,1,0,85,0,1
111005,-40,4,1,0,75,0,0

[HitObjects]
256,192,1972,5,0,0:0:0:0:
256,192,2133,1,0,0:0:0:0:
256,192,2294,1,0,0:0:0:0:
256,192,2456,1,0,0:0:0:0:
256,192,2618,1,6,0:0:0:0:
256,192,2940,1,0,0:0:0:0:
256,192,3101,1,6,0:0:0:0:
256,192,3263,1,0,0:0:0:0:
256,192,3424,1,0,0:0:0:0:
256,192,3585,1,0,0:0:0:0:
256,192,3747,1,0,0:0:0:0:
256,192,3908,1,6,0:0:0:0:
256,192,4230,1,0,0:0:0:0:
256,192,4392,1,6,0:0:0:0:
256,192,4553,1,0,0:0:0:0:
256,192,4714,1,0,0:0:0:0:
256,192,4876,1,0,0:0:0:0:
256,192,5037,1,0,0:0:0:0:
256,192,5198,1,6,0:0:0:0:
256,192,5359,1,0,0:0:0:0:
256,192,5521,1,0,0:0:0:0:
256,192,5682,1,6,0:0:0:0:
256,192,5843,1,0,0:0:0:0:
256,192,6005,1,0,0:0:0:0:
256,192,6166,1,6,0:0:0:0:
256,192,6327,1,0,0:0:0:0:
256,192,6488,1,6,0:0:0:0:
256,192,6811,1,0,0:0:0:0:
256,192,6972,1,6,0:0:0:0:
256,192,7134,1,0,0:0:0:0:
256,192,7295,1,0,0:0:0:0:
256,192,7456,1,0,0:0:0:0:
256,192,7617,1,0,0:0:0:0:
256,192,7779,1,6,0:0:0:0:
256,192,8101,1,2,0:0:0:0:
256,192,8263,1,0,0:0:0:0:
256,192,8424,1,2,0:0:0:0:
256,192,8585,1,0,0:0:0:0:
256,192,8747,1,2,0:0:0:0:
256,192,8908,1,2,0:0:0:0:
256,192,9069,1,6,0:0:0:0:
256,192,9392,1,2,0:0:0:0:
256,192,9553,1,0,0:0:0:0:
256,192,9714,1,2,0:0:0:0:
256,192,9876,1,0,0:0:0:0:
256,192,10037,1,2,0:0:0:0:
256,192,10198,1,2,0:0:0:0:
256,192,10359,1,6,0:0:0:0:
256,192,10521,1,0,0:0:0:0:
256,192,10682,1,6,0:0:0:0:
256,192,10843,1,0,0:0:0:0:
256,192,11005,1,2,0:0:0:0:
256,192,11085,1,0,0:0:0:0:
256,192,11166,1,0,0:0:0:0:
256,192,11247,1,0,0:0:0:0:
256,192,11327,1,2,0:0:0:0:
256,192,11408,1,0,0:0:0:0:
256,192,11488,1,0,0:0:0:0:
256,192,11569,1,0,0:0:0:0:
256,192,11650,1,2,0:0:0:0:
256,192,11972,1,2,0:0:0:0:
256,192,12295,1,0,0:0:0:0:
256,192,12376,1,0,0:0:0:0:
256,192,12456,1,0,0:0:0:0:
256,192,12537,1,0,0:0:0:0:
256,192,12617,1,2,0:0:0:0:
256,192,12779,1,2,0:0:0:0:
256,192,12940,1,4,0:0:0:0:
256,192,13182,1,0,0:0:0:0:
256,192,13263,1,2,0:0:0:0:
256,192,13424,1,0,0:0:0:0:
256,192,13585,1,0,0:0:0:0:
256,192,13747,1,0,0:0:0:0:
256,192,13827,1,0,0:0:0:0:
256,192,13908,1,2,0:0:0:0:
256,192,14069,1,2,0:0:0:0:
256,192,14230,1,0,0:0:0:0:
256,192,14472,1,0,0:0:0:0:
256,192,14553,1,2,0:0:0:0:
256,192,14714,1,0,0:0:0:0:
256,192,14876,1,0,0:0:0:0:
256,192,15037,1,0,0:0:0:0:
256,192,15117,1,0,0:0:0:0:
256,192,15198,1,2,0:0:0:0:
256,192,15359,1,2,0:0:0:0:
256,192,15521,1,2,0:0:0:0:
256,192,15763,1,2,0:0:0:0:
256,192,15843,1,0,0:0:0:0:
256,192,16005,1,0,0:0:0:0:
256,192,16166,1,2,0:0:0:0:
256,192,16327,1,2,0:0:0:0:
256,192,16488,1,2,0:0:0:0:
256,192,16650,1,2,0:0:0:0:
256,192,16811,1,0,0:0:0:0:
256,192,17053,1,2,0:0:0:0:
256,192,17134,1,0,0:0:0:0:
256,192,17295,1,0,0:0:0:0:
256,192,17456,1,0,0:0:0:0:
256,192,17617,1,2,0:0:0:0:
256,192,17779,1,2,0:0:0:0:
256,192,17940,1,2,0:0:0:0:
256,192,18101,1,4,0:0:0:0:
256,192,18343,1,0,0:0:0:0:
256,192,18424,1,2,0:0:0:0:
256,192,18585,1,0,0:0:0:0:
256,192,18747,1,0,0:0:0:0:
256,192,18908,1,0,0:0:0:0:
256,192,18988,1,0,0:0:0:0:
256,192,19069,1,2,0:0:0:0:
256,192,19230,1,2,0:0:0:0:
256,192,19392,1,4,0:0:0:0:
256,192,19634,1,0,0:0:0:0:
256,192,19714,1,2,0:0:0:0:
256,192,19876,1,0,0:0:0:0:
256,192,20037,1,0,0:0:0:0:
256,192,20198,1,0,0:0:0:0:
256,192,20279,1,0,0:0:0:0:
256,192,20359,1,2,0:0:0:0:
256,192,20521,1,2,0:0:0:0:
256,192,20682,1,6,0:0:0:0:
256,192,20843,1,2,0:0:0:0:
256,192,20924,1,4,0:0:0:0:
256,192,21166,1,4,0:0:0:0:
256,192,21327,1,6,0:0:0:0:
256,192,21488,1,4,0:0:0:0:
256,192,21650,1,6,0:0:0:0:
256,192,21811,1,4,0:0:0:0:
256,192,22134,1,6,0:0:0:0:
256,192,22376,1,6,0:0:0:0:
256,192,22617,1,6,0:0:0:0:
256,192,22940,1,2,0:0:0:0:
256,192,23263,1,4,0:0:0:0:
256,192,23505,1,2,0:0:0:0:
256,192,23585,1,0,0:0:0:0:
256,192,23747,1,0,0:0:0:0:
256,192,23908,1,2,0:0:0:0:
256,192,24069,1,0,0:0:0:0:
256,192,24150,1,0,0:0:0:0:
256,192,24230,1,2,0:0:0:0:
256,192,24392,1,2,0:0:0:0:
256,192,24553,1,0,0:0:0:0:
256,192,24795,1,2,0:0:0:0:
256,192,24876,1,0,0:0:0:0:
256,192,25037,1,2,0:0:0:0:
256,192,25198,1,0,0:0:0:0:
256,192,25359,1,0,0:0:0:0:
256,192,25521,1,2,0:0:0:0:
256,192,25682,1,0,0:0:0:0:
256,192,25843,1,2,0:0:0:0:
256,192,26085,1,2,0:0:0:0:
256,192,26166,1,0,0:0:0:0:
256,192,26327,1,0,0:0:0:0:
256,192,26488,1,2,0:0:0:0:
256,192,26650,1,2,0:0:0:0:
256,192,26811,1,2,0:0:0:0:
256,192,26972,1,0,0:0:0:0:
256,192,27134,1,2,0:0:0:0:
256,192,27376,1,0,0:0:0:0:
256,192,27456,1,2,0:0:0:0:
256,192,27617,1,0,0:0:0:0:
256,192,27779,1,2,0:0:0:0:
256,192,27940,1,2,0:0:0:0:
256,192,28101,1,2,0:0:0:0:
256,192,28263,1,0,0:0:0:0:
256,192,28424,1,4,0:0:0:0:
256,192,28666,1,0,0:0:0:0:
256,192,28747,1,2,0:0:0:0:
256,192,28908,1,0,0:0:0:0:
256,192,29069,1,0,0:0:0:0:
256,192,29230,1,0,0:0:0:0:
256,192,29311,1,0,0:0:0:0:
256,192,29392,1,2,0:0:0:0:
256,192,29553,1,2,0:0:0:0:
256,192,29714,1,4,0:0:0:0:
256,192,29956,1,0,0:0:0:0:
256,192,30037,1,2,0:0:0:0:
256,192,30198,1,0,0:0:0:0:
256,192,30359,1,0,0:0:0:0:
256,192,30521,1,0,0:0:0:0:
256,192,30682,1,2,0:0:0:0:
256,192,30843,1,0,0:0:0:0:
256,192,31005,1,6,0:0:0:0:
256,192,31166,1,2,0:0:0:0:
256,192,31247,1,0,0:0:0:0:
256,192,31327,1,2,0:0:0:0:
256,192,31488,1,2,0:0:0:0:
256,192,31650,1,0,0:0:0:0:
256,192,31730,1,0,0:0:0:0:
256,192,31811,1,2,0:0:0:0:
256,192,31892,1,2,0:0:0:0:
256,192,31972,1,0,0:0:0:0:
256,192,32053,1,0,0:0:0:0:
256,192,32134,1,2,0:0:0:0:
256,192,32214,1,2,0:0:0:0:
256,192,32456,1,6,0:0:0:0:
256,192,32698,1,6,0:0:0:0:
256,192,32940,1,6,0:0:0:0:
256,192,33101,1,0,0:0:0:0:
256,192,33263,1,2,0:0:0:0:
256,192,33585,1,6,0:0:0:0:
256,192,33827,1,2,0:0:0:0:
256,192,33908,1,2,0:0:0:0:
256,192,34069,1,2,0:0:0:0:
256,192,34150,1,2,0:0:0:0:
256,192,34230,1,0,0:0:0:0:
256,192,34311,1,2,0:0:0:0:
256,192,34392,1,2,0:0:0:0:
256,192,34553,1,2,0:0:0:0:
256,192,34714,1,2,0:0:0:0:
256,192,34876,1,2,0:0:0:0:
256,192,34956,1,0,0:0:0:0:
256,192,35117,1,2,0:0:0:0:
256,192,35198,1,2,0:0:0:0:
256,192,35359,1,2,0:0:0:0:
256,192,35440,1,2,0:0:0:0:
256,192,35521,1,0,0:0:0:0:
256,192,35601,1,2,0:0:0:0:
256,192,35682,1,2,0:0:0:0:
256,192,35843,1,0,0:0:0:0:
256,192,36005,1,0,0:0:0:0:
256,192,36085,1,0,0:0:0:0:
256,192,36166,1,2,0:0:0:0:
256,192,36247,1,0,0:0:0:0:
256,192,36408,1,2,0:0:0:0:
256,192,36488,1,2,0:0:0:0:
256,192,36650,1,2,0:0:0:0:
256,192,36730,1,2,0:0:0:0:
256,192,36811,1,0,0:0:0:0:
256,192,36892,1,2,0:0:0:0:
256,192,36972,1,2,0:0:0:0:
256,192,37134,1,2,0:0:0:0:
256,192,37295,1,2,0:0:0:0:
256,192,37456,1,2,0:0:0:0:
256,192,37537,1,0,0:0:0:0:
256,192,37698,1,2,0:0:0:0:
256,192,37779,1,2,0:0:0:0:
256,192,37940,1,2,0:0:0:0:
256,192,38021,1,2,0:0:0:0:
256,192,38101,1,0,0:0:0:0:
256,192,38182,1,2,0:0:0:0:
256,192,38263,1,2,0:0:0:0:
256,192,38424,1,2,0:0:0:0:
256,192,38505,1,2,0:0:0:0:
256,192,38585,1,2,0:0:0:0:
256,192,38666,1,2,0:0:0:0:
256,192,38747,1,4,0:0:0:0:
256,192,38908,1,0,0:0:0:0:
256,192,38988,1,2,0:0:0:0:
256,192,39069,1,0,0:0:0:0:
256,192,39230,1,2,0:0:0:0:
256,192,39311,1,2,0:0:0:0:
256,192,39392,1,0,0:0:0:0:
256,192,39472,1,2,0:0:0:0:
256,192,39553,1,2,0:0:0:0:
256,192,39714,1,2,0:0:0:0:
256,192,39795,1,0,0:0:0:0:
256,192,39876,1,2,0:0:0:0:
256,192,39956,1,2,0:0:0:0:
256,192,40037,1,4,0:0:0:0:
256,192,40198,1,0,0:0:0:0:
256,192,40279,1,2,0:0:0:0:
256,192,40359,1,0,0:0:0:0:
256,192,40521,1,2,0:0:0:0:
256,192,40601,1,2,0:0:0:0:
256,192,40682,1,0,0:0:0:0:
256,192,40763,1,2,0:0:0:0:
256,192,40843,1,2,0:0:0:0:
256,192,40924,1,0,0:0:0:0:
256,192,41005,1,2,0:0:0:0:
256,192,41166,1,2,0:0:0:0:
256,192,41247,1,2,0:0:0:0:
256,192,41327,1,4,0:0:0:0:
256,192,41488,1,0,0:0:0:0:
256,192,41569,1,2,0:0:0:0:
256,192,41650,1,0,0:0:0:0:
256,192,41811,1,2,0:0:0:0:
256,192,41892,1,2,0:0:0:0:
256,192,41972,1,4,0:0:0:0:
256,192,42134,1,0,0:0:0:0:
256,192,42214,1,2,0:0:0:0:
256,192,42295,1,0,0:0:0:0:
256,192,42456,1,2,0:0:0:0:
256,192,42537,1,2,0:0:0:0:
256,192,42617,1,0,0:0:0:0:
256,192,42698,1,0,0:0:0:0:
256,192,42779,1,2,0:0:0:0:
256,192,42859,1,2,0:0:0:0:
256,192,42940,1,0,0:0:0:0:
256,192,43021,1,0,0:0:0:0:
256,192,43101,1,2,0:0:0:0:
256,192,43182,1,2,0:0:0:0:
256,192,43263,1,0,0:0:0:0:
256,192,43343,1,2,0:0:0:0:
256,192,43424,1,2,0:0:0:0:
256,192,43505,1,2,0:0:0:0:
256,192,43585,1,0,0:0:0:0:
256,192,43666,1,2,0:0:0:0:
256,192,43747,1,2,0:0:0:0:
256,192,43827,1,2,0:0:0:0:
256,192,43908,1,4,0:0:0:0:
256,192,45198,1,6,0:0:0:0:
256,192,45359,1,4,0:0:0:0:
256,192,45521,1,6,0:0:0:0:
256,192,45682,1,6,0:0:0:0:
256,192,45843,1,6,0:0:0:0:
256,192,46166,1,2,0:0:0:0:
256,192,46488,1,4,0:0:0:0:
256,192,46811,1,0,0:0:0:0:
256,192,46972,1,2,0:0:0:0:
256,192,47134,1,2,0:0:0:0:
256,192,47295,1,0,0:0:0:0:
256,192,47456,1,2,0:0:0:0:
256,192,47617,1,0,0:0:0:0:
256,192,47779,1,2,0:0:0:0:
256,192,47940,1,0,0:0:0:0:
256,192,48101,1,2,0:0:0:0:
256,192,48263,1,2,0:0:0:0:
256,192,48424,1,2,0:0:0:0:
256,192,48747,1,2,0:0:0:0:
256,192,48908,1,0,0:0:0:0:
256,192,49069,1,2,0:0:0:0:
256,192,49392,1,0,0:0:0:0:
256,192,49553,1,0,0:0:0:0:
256,192,49714,1,2,0:0:0:0:
256,192,50037,1,2,0:0:0:0:
256,192,50359,1,0,0:0:0:0:
256,192,50521,1,0,0:0:0:0:
256,192,50682,1,2,0:0:0:0:
256,192,50843,1,0,0:0:0:0:
256,192,51005,1,2,0:0:0:0:
256,192,51166,1,2,0:0:0:0:
256,192,51327,1,0,0:0:0:0:
256,192,51650,1,0,0:0:0:0:
256,192,51730,1,0,0:0:0:0:
256,192,51811,1,0,0:0:0:0:
256,192,51892,1,0,0:0:0:0:
256,192,51972,1,6,0:0:0:0:
256,192,52134,1,2,0:0:0:0:
256,192,52295,1,2,0:0:0:0:
256,192,52456,1,0,0:0:0:0:
256,192,52617,1,2,0:0:0:0:
256,192,52779,1,0,0:0:0:0:
256,192,52940,1,2,0:0:0:0:
256,192,53101,1,0,0:0:0:0:
256,192,53263,1,2,0:0:0:0:
256,192,53424,1,2,0:0:0:0:
256,192,53585,1,2,0:0:0:0:
256,192,53908,1,2,0:0:0:0:
256,192,54069,1,0,0:0:0:0:
256,192,54230,1,6,0:0:0:0:
256,192,54553,1,0,0:0:0:0:
256,192,54714,1,0,0:0:0:0:
256,192,54876,1,6,0:0:0:0:
256,192,55198,1,2,0:0:0:0:
256,192,55521,1,6,0:0:0:0:
256,192,55682,1,0,0:0:0:0:
256,192,55843,1,2,0:0:0:0:
256,192,56005,1,0,0:0:0:0:
256,192,56166,1,2,0:0:0:0:
256,192,56247,1,0,0:0:0:0:
256,192,56327,1,2,0:0:0:0:
256,192,56408,1,0,0:0:0:0:
256,192,56488,1,6,0:0:0:0:
256,192,56811,1,6,0:0:0:0:
256,192,57053,1,2,0:0:0:0:
256,192,57134,1,2,0:0:0:0:
256,192,57295,1,2,0:0:0:0:
256,192,57376,1,2,0:0:0:0:
256,192,57456,1,0,0:0:0:0:
256,192,57537,1,2,0:0:0:0:
256,192,57617,1,2,0:0:0:0:
256,192,57779,1,2,0:0:0:0:
256,192,57940,1,2,0:0:0:0:
256,192,58101,1,2,0:0:0:0:
256,192,58182,1,0,0:0:0:0:
256,192,58343,1,2,0:0:0:0:
256,192,58424,1,2,0:0:0:0:
256,192,58585,1,2,0:0:0:0:
256,192,58666,1,2,0:0:0:0:
256,192,58747,1,0,0:0:0:0:
256,192,58827,1,2,0:0:0:0:
256,192,58908,1,2,0:0:0:0:
256,192,59069,1,2,0:0:0:0:
256,192,59230,1,0,0:0:0:0:
256,192,59311,1,0,0:0:0:0:
256,192,59392,1,2,0:0:0:0:
256,192,59472,1,0,0:0:0:0:
256,192,59634,1,2,0:0:0:0:
256,192,59714,1,2,0:0:0:0:
256,192,59876,1,2,0:0:0:0:
256,192,59956,1,2,0:0:0:0:
256,192,60037,1,0,0:0:0:0:
256,192,60117,1,2,0:0:0:0:
256,192,60198,1,2,0:0:0:0:
256,192,60359,1,2,0:0:0:0:
256,192,60521,1,2,0:0:0:0:
256,192,60682,1,2,0:0:0:0:
256,192,60763,1,0,0:0:0:0:
256,192,60924,1,2,0:0:0:0:
256,192,61005,1,2,0:0:0:0:
256,192,61166,1,2,0:0:0:0:
256,192,61247,1,2,0:0:0:0:
256,192,61327,1,0,0:0:0:0:
256,192,61408,1,2,0:0:0:0:
256,192,61488,1,2,0:0:0:0:
256,192,61650,1,2,0:0:0:0:
256,192,61730,1,2,0:0:0:0:
256,192,61811,1,2,0:0:0:0:
256,192,61892,1,2,0:0:0:0:
256,192,61972,1,4,0:0:0:0:
256,192,62134,1,0,0:0:0:0:
256,192,62214,1,2,0:0:0:0:
256,192,62295,1,0,0:0:0:0:
256,192,62456,1,2,0:0:0:0:
256,192,62537,1,2,0:0:0:0:
256,192,62617,1,0,0:0:0:0:
256,192,62698,1,2,0:0:0:0:
256,192,62779,1,2,0:0:0:0:
256,192,62940,1,2,0:0:0:0:
256,192,63021,1,0,0:0:0:0:
256,192,63101,1,2,0:0:0:0:
256,192,63182,1,2,0:0:0:0:
256,192,63263,1,4,0:0:0:0:
256,192,63424,1,0,0:0:0:0:
256,192,63505,1,2,0:0:0:0:
256,192,63585,1,0,0:0:0:0:
256,192,63747,1,2,0:0:0:0:
256,192,63827,1,2,0:0:0:0:
256,192,63908,1,0,0:0:0:0:
256,192,63988,1,2,0:0:0:0:
256,192,64069,1,2,0:0:0:0:
256,192,64150,1,0,0:0:0:0:
256,192,64230,1,2,0:0:0:0:
256,192,64392,1,2,0:0:0:0:
256,192,64472,1,2,0:0:0:0:
256,192,64553,1,4,0:0:0:0:
256,192,64714,1,0,0:0:0:0:
256,192,64795,1,2,0:0:0:0:
256,192,64876,1,0,0:0:0:0:
256,192,64956,1,0,0:0:0:0:
256,192,65037,1,2,0:0:0:0:
256,192,65117,1,2,0:0:0:0:
256,192,65198,1,4,0:0:0:0:
256,192,65359,1,0,0:0:0:0:
256,192,65440,1,2,0:0:0:0:
256,192,65521,1,0,0:0:0:0:
256,192,65601,1,0,0:0:0:0:
256,192,65682,1,2,0:0:0:0:
256,192,65763,1,2,0:0:0:0:
256,192,65843,1,0,0:0:0:0:
256,192,65924,1,0,0:0:0:0:
256,192,66005,1,2,0:0:0:0:
256,192,66085,1,2,0:0:0:0:
256,192,66166,1,0,0:0:0:0:
256,192,66247,1,0,0:0:0:0:
256,192,66327,1,2,0:0:0:0:
256,192,66408,1,2,0:0:0:0:
256,192,66488,1,0,0:0:0:0:
256,192,66569,1,2,0:0:0:0:
256,192,66650,1,2,0:0:0:0:
256,192,66730,1,2,0:0:0:0:
256,192,66811,1,0,0:0:0:0:
256,192,66892,1,2,0:0:0:0:
256,192,66972,1,2,0:0:0:0:
256,192,67053,1,2,0:0:0:0:
256,192,67134,1,4,0:0:0:0:
256,192,69069,1,0,0:0:0:0:
256,192,69230,1,0,0:0:0:0:
256,192,69392,1,2,0:0:0:0:
256,192,69553,1,2,0:0:0:0:
256,192,69714,1,2,0:0:0:0:
256,192,70359,1,0,0:0:0:0:
256,192,70521,1,0,0:0:0:0:
256,192,70682,1,2,0:0:0:0:
256,192,70843,1,2,0:0:0:0:
256,192,71005,1,2,0:0:0:0:
256,192,71650,1,0,0:0:0:0:
256,192,71811,1,0,0:0:0:0:
256,192,71972,1,2,0:0:0:0:
256,192,72134,1,2,0:0:0:0:
256,192,72295,1,2,0:0:0:0:
256,192,72456,1,0,0:0:0:0:
256,192,72617,1,2,0:0:0:0:
256,192,72779,1,0,0:0:0:0:
256,192,72940,1,2,0:0:0:0:
256,192,73101,1,2,0:0:0:0:
256,192,73263,1,2,0:0:0:0:
256,192,73424,1,0,0:0:0:0:
256,192,73585,1,2,0:0:0:0:
256,192,74230,1,0,0:0:0:0:
256,192,74392,1,0,0:0:0:0:
256,192,74553,1,2,0:0:0:0:
256,192,74714,1,2,0:0:0:0:
256,192,74876,1,2,0:0:0:0:
256,192,75521,1,0,0:0:0:0:
256,192,75682,1,0,0:0:0:0:
256,192,75843,1,2,0:0:0:0:
256,192,76005,1,2,0:0:0:0:
256,192,76166,1,2,0:0:0:0:
256,192,76811,1,0,0:0:0:0:
256,192,76972,1,0,0:0:0:0:
256,192,77134,1,2,0:0:0:0:
256,192,77295,1,2,0:0:0:0:
256,192,77456,1,2,0:0:0:0:
256,192,77617,1,0,0:0:0:0:
256,192,77779,1,2,0:0:0:0:
256,192,77940,1,0,0:0:0:0:
256,192,78101,1,2,0:0:0:0:
256,192,78263,1,2,0:0:0:0:
256,192,78424,1,2,0:0:0:0:
256,192,78585,1,0,0:0:0:0:
256,192,78747,1,2,0:0:0:0:
256,192,79714,1,6,0:0:0:0:
256,192,80037,1,2,0:0:0:0:
256,192,80117,1,2,0:0:0:0:
256,192,80198,1,0,0:0:0:0:
256,192,80359,1,2,0:0:0:0:
256,192,80521,1,0,0:0:0:0:
256,192,80601,1,2,0:0:0:0:
256,192,80763,1,0,0:0:0:0:
256,192,80843,1,0,0:0:0:0:
256,192,80924,1,0,0:0:0:0:
256,192,81005,1,2,0:0:0:0:
256,192,81085,1,2,0:0:0:0:
256,192,81166,1,0,0:0:0:0:
256,192,81247,1,0,0:0:0:0:
256,192,81327,1,2,0:0:0:0:
256,192,81408,1,2,0:0:0:0:
256,192,81488,1,0,0:0:0:0:
256,192,81650,1,2,0:0:0:0:
256,192,81811,1,0,0:0:0:0:
256,192,81892,1,2,0:0:0:0:
256,192,82053,1,0,0:0:0:0:
256,192,82134,1,0,0:0:0:0:
256,192,82214,1,0,0:0:0:0:
256,192,82295,1,2,0:0:0:0:
256,192,82376,1,0,0:0:0:0:
256,192,82456,1,2,0:0:0:0:
256,192,82537,1,2,0:0:0:0:
256,192,82617,1,2,0:0:0:0:
256,192,82859,1,2,0:0:0:0:
256,192,82940,1,0,0:0:0:0:
256,192,83101,1,2,0:0:0:0:
256,192,83263,1,0,0:0:0:0:
256,192,83343,1,2,0:0:0:0:
256,192,83585,1,0,0:0:0:0:
256,192,83747,1,0,0:0:0:0:
256,192,83908,1,2,0:0:0:0:
256,192,84150,1,2,0:0:0:0:
256,192,84230,1,0,0:0:0:0:
256,192,84392,1,2,0:0:0:0:
256,192,84553,1,0,0:0:0:0:
256,192,84634,1,2,0:0:0:0:
256,192,84876,1,0,0:0:0:0:
256,192,85037,1,0,0:0:0:0:
256,192,85198,1,6,0:0:0:0:
256,192,85359,1,0,0:0:0:0:
256,192,85440,1,0,0:0:0:0:
256,192,85521,1,2,0:0:0:0:
256,192,85682,1,2,0:0:0:0:
256,192,85763,1,0,0:0:0:0:
256,192,85843,1,6,0:0:0:0:
256,192,86005,1,0,0:0:0:0:
256,192,86085,1,0,0:0:0:0:
256,192,86166,1,6,0:0:0:0:
256,192,86327,1,2,0:0:0:0:
256,192,86408,1,0,0:0:0:0:
256,192,86488,1,6,0:0:0:0:
256,192,86650,1,0,0:0:0:0:
256,192,86730,1,0,0:0:0:0:
256,192,86811,1,2,0:0:0:0:
256,192,86972,1,2,0:0:0:0:
256,192,87053,1,0,0:0:0:0:
256,192,87134,1,6,0:0:0:0:
256,192,87295,1,0,0:0:0:0:
256,192,87376,1,0,0:0:0:0:
256,192,87456,1,2,0:0:0:0:
256,192,87537,1,0,0:0:0:0:
256,192,87617,1,0,0:0:0:0:
256,192,87698,1,0,0:0:0:0:
256,192,87779,1,2,0:0:0:0:
256,192,87859,1,2,0:0:0:0:
256,192,87940,1,2,0:0:0:0:
256,192,88021,1,0,0:0:0:0:
256,192,88101,1,2,0:0:0:0:
256,192,88182,1,2,0:0:0:0:
256,192,88263,1,2,0:0:0:0:
256,192,88343,1,0,0:0:0:0:
256,192,88424,1,2,0:0:0:0:
256,192,88505,1,2,0:0:0:0:
256,192,88585,1,0,0:0:0:0:
256,192,88666,1,0,0:0:0:0:
256,192,88747,1,2,0:0:0:0:
256,192,88827,1,2,0:0:0:0:
256,192,88908,1,2,0:0:0:0:
256,192,88988,1,2,0:0:0:0:
256,192,89069,1,0,0:0:0:0:
256,192,89392,1,0,0:0:0:0:
256,192,89714,1,0,0:0:0:0:
256,192,89795,1,0,0:0:0:0:
256,192,89876,1,0,0:0:0:0:
256,192,89956,1,0,0:0:0:0:
256,192,90037,1,6,0:0:0:0:
256,192,90359,1,2,0:0:0:0:
256,192,90440,1,2,0:0:0:0:
256,192,90521,1,0,0:0:0:0:
256,192,90682,1,2,0:0:0:0:
256,192,90843,1,0,0:0:0:0:
256,192,90924,1,2,0:0:0:0:
256,192,91085,1,0,0:0:0:0:
256,192,91166,1,0,0:0:0:0:
256,192,91247,1,0,0:0:0:0:
256,192,91327,1,2,0:0:0:0:
256,192,91408,1,2,0:0:0:0:
256,192,91488,1,0,0:0:0:0:
256,192,91569,1,0,0:0:0:0:
256,192,91650,1,2,0:0:0:0:
256,192,91730,1,2,0:0:0:0:
256,192,91811,1,0,0:0:0:0:
256,192,91972,1,2,0:0:0:0:
256,192,92134,1,0,0:0:0:0:
256,192,92214,1,2,0:0:0:0:
256,192,92376,1,0,0:0:0:0:
256,192,92456,1,0,0:0:0:0:
256,192,92537,1,0,0:0:0:0:
256,192,92617,1,2,0:0:0:0:
256,192,92698,1,0,0:0:0:0:
256,192,92779,1,2,0:0:0:0:
256,192,92859,1,2,0:0:0:0:
256,192,92940,1,2,0:0:0:0:
256,192,93101,1,0,0:0:0:0:
256,192,93182,1,2,0:0:0:0:
256,192,93263,1,0,0:0:0:0:
256,192,93424,1,2,0:0:0:0:
256,192,93585,1,0,0:0:0:0:
256,192,93666,1,2,0:0:0:0:
256,192,93908,1,0,0:0:0:0:
256,192,94069,1,0,0:0:0:0:
256,192,94230,1,2,0:0:0:0:
256,192,94392,1,0,0:0:0:0:
256,192,94472,1,2,0:0:0:0:
256,192,94553,1,0,0:0:0:0:
256,192,94714,1,2,0:0:0:0:
256,192,94876,1,0,0:0:0:0:
256,192,94956,1,2,0:0:0:0:
256,192,95198,1,0,0:0:0:0:
256,192,95359,1,0,0:0:0:0:
256,192,95521,1,2,0:0:0:0:
256,192,95601,1,2,0:0:0:0:
256,192,95682,1,0,0:0:0:0:
256,192,95843,1,2,0:0:0:0:
256,192,96005,1,0,0:0:0:0:
256,192,96085,1,2,0:0:0:0:
256,192,96247,1,0,0:0:0:0:
256,192,96327,1,0,0:0:0:0:
256,192,96408,1,0,0:0:0:0:
256,192,96488,1,2,0:0:0:0:
256,192,96569,1,2,0:0:0:0:
256,192,96650,1,0,0:0:0:0:
256,192,96730,1,0,0:0:0:0:
256,192,96811,1,2,0:0:0:0:
256,192,96892,1,2,0:0:0:0:
256,192,96972,1,0,0:0:0:0:
256,192,97134,1,2,0:0:0:0:
256,192,97295,1,0,0:0:0:0:
256,192,97376,1,2,0:0:0:0:
256,192,97537,1,0,0:0:0:0:
256,192,97617,1,0,0:0:0:0:
256,192,97698,1,0,0:0:0:0:
256,192,97779,1,2,0:0:0:0:
256,192,97859,1,2,0:0:0:0:
256,192,97940,1,0,0:0:0:0:
256,192,98021,1,0,0:0:0:0:
256,192,98101,1,6,0:0:0:0:
256,192,98263,1,0,0:0:0:0:
256,192,98343,1,6,0:0:0:0:
256,192,98585,1,6,0:0:0:0:
256,192,98747,1,2,0:0:0:0:
256,192,98827,1,0,0:0:0:0:
256,192,98908,1,0,0:0:0:0:
256,192,98988,1,0,0:0:0:0:
256,192,99069,1,0,0:0:0:0:
256,192,99150,1,2,0:0:0:0:
256,192,99230,1,2,0:0:0:0:
256,192,99311,1,2,0:0:0:0:
256,192,99553,1,6,0:0:0:0:
256,192,99795,1,6,0:0:0:0:
256,192,100037,1,6,0:0:0:0:
256,192,100279,1,6,0:0:0:0:
256,192,100682,1,2,0:0:0:0:
256,192,100763,1,2,0:0:0:0:
256,192,100843,1,0,0:0:0:0:
256,192,101005,1,2,0:0:0:0:
256,192,101166,1,0,0:0:0:0:
256,192,101247,1,2,0:0:0:0:
256,192,101327,1,0,0:0:0:0:
256,192,101408,1,0,0:0:0:0:
256,192,101488,1,0,0:0:0:0:
256,192,101569,1,0,0:0:0:0:
256,192,101650,1,2,0:0:0:0:
256,192,101730,1,2,0:0:0:0:
256,192,101811,1,0,0:0:0:0:
256,192,101892,1,0,0:0:0:0:
256,192,101972,1,2,0:0:0:0:
256,192,102053,1,2,0:0:0:0:
256,192,102134,1,0,0:0:0:0:
256,192,102295,1,2,0:0:0:0:
256,192,102456,1,0,0:0:0:0:
256,192,102537,1,2,0:0:0:0:
256,192,102617,1,0,0:0:0:0:
256,192,102698,1,0,0:0:0:0:
256,192,102779,1,0,0:0:0:0:
256,192,102859,1,0,0:0:0:0:
256,192,102940,1,2,0:0:0:0:
256,192,103021,1,0,0:0:0:0:
256,192,103101,1,2,0:0:0:0:
256,192,103182,1,2,0:0:0:0:
256,192,103263,1,2,0:0:0:0:
256,192,103424,1,0,0:0:0:0:
256,192,103505,1,2,0:0:0:0:
256,192,103585,1,0,0:0:0:0:
256,192,103747,1,2,0:0:0:0:
256,192,103908,1,0,0:0:0:0:
256,192,103988,1,2,0:0:0:0:
256,192,104069,1,0,0:0:0:0:
256,192,104230,1,0,0:0:0:0:
256,192,104392,1,0,0:0:0:0:
256,192,104553,1,2,0:0:0:0:
256,192,104714,1,0,0:0:0:0:
256,192,104795,1,2,0:0:0:0:
256,192,104876,1,0,0:0:0:0:
256,192,105037,1,2,0:0:0:0:
256,192,105198,1,0,0:0:0:0:
256,192,105279,1,2,0:0:0:0:
256,192,105359,1,0,0:0:0:0:
256,192,105521,1,0,0:0:0:0:
256,192,105682,1,0,0:0:0:0:
256,192,105843,1,2,0:0:0:0:
256,192,105924,1,2,0:0:0:0:
256,192,106005,1,0,0:0:0:0:
256,192,106166,1,2,0:0:0:0:
256,192,106327,1,0,0:0:0:0:
256,192,106408,1,2,0:0:0:0:
256,192,106488,1,0,0:0:0:0:
256,192,106569,1,0,0:0:0:0:
256,192,106650,1,0,0:0:0:0:
256,192,106730,1,0,0:0:0:0:
256,192,106811,1,2,0:0:0:0:
256,192,106892,1,2,0:0:0:0:
256,192,106972,1,0,0:0:0:0:
256,192,107053,1,0,0:0:0:0:
256,192,107134,1,2,0:0:0:0:
256,192,107214,1,2,0:0:0:0:
256,192,107295,1,0,0:0:0:0:
256,192,107456,1,2,0:0:0:0:
256,192,107617,1,0,0:0:0:0:
256,192,107698,1,2,0:0:0:0:
256,192,107779,1,0,0:0:0:0:
256,192,107859,1,0,0:0:0:0:
256,192,107940,1,0,0:0:0:0:
256,192,108021,1,0,0:0:0:0:
256,192,108101,1,2,0:0:0:0:
256,192,108182,1,2,0:0:0:0:
256,192,108263,1,0,0:0:0:0:
256,192,108343,1,0,0:0:0:0:
256,192,108424,1,6,0:0:0:0:
256,192,108585,1,0,0:0:0:0:
256,192,108666,1,6,0:0:0:0:
256,192,108908,1,6,0:0:0:0:
256,192,109069,1,2,0:0:0:0:
256,192,109150,1,0,0:0:0:0:
256,192,109230,1,0,0:0:0:0:
256,192,109311,1,0,0:0:0:0:
256,192,109392,1,0,0:0:0:0:
256,192,109472,1,2,0:0:0:0:
256,192,109553,1,2,0:0:0:0:
256,192,109634,1,2,0:0:0:0:
256,192,109714,1,4,0:0:0:0:
256,192,109956,1,4,0:0:0:0:
256,192,110198,1,6,0:0:0:0:
256,192,110440,1,6,0:0:0:0:
256,192,110682,1,6,0:0:0:0:
256,192,111005,1,4,0:0:0:0:
