osu file format v14

[General]
AudioFilename: audio.mp3
AudioLeadIn: 0
PreviewTime: 46448
Countdown: 1
SampleSet: Normal
StackLeniency: 0.7
Mode: 1
LetterboxInBreaks: 0
WidescreenStoryboard: 1

[Editor]
Bookmarks: 23317
DistanceSpacing: 0.8
BeatDivisor: 4
GridSize: 32
TimelineZoom: 2.599998

[Metadata]
Title:Gekkou Ranbu
TitleUnicode:月光乱舞
Artist:P*Light
ArtistUnicode:P*Light
Creator:kanpakyin
Version:54's Inner Oni
Source:SOUND VOLTEX III GRAVITY WARS
Tags:bemani konami beatnation RHYZE SDVX 天下一音ゲ祭 2015 ブロック決勝課題曲 Rasis Steins video game electronic instrumental Cynplytholowazy -gn junior Consified _54fied
BeatmapID:2516902
BeatmapSetID:454392

[Difficulty]
HPDrainRate:6
CircleSize:5
OverallDifficulty:6
ApproachRate:5
SliderMultiplier:1.4
SliderTickRate:1

[Events]
//Background and Video events
0,0,"BG.png",0,100
//Break Periods
//Storyboard Layer 0 (Background)
//Storyboard Layer 1 (Fail)
//Storyboard Layer 2 (Pass)
//Storyboard Layer 3 (Foreground)
//Storyboard Layer 4 (Overlay)
//Storyboard Sound Samples

[TimingPoints]
1327,322.58064516129,4,1,1,75,1,8
1972,-125,4,1,1,75,0,8
2133,-117.647058823529,4,1,1,75,0,8
2294,-111.111111111111,4,1,1,75,0,8
2456,-105.263157894737,4,1,1,75,0,8
2563,-100,4,1,1,75,0,0
2617,322.58064516129,4,1,0,80,1,8
2618,322.58064516129,4,1,1,80,1,0
11650,-100,4,1,1,65,0,0
12295,-99.009900990099,4,1,1,80,0,0
12376,-98.0392156862745,4,1,1,80,0,0
12456,-97.0873786407767,4,1,1,80,0,0
12537,-96.1538461538461,4,1,1,80,0,0
12617,-95.2380952380952,4,1,1,80,0,0
12779,-93.0232558139535,4,1,1,80,0,0
12940,-90.9090909090909,4,1,1,80,0,0
22053,-90.9090909090909,4,1,1,85,0,0
22295,-90.9090909090909,4,1,1,85,0,0
22537,-90.9090909090909,4,1,1,85,0,0
22859,-76.9230769230769,4,1,1,80,0,0
23263,-90.9090909090909,4,1,1,80,0,0
28424,-90.9090909090909,4,1,1,83,0,0
29714,-90.9090909090909,4,1,1,85,0,0
31005,-90.9090909090909,4,1,1,87,0,0
32456,-90.9090909090909,4,1,1,90,0,0
32698,-90.9090909090909,4,1,1,90,0,0
32940,-90.9090909090909,4,1,1,90,0,0
33101,-90.9090909090909,4,1,1,80,0,0
33585,-100,4,1,1,75,0,0
38424,-100,4,1,1,80,0,0
40037,-100,4,1,1,83,0,0
41327,-100,4,1,1,85,0,0
42779,-100,4,1,1,87,0,0
44230,-105.263157894737,4,1,1,75,0,0
45198,-90.9090909090909,4,1,1,75,0,0
45359,-86.9565217391304,4,1,1,75,0,0
45521,-83.3333333333333,4,1,1,75,0,0
45682,-80,4,1,1,75,0,0
45843,-76.9230769230769,4,1,1,75,0,0
46166,-100,4,1,1,75,0,0
51166,-100,4,1,1,85,0,0
51488,-100,4,1,1,75,0,0
61650,-100,4,1,1,80,0,0
62537,-100,4,1,1,83,0,0
63747,-100,4,1,1,85,0,0
65843,-100,4,1,1,87,0,0
68424,-125,4,1,1,65,0,0
79634,-76.9230769230769,4,1,1,90,0,0
79876,-100,4,1,1,75,0,0
85037,-100,4,1,1,80,0,0
85682,-100,4,1,1,83,0,0
86327,-100,4,1,1,85,0,0
86972,-100,4,1,1,87,0,0
89392,-100,4,1,1,75,0,0
90037,-83.3333333333333,4,1,1,85,0,0
90359,-90.9090909090909,4,1,1,80,0,1
99553,-76.9230769230769,4,1,1,85,0,1
99714,-80,4,1,1,85,0,1
99876,-83.3333333333333,4,1,1,85,0,1
100117,-86.9565217391304,4,1,1,85,0,1
100279,-86.9565217391304,4,1,1,85,0,0
100682,-83.3333333333333,4,1,1,80,0,1
108585,-82.6446280991736,4,1,1,80,0,1
108666,-81.9672131147541,4,1,1,80,0,1
108827,-80.6451612903226,4,1,1,80,0,1
108908,-80,4,1,1,80,0,1
109069,-78.7401574803149,4,1,1,80,0,1
109150,-78.125,4,1,1,80,0,1
109230,-77.5193798449612,4,1,1,80,0,1
109311,-76.9230769230769,4,1,1,80,0,1
109392,-76.3358778625954,4,1,1,80,0,1
109472,-75.7575757575758,4,1,1,80,0,1
109553,-75.187969924812,4,1,1,80,0,1
109634,-74.6268656716418,4,1,1,80,0,1
109714,-74.0740740740741,4,1,1,85,0,1
109956,-76.9230769230769,4,1,1,85,0,1
110198,-80,4,1,1,85,0,1
110359,-83.3333333333333,4,1,1,85,0,1
110682,-86.9565217391304,4,1,1,85,0,1
111005,-100,4,1,1,75,0,0

[HitObjects]
256,194,1972,5,0,0:0:0:0:
256,194,2133,1,0,0:0:0:0:
256,194,2294,1,2,0:0:0:0:
256,194,2456,1,2,0:0:0:0:
256,194,2618,1,4,0:0:0:0:
256,194,2940,1,0,0:0:0:0:
256,194,3101,1,6,0:0:0:0:
256,194,3263,1,0,0:0:0:0:
256,194,3424,1,0,0:0:0:0:
256,194,3585,1,2,0:0:0:0:
256,194,3747,1,2,0:0:0:0:
256,194,3908,1,4,0:0:0:0:
256,194,4230,1,0,0:0:0:0:
256,194,4392,1,6,0:0:0:0:
256,194,4553,1,0,0:0:0:0:
256,194,4714,1,0,0:0:0:0:
256,194,4876,1,2,0:0:0:0:
256,194,5037,1,2,0:0:0:0:
256,194,5198,1,4,0:0:0:0:
282,201,5359,1,0,0:0:0:0:
276,191,5521,1,2,0:0:0:0:
256,194,5682,1,4,0:0:0:0:
282,201,5843,1,0,0:0:0:0:
276,191,6005,1,2,0:0:0:0:
260,183,6166,1,4,0:0:0:0:
260,183,6327,1,2,0:0:0:0:
260,183,6488,1,4,0:0:0:0:
251,200,6811,1,0,0:0:0:0:
256,190,6972,1,6,0:0:0:0:
255,191,7134,1,0,0:0:0:0:
255,191,7295,1,0,0:0:0:0:
255,191,7456,1,2,0:0:0:0:
251,200,7617,1,2,0:0:0:0:
251,200,7779,1,4,0:0:0:0:
248,196,8101,1,0,0:0:0:0:
257,202,8424,1,0,0:0:0:0:
257,202,8747,1,0,0:0:0:0:
257,202,9069,1,2,0:0:0:0:
257,202,9392,1,2,0:0:0:0:
257,202,9714,1,2,0:0:0:0:
257,202,10037,1,2,0:0:0:0:
257,202,10359,1,0,0:0:0:0:
257,202,10521,1,0,0:0:0:0:
257,202,10682,1,2,0:0:0:0:
257,202,10843,1,2,0:0:0:0:
257,202,11005,1,0,0:0:0:0:
257,202,11085,1,0,0:0:0:0:
257,202,11166,1,0,0:0:0:0:
257,202,11247,1,0,0:0:0:0:
257,202,11327,1,2,0:0:0:0:
257,202,11408,1,2,0:0:0:0:
257,202,11488,1,2,0:0:0:0:
257,202,11569,1,2,0:0:0:0:
257,202,11650,1,0,0:0:0:0:
257,202,11972,1,0,0:0:0:0:
257,202,12295,1,2,0:0:0:0:
257,202,12376,1,2,0:0:0:0:
257,202,12456,1,0,0:0:0:0:
257,202,12617,1,6,0:0:0:0:
257,202,12940,1,4,0:0:0:0:
257,202,13182,1,2,0:0:0:0:
257,202,13263,1,0,0:0:0:0:
257,202,13424,1,2,0:0:0:0:
257,202,13585,1,0,0:0:0:0:
257,202,13666,1,0,0:0:0:0:
257,202,13747,1,2,0:0:0:0:
257,202,13908,1,0,0:0:0:0:
257,202,13988,1,0,0:0:0:0:
257,202,14069,1,2,0:0:0:0:
257,202,14150,1,2,0:0:0:0:
257,202,14230,1,0,0:0:0:0:
270,203,14311,1,2,0:0:0:0:
270,203,14472,1,2,0:0:0:0:
270,203,14553,1,0,0:0:0:0:
270,203,14714,1,2,0:0:0:0:
270,203,14876,1,0,0:0:0:0:
270,203,14956,1,0,0:0:0:0:
270,203,15037,1,2,0:0:0:0:
270,203,15198,1,0,0:0:0:0:
270,203,15279,1,2,0:0:0:0:
270,203,15359,1,2,0:0:0:0:
270,203,15521,1,0,0:0:0:0:
270,203,15601,1,2,0:0:0:0:
270,203,15763,1,2,0:0:0:0:
270,203,15843,1,0,0:0:0:0:
270,203,16005,1,2,0:0:0:0:
270,203,16166,1,0,0:0:0:0:
270,203,16247,1,2,0:0:0:0:
270,203,16327,1,2,0:0:0:0:
270,203,16488,1,0,0:0:0:0:
270,203,16569,1,0,0:0:0:0:
270,203,16650,1,2,0:0:0:0:
270,203,16811,1,0,0:0:0:0:
270,203,16892,1,0,0:0:0:0:
270,203,17053,1,2,0:0:0:0:
270,203,17134,1,0,0:0:0:0:
272,198,17295,1,2,0:0:0:0:
272,198,17376,1,2,0:0:0:0:
272,198,17456,1,0,0:0:0:0:
272,198,17617,1,2,0:0:0:0:
259,189,17779,1,0,0:0:0:0:
259,189,17859,1,0,0:0:0:0:
259,189,17940,1,2,0:0:0:0:
250,208,18021,1,2,0:0:0:0:
259,189,18101,1,0,0:0:0:0:
252,198,18182,1,0,0:0:0:0:
252,198,18343,1,2,0:0:0:0:
252,198,18424,1,0,0:0:0:0:
252,198,18585,1,2,0:0:0:0:
267,203,18747,1,0,0:0:0:0:
267,203,18827,1,2,0:0:0:0:
267,203,18908,1,2,0:0:0:0:
267,203,18988,1,2,0:0:0:0:
266,181,19069,1,0,0:0:0:0:
266,181,19150,1,0,0:0:0:0:
266,181,19230,1,2,0:0:0:0:
275,198,19392,1,0,0:0:0:0:
275,198,19472,1,2,0:0:0:0:
275,198,19634,1,2,0:0:0:0:
275,198,19714,1,0,0:0:0:0:
275,198,19876,1,2,0:0:0:0:
226,208,20037,1,0,0:0:0:0:
226,208,20117,1,0,0:0:0:0:
226,208,20198,1,2,0:0:0:0:
226,208,20279,1,2,0:0:0:0:
226,208,20359,1,0,0:0:0:0:
226,208,20440,1,0,0:0:0:0:
226,208,20521,1,2,0:0:0:0:
226,208,20682,1,2,0:0:0:0:
226,208,20763,1,0,0:0:0:0:
226,208,20924,1,0,0:0:0:0:
226,208,21005,1,2,0:0:0:0:
226,208,21166,1,2,0:0:0:0:
226,208,21327,1,2,0:0:0:0:
226,208,21408,1,2,0:0:0:0:
226,208,21488,1,0,0:0:0:0:
226,208,21569,1,0,0:0:0:0:
226,208,21650,1,2,0:0:0:0:
226,208,21730,1,0,0:0:0:0:
226,208,21811,1,2,0:0:0:0:
226,208,21892,1,2,0:0:0:0:
237,199,22134,1,6,0:0:0:0:
237,199,22376,1,6,0:0:0:0:
237,199,22617,1,6,0:0:0:0:
241,189,22779,1,0,0:0:0:0:
241,189,22940,1,6,0:0:0:0:
240,193,23263,1,4,0:0:0:0:
244,193,23505,1,2,0:0:0:0:
245,194,23585,1,0,0:0:0:0:
244,193,23747,1,2,0:0:0:0:
244,193,23908,1,0,0:0:0:0:
240,193,24069,1,0,0:0:0:0:
240,193,24150,1,0,0:0:0:0:
240,193,24230,1,2,0:0:0:0:
244,193,24392,1,2,0:0:0:0:
245,194,24553,1,2,0:0:0:0:
244,193,24634,1,0,0:0:0:0:
244,193,24795,1,0,0:0:0:0:
244,193,24876,1,2,0:0:0:0:
245,194,25037,1,2,0:0:0:0:
245,194,25198,1,0,0:0:0:0:
244,193,25279,1,0,0:0:0:0:
244,193,25359,1,2,0:0:0:0:
245,194,25440,1,2,0:0:0:0:
245,194,25521,1,0,0:0:0:0:
244,193,25601,1,2,0:0:0:0:
255,223,25682,1,2,0:0:0:0:
268,198,25843,1,0,0:0:0:0:
266,189,25924,1,2,0:0:0:0:
266,189,26085,1,2,0:0:0:0:
266,189,26166,1,0,0:0:0:0:
266,189,26327,1,0,0:0:0:0:
266,189,26488,1,2,0:0:0:0:
262,175,26569,1,0,0:0:0:0:
262,175,26650,1,2,0:0:0:0:
262,175,26811,1,2,0:0:0:0:
262,175,26892,1,0,0:0:0:0:
262,175,26972,1,2,0:0:0:0:
231,203,27134,1,2,0:0:0:0:
236,203,27214,1,0,0:0:0:0:
236,203,27376,1,0,0:0:0:0:
236,203,27456,1,2,0:0:0:0:
236,203,27617,1,2,0:0:0:0:
236,203,27779,1,0,0:0:0:0:
236,203,27859,1,2,0:0:0:0:
236,203,27940,1,0,0:0:0:0:
236,203,28021,1,0,0:0:0:0:
236,203,28101,1,2,0:0:0:0:
236,203,28182,1,0,0:0:0:0:
236,203,28263,1,2,0:0:0:0:
236,203,28424,1,0,0:0:0:0:
233,187,28666,1,2,0:0:0:0:
229,189,28747,1,0,0:0:0:0:
233,183,28908,1,2,0:0:0:0:
233,183,29069,1,0,0:0:0:0:
233,183,29230,1,2,0:0:0:0:
233,183,29311,1,2,0:0:0:0:
233,183,29392,1,0,0:0:0:0:
233,187,29553,1,2,0:0:0:0:
233,183,29714,1,0,0:0:0:0:
192,183,29956,1,2,0:0:0:0:
192,183,30037,1,0,0:0:0:0:
192,183,30198,1,2,0:0:0:0:
192,183,30359,1,0,0:0:0:0:
210,185,30521,1,0,0:0:0:0:
210,185,30601,1,2,0:0:0:0:
210,185,30682,1,0,0:0:0:0:
210,185,30843,1,2,0:0:0:0:
210,185,31005,1,0,0:0:0:0:
210,185,31166,1,2,0:0:0:0:
210,185,31247,1,0,0:0:0:0:
210,185,31408,1,0,0:0:0:0:
210,185,31488,1,2,0:0:0:0:
210,185,31650,1,0,0:0:0:0:
210,185,31730,1,0,0:0:0:0:
210,185,31811,1,2,0:0:0:0:
210,185,31892,1,2,0:0:0:0:
210,185,31972,1,0,0:0:0:0:
210,185,32053,1,2,0:0:0:0:
210,185,32134,1,2,0:0:0:0:
210,185,32214,1,2,0:0:0:0:
210,185,32456,1,6,0:0:0:0:
210,185,32698,1,6,0:0:0:0:
210,185,32940,1,6,0:0:0:0:
210,185,33101,1,0,0:0:0:0:
210,185,33263,1,6,0:0:0:0:
241,195,33585,1,2,0:0:0:0:
241,195,33666,1,2,0:0:0:0:
241,195,33827,1,0,0:0:0:0:
241,195,33908,1,0,0:0:0:0:
241,195,34069,1,2,0:0:0:0:
241,195,34150,1,2,0:0:0:0:
241,195,34311,1,0,0:0:0:0:
241,195,34392,1,0,0:0:0:0:
250,199,34553,1,0,0:0:0:0:
250,199,34634,1,2,0:0:0:0:
250,199,34714,1,0,0:0:0:0:
250,199,34795,1,2,0:0:0:0:
250,199,34876,1,0,0:0:0:0:
250,199,34956,1,0,0:0:0:0:
250,199,35117,1,2,0:0:0:0:
250,199,35198,1,2,0:0:0:0:
250,199,35359,1,0,0:0:0:0:
250,199,35440,1,0,0:0:0:0:
258,189,35521,1,2,0:0:0:0:
259,189,35628,1,2,0:0:0:0:
259,189,35736,1,2,0:0:0:0:
259,189,35843,1,2,0:0:0:0:
244,210,36005,1,2,0:0:0:0:
244,210,36085,1,2,0:0:0:0:
244,210,36166,1,0,0:0:0:0:
244,210,36247,1,2,0:0:0:0:
244,210,36408,1,2,0:0:0:0:
244,210,36488,1,0,0:0:0:0:
244,210,36650,1,0,0:0:0:0:
244,210,36730,1,2,0:0:0:0:
244,210,36892,1,2,0:0:0:0:
244,210,36972,1,0,0:0:0:0:
265,187,37134,1,2,0:0:0:0:
265,187,37214,1,2,0:0:0:0:
265,187,37295,1,0,0:0:0:0:
265,187,37376,1,0,0:0:0:0:
265,187,37456,1,2,0:0:0:0:
265,187,37537,1,0,0:0:0:0:
265,187,37698,1,0,0:0:0:0:
265,187,37779,1,2,0:0:0:0:
265,187,37940,1,0,0:0:0:0:
265,187,38021,1,0,0:0:0:0:
265,187,38101,1,2,0:0:0:0:
265,187,38263,1,0,0:0:0:0:
265,187,38424,1,2,0:0:0:0:
265,187,38505,1,2,0:0:0:0:
265,187,38585,1,2,0:0:0:0:
265,187,38666,1,2,0:0:0:0:
265,187,38747,1,0,0:0:0:0:
245,204,38908,1,2,0:0:0:0:
245,204,38988,1,2,0:0:0:0:
245,204,39069,1,0,0:0:0:0:
245,204,39230,1,2,0:0:0:0:
245,204,39311,1,0,0:0:0:0:
236,204,39392,1,2,0:0:0:0:
245,204,39472,1,2,0:0:0:0:
245,204,39553,1,0,0:0:0:0:
245,204,39714,1,2,0:0:0:0:
245,204,39795,1,0,0:0:0:0:
245,204,39876,1,0,0:0:0:0:
245,204,39956,1,0,0:0:0:0:
245,204,40037,1,2,0:0:0:0:
245,204,40117,1,0,0:0:0:0:
245,204,40279,1,0,0:0:0:0:
245,204,40359,1,2,0:0:0:0:
245,204,40521,1,0,0:0:0:0:
245,204,40601,1,0,0:0:0:0:
260,194,40682,1,2,0:0:0:0:
260,194,40790,1,2,0:0:0:0:
260,194,40897,1,2,0:0:0:0:
260,188,41005,1,2,0:0:0:0:
256,189,41166,1,2,0:0:0:0:
256,189,41247,1,2,0:0:0:0:
256,189,41327,1,0,0:0:0:0:
256,189,41488,1,2,0:0:0:0:
256,189,41569,1,0,0:0:0:0:
256,189,41730,1,0,0:0:0:0:
256,189,41811,1,2,0:0:0:0:
260,188,41972,1,0,0:0:0:0:
256,189,42134,1,2,0:0:0:0:
256,189,42214,1,2,0:0:0:0:
256,189,42376,1,0,0:0:0:0:
256,189,42456,1,2,0:0:0:0:
256,189,42617,1,0,0:0:0:0:
256,189,42779,1,2,0:0:0:0:
260,188,42940,1,0,0:0:0:0:
256,189,43101,1,2,0:0:0:0:
256,189,43263,1,2,0:0:0:0:
256,189,43343,1,2,0:0:0:0:
256,189,43424,1,2,0:0:0:0:
256,189,43505,1,2,0:0:0:0:
256,189,43585,1,2,0:0:0:0:
256,189,43666,1,2,0:0:0:0:
256,189,43747,1,2,0:0:0:0:
260,188,43827,1,2,0:0:0:0:
260,188,43908,1,0,0:0:0:0:
253,200,45198,1,4,0:0:0:0:
253,200,45359,1,4,0:0:0:0:
253,200,45521,1,6,0:0:0:0:
253,200,45682,1,6,0:0:0:0:
253,200,45843,1,4,0:0:0:0:
267,188,46166,1,2,0:0:0:0:
253,200,46488,1,4,0:0:0:0:
253,200,46811,1,2,0:0:0:0:
253,200,46972,1,0,0:0:0:0:
244,198,47053,1,0,0:0:0:0:
253,200,47134,1,2,0:0:0:0:
253,200,47295,1,0,0:0:0:0:
253,200,47456,1,2,0:0:0:0:
244,197,47537,1,2,0:0:0:0:
253,200,47617,1,0,0:0:0:0:
253,200,47779,1,2,0:0:0:0:
276,203,47859,1,0,0:0:0:0:
263,178,48021,1,0,0:0:0:0:
253,200,48101,1,2,0:0:0:0:
253,200,48263,1,0,0:0:0:0:
253,200,48424,1,2,0:0:0:0:
276,198,48585,1,0,0:0:0:0:
260,199,48747,1,2,0:0:0:0:
260,199,48827,1,2,0:0:0:0:
260,199,48908,1,0,0:0:0:0:
260,199,48988,1,0,0:0:0:0:
260,199,49069,1,2,0:0:0:0:
258,195,49392,1,2,0:0:0:0:
258,195,49472,1,2,0:0:0:0:
258,195,49553,1,0,0:0:0:0:
267,188,49714,1,2,0:0:0:0:
267,188,50037,1,2,0:0:0:0:
267,188,50359,1,2,0:0:0:0:
309,175,50440,1,2,0:0:0:0:
267,188,50521,1,0,0:0:0:0:
267,188,50682,1,2,0:0:0:0:
279,168,50763,1,2,0:0:0:0:
267,188,50843,1,0,0:0:0:0:
267,188,51005,1,2,0:0:0:0:
283,181,51085,1,0,0:0:0:0:
267,188,51166,1,2,0:0:0:0:
283,181,51247,1,2,0:0:0:0:
267,188,51327,1,0,0:0:0:0:
260,181,51650,1,0,0:0:0:0:
260,181,51730,1,0,0:0:0:0:
260,181,51811,1,0,0:0:0:0:
260,181,51972,1,6,0:0:0:0:
258,195,52134,1,0,0:0:0:0:
258,195,52295,1,2,0:0:0:0:
258,195,52376,1,2,0:0:0:0:
258,195,52456,1,0,0:0:0:0:
258,195,52617,1,2,0:0:0:0:
258,195,52779,1,0,0:0:0:0:
258,195,52940,1,2,0:0:0:0:
258,195,53021,1,0,0:0:0:0:
258,195,53182,1,0,0:0:0:0:
258,195,53263,1,2,0:0:0:0:
258,195,53424,1,0,0:0:0:0:
258,195,53505,1,0,0:0:0:0:
258,195,53585,1,2,0:0:0:0:
265,219,53747,1,0,0:0:0:0:
265,219,53908,1,2,0:0:0:0:
265,219,53988,1,2,0:0:0:0:
265,219,54069,1,0,0:0:0:0:
265,219,54150,1,0,0:0:0:0:
265,219,54230,1,2,0:0:0:0:
265,219,54553,1,0,0:0:0:0:
265,219,54634,1,0,0:0:0:0:
265,219,54714,1,0,0:0:0:0:
265,219,54876,1,2,0:0:0:0:
265,219,55198,1,2,0:0:0:0:
269,198,55521,1,6,0:0:0:0:
269,198,55682,1,6,0:0:0:0:
269,198,55843,1,6,0:0:0:0:
269,198,56005,1,6,0:0:0:0:
269,198,56166,1,2,0:0:0:0:
269,198,56247,1,2,0:0:0:0:
269,198,56327,1,0,0:0:0:0:
269,198,56408,1,0,0:0:0:0:
269,198,56488,1,2,0:0:0:0:
256,209,56569,1,2,0:0:0:0:
256,209,56650,1,0,0:0:0:0:
226,213,56811,1,2,0:0:0:0:
226,213,56892,1,0,0:0:0:0:
226,213,57053,1,0,0:0:0:0:
226,213,57134,1,2,0:0:0:0:
226,213,57295,1,2,0:0:0:0:
226,213,57376,1,0,0:0:0:0:
226,213,57537,1,0,0:0:0:0:
226,213,57617,1,2,0:0:0:0:
226,213,57779,1,2,0:0:0:0:
226,213,57859,1,2,0:0:0:0:
226,213,57940,1,0,0:0:0:0:
226,213,58101,1,0,0:0:0:0:
226,213,58182,1,2,0:0:0:0:
226,213,58343,1,2,0:0:0:0:
226,213,58424,1,0,0:0:0:0:
242,203,58585,1,0,0:0:0:0:
242,203,58666,1,0,0:0:0:0:
281,194,58747,1,2,0:0:0:0:
281,194,58854,1,2,0:0:0:0:
281,194,58962,1,2,0:0:0:0:
281,194,59069,1,2,0:0:0:0:
281,194,59150,1,2,0:0:0:0:
281,194,59230,1,0,0:0:0:0:
281,194,59311,1,0,0:0:0:0:
281,194,59392,1,2,0:0:0:0:
278,183,59472,1,2,0:0:0:0:
260,207,59634,1,0,0:0:0:0:
260,207,59714,1,0,0:0:0:0:
281,188,59876,1,2,0:0:0:0:
281,188,59956,1,2,0:0:0:0:
281,188,60117,1,0,0:0:0:0:
281,188,60198,1,0,0:0:0:0:
281,188,60359,1,2,0:0:0:0:
281,188,60440,1,0,0:0:0:0:
281,188,60521,1,0,0:0:0:0:
281,188,60682,1,2,0:0:0:0:
281,188,60763,1,2,0:0:0:0:
281,188,60924,1,0,0:0:0:0:
281,188,61005,1,0,0:0:0:0:
260,193,61166,1,2,0:0:0:0:
260,193,61247,1,2,0:0:0:0:
301,184,61327,1,2,0:0:0:0:
301,184,61435,1,0,0:0:0:0:
301,184,61542,1,0,0:0:0:0:
307,179,61650,1,2,0:0:0:0:
307,179,61730,1,2,0:0:0:0:
307,179,61811,1,2,0:0:0:0:
307,179,61892,1,2,0:0:0:0:
307,179,61972,1,0,0:0:0:0:
307,179,62134,1,2,0:0:0:0:
279,182,62214,1,0,0:0:0:0:
279,182,62376,1,0,0:0:0:0:
279,182,62456,1,2,0:0:0:0:
279,182,62617,1,2,0:0:0:0:
279,182,62698,1,2,0:0:0:0:
279,182,62779,1,0,0:0:0:0:
279,182,62859,1,0,0:0:0:0:
279,182,62940,1,2,0:0:0:0:
279,182,63021,1,0,0:0:0:0:
279,182,63101,1,2,0:0:0:0:
279,182,63263,1,0,0:0:0:0:
279,182,63424,1,0,0:0:0:0:
279,182,63505,1,2,0:0:0:0:
279,182,63666,1,2,0:0:0:0:
279,182,63747,1,0,0:0:0:0:
279,182,63908,1,2,0:0:0:0:
279,182,63988,1,2,0:0:0:0:
279,182,64069,1,0,0:0:0:0:
279,182,64150,1,0,0:0:0:0:
279,182,64230,1,2,0:0:0:0:
279,182,64311,1,2,0:0:0:0:
279,182,64392,1,2,0:0:0:0:
279,182,64472,1,2,0:0:0:0:
279,182,64553,1,0,0:0:0:0:
279,182,64714,1,2,0:0:0:0:
279,182,64795,1,0,0:0:0:0:
279,182,64876,1,0,0:0:0:0:
279,182,64956,1,0,0:0:0:0:
279,182,65037,1,2,0:0:0:0:
279,182,65198,1,0,0:0:0:0:
279,182,65359,1,2,0:0:0:0:
279,182,65440,1,2,0:0:0:0:
279,182,65521,1,0,0:0:0:0:
279,182,65601,1,2,0:0:0:0:
279,182,65682,1,2,0:0:0:0:
279,182,65843,1,2,0:0:0:0:
279,182,65924,1,0,0:0:0:0:
279,182,66005,1,0,0:0:0:0:
279,182,66085,1,0,0:0:0:0:
249,159,66166,1,2,0:0:0:0:
249,159,66247,1,0,0:0:0:0:
249,159,66327,1,0,0:0:0:0:
249,159,66408,1,0,0:0:0:0:
249,159,66488,1,2,0:0:0:0:
249,159,66569,1,2,0:0:0:0:
249,159,66650,1,2,0:0:0:0:
249,159,66730,1,2,0:0:0:0:
249,159,66811,1,2,0:0:0:0:
249,159,66892,1,2,0:0:0:0:
249,159,66972,1,2,0:0:0:0:
249,159,67053,1,2,0:0:0:0:
249,159,67134,1,0,0:0:0:0:
261,193,69069,1,0,0:0:0:0:
261,193,69230,1,0,0:0:0:0:
261,193,69392,1,2,0:0:0:0:
261,193,69553,1,2,0:0:0:0:
261,193,69714,1,0,0:0:0:0:
261,193,70359,1,0,0:0:0:0:
261,193,70521,1,0,0:0:0:0:
261,193,70682,1,2,0:0:0:0:
261,193,70843,1,2,0:0:0:0:
261,193,71005,1,0,0:0:0:0:
261,193,71650,1,0,0:0:0:0:
261,193,71811,1,0,0:0:0:0:
261,193,71972,1,2,0:0:0:0:
261,193,72134,1,2,0:0:0:0:
261,193,72295,1,0,0:0:0:0:
261,193,72456,1,2,0:0:0:0:
261,193,72617,1,0,0:0:0:0:
261,193,72779,1,2,0:0:0:0:
349,155,72940,1,2,0:0:0:0:
290,173,73101,1,0,0:0:0:0:
307,166,73263,1,2,0:0:0:0:
307,166,73424,1,2,0:0:0:0:
307,166,73585,1,0,0:0:0:0:
290,173,74230,1,0,0:0:0:0:
312,173,74392,1,0,0:0:0:0:
312,173,74553,1,2,0:0:0:0:
312,173,74714,1,2,0:0:0:0:
312,173,74876,1,0,0:0:0:0:
312,173,75521,1,0,0:0:0:0:
300,178,75682,1,0,0:0:0:0:
300,178,75843,1,2,0:0:0:0:
300,178,76005,1,2,0:0:0:0:
300,178,76166,1,0,0:0:0:0:
275,190,76811,1,0,0:0:0:0:
275,190,76972,1,0,0:0:0:0:
275,190,77134,1,2,0:0:0:0:
275,190,77295,1,2,0:0:0:0:
275,190,77456,1,0,0:0:0:0:
275,190,77617,1,2,0:0:0:0:
275,190,77779,1,0,0:0:0:0:
275,190,77940,1,2,0:0:0:0:
275,190,78101,1,0,0:0:0:0:
275,190,78263,1,2,0:0:0:0:
275,190,78424,1,2,0:0:0:0:
275,190,78585,1,0,0:0:0:0:
275,190,78747,1,2,0:0:0:0:
257,185,79714,1,6,0:0:0:0:
250,207,80037,1,2,0:0:0:0:
250,207,80117,1,0,0:0:0:0:
250,207,80198,1,0,0:0:0:0:
250,207,80359,1,2,0:0:0:0:
247,225,80521,1,0,0:0:0:0:
247,225,80601,1,2,0:0:0:0:
271,193,80763,1,2,0:0:0:0:
271,193,80843,1,0,0:0:0:0:
271,193,80924,1,2,0:0:0:0:
271,193,81005,1,0,0:0:0:0:
271,193,81085,1,2,0:0:0:0:
271,193,81166,1,2,0:0:0:0:
271,193,81247,1,0,0:0:0:0:
271,193,81327,1,2,0:0:0:0:
271,193,81408,1,0,0:0:0:0:
271,193,81488,1,0,0:0:0:0:
271,193,81650,1,2,0:0:0:0:
271,193,81811,1,0,0:0:0:0:
271,193,81892,1,2,0:0:0:0:
271,193,82053,1,0,0:0:0:0:
271,193,82134,1,2,0:0:0:0:
271,193,82214,1,2,0:0:0:0:
271,193,82295,1,0,0:0:0:0:
271,193,82376,1,2,0:0:0:0:
271,193,82456,1,0,0:0:0:0:
271,193,82537,1,2,0:0:0:0:
271,193,82617,1,2,0:0:0:0:
271,193,82779,1,0,0:0:0:0:
271,193,82859,1,2,0:0:0:0:
271,193,83021,1,0,0:0:0:0:
271,193,83101,1,2,0:0:0:0:
271,193,83263,1,0,0:0:0:0:
271,193,83343,1,2,0:0:0:0:
275,137,83505,1,0,0:0:0:0:
275,154,83585,1,2,0:0:0:0:
275,154,83666,1,0,0:0:0:0:
275,154,83747,1,2,0:0:0:0:
275,154,83827,1,2,0:0:0:0:
275,154,83908,1,0,0:0:0:0:
232,178,84069,1,2,0:0:0:0:
242,193,84150,1,0,0:0:0:0:
232,178,84311,1,2,0:0:0:0:
242,193,84392,1,0,0:0:0:0:
232,178,84553,1,2,0:0:0:0:
242,193,84634,1,0,0:0:0:0:
238,203,84795,1,0,0:0:0:0:
238,203,84876,1,2,0:0:0:0:
238,203,85037,1,0,0:0:0:0:
249,203,85198,1,6,0:0:0:0:
254,185,85359,1,0,0:0:0:0:
254,185,85440,1,0,0:0:0:0:
254,185,85521,1,2,0:0:0:0:
254,185,85601,1,2,0:0:0:0:
254,185,85682,1,0,0:0:0:0:
254,185,85843,1,6,0:0:0:0:
254,185,86005,1,0,0:0:0:0:
254,185,86166,1,6,0:0:0:0:
254,185,86327,1,0,0:0:0:0:
254,185,86488,1,6,0:0:0:0:
254,185,86650,1,0,0:0:0:0:
254,185,86730,1,2,0:0:0:0:
254,185,86811,1,2,0:0:0:0:
254,185,86892,1,2,0:0:0:0:
254,185,86972,1,0,0:0:0:0:
254,185,87134,1,6,0:0:0:0:
254,185,87295,1,0,0:0:0:0:
254,185,87456,1,6,0:0:0:0:
254,185,87617,1,0,0:0:0:0:
283,191,87698,1,0,0:0:0:0:
283,191,87779,1,2,0:0:0:0:
283,191,87859,1,0,0:0:0:0:
265,185,87940,1,2,0:0:0:0:
265,185,88021,1,0,0:0:0:0:
285,181,88101,1,2,0:0:0:0:
285,181,88182,1,2,0:0:0:0:
285,181,88263,1,0,0:0:0:0:
285,181,88343,1,2,0:0:0:0:
285,181,88424,1,0,0:0:0:0:
285,181,88505,1,0,0:0:0:0:
285,181,88585,1,2,0:0:0:0:
285,181,88666,1,2,0:0:0:0:
276,173,88747,1,2,0:0:0:0:
278,170,88800,1,2,0:0:0:0:
278,170,88854,1,2,0:0:0:0:
278,170,88908,1,2,0:0:0:0:
278,170,88962,1,2,0:0:0:0:
278,170,89015,1,2,0:0:0:0:
278,170,89069,1,0,0:0:0:0:
256,177,89392,1,0,0:0:0:0:
271,177,89714,1,2,0:0:0:0:
271,177,89795,1,2,0:0:0:0:
271,177,89876,1,0,0:0:0:0:
271,177,90037,1,6,0:0:0:0:
236,162,90359,1,2,0:0:0:0:
236,162,90440,1,0,0:0:0:0:
236,162,90521,1,0,0:0:0:0:
250,203,90682,1,2,0:0:0:0:
250,203,90843,1,0,0:0:0:0:
250,203,90924,1,2,0:0:0:0:
250,203,91005,1,0,0:0:0:0:
250,203,91085,1,0,0:0:0:0:
250,203,91166,1,2,0:0:0:0:
250,203,91247,1,0,0:0:0:0:
250,203,91327,1,2,0:0:0:0:
250,203,91408,1,2,0:0:0:0:
250,203,91488,1,0,0:0:0:0:
250,203,91569,1,0,0:0:0:0:
250,203,91650,1,2,0:0:0:0:
250,203,91730,1,0,0:0:0:0:
250,203,91811,1,0,0:0:0:0:
250,203,91972,1,2,0:0:0:0:
250,203,92134,1,2,0:0:0:0:
250,203,92214,1,2,0:0:0:0:
250,203,92295,1,0,0:0:0:0:
250,203,92376,1,0,0:0:0:0:
250,203,92456,1,2,0:0:0:0:
250,203,92537,1,0,0:0:0:0:
250,203,92617,1,0,0:0:0:0:
250,203,92698,1,0,0:0:0:0:
250,203,92779,1,2,0:0:0:0:
249,216,92859,1,2,0:0:0:0:
268,219,92940,1,2,0:0:0:0:
243,213,93021,1,0,0:0:0:0:
243,213,93101,1,0,0:0:0:0:
268,219,93182,1,2,0:0:0:0:
243,213,93263,1,0,0:0:0:0:
243,213,93343,1,0,0:0:0:0:
268,219,93424,1,2,0:0:0:0:
243,213,93505,1,0,0:0:0:0:
243,213,93585,1,0,0:0:0:0:
268,219,93666,1,2,0:0:0:0:
243,213,93747,1,0,0:0:0:0:
243,213,93827,1,0,0:0:0:0:
242,203,93908,1,2,0:0:0:0:
242,203,94069,1,0,0:0:0:0:
242,203,94150,1,0,0:0:0:0:
242,203,94230,1,2,0:0:0:0:
242,203,94311,1,2,0:0:0:0:
242,203,94392,1,0,0:0:0:0:
242,203,94472,1,2,0:0:0:0:
242,203,94553,1,2,0:0:0:0:
242,203,94634,1,0,0:0:0:0:
242,203,94714,1,2,0:0:0:0:
242,203,94795,1,2,0:0:0:0:
242,203,94876,1,0,0:0:0:0:
266,187,94956,1,2,0:0:0:0:
266,187,95037,1,0,0:0:0:0:
266,187,95117,1,0,0:0:0:0:
266,187,95198,1,2,0:0:0:0:
266,187,95359,1,0,0:0:0:0:
266,187,95440,1,0,0:0:0:0:
266,187,95521,1,2,0:0:0:0:
266,187,95601,1,0,0:0:0:0:
266,187,95682,1,0,0:0:0:0:
266,187,95843,1,2,0:0:0:0:
301,177,96005,1,0,0:0:0:0:
301,177,96085,1,2,0:0:0:0:
301,177,96166,1,0,0:0:0:0:
301,177,96247,1,2,0:0:0:0:
301,177,96327,1,2,0:0:0:0:
301,177,96408,1,0,0:0:0:0:
301,177,96488,1,2,0:0:0:0:
301,177,96569,1,0,0:0:0:0:
301,177,96650,1,2,0:0:0:0:
301,177,96730,1,2,0:0:0:0:
301,177,96811,1,2,0:0:0:0:
265,168,96892,1,0,0:0:0:0:
265,168,96972,1,0,0:0:0:0:
262,173,97134,1,2,0:0:0:0:
244,188,97295,1,2,0:0:0:0:
236,205,97376,1,2,0:0:0:0:
236,205,97456,1,0,0:0:0:0:
236,205,97537,1,0,0:0:0:0:
236,205,97617,1,2,0:0:0:0:
236,205,97698,1,2,0:0:0:0:
236,205,97779,1,0,0:0:0:0:
236,205,97859,1,2,0:0:0:0:
236,205,97940,1,0,0:0:0:0:
236,205,98021,1,2,0:0:0:0:
236,205,98101,1,2,0:0:0:0:
250,196,98263,1,0,0:0:0:0:
250,196,98343,1,2,0:0:0:0:
250,196,98505,1,2,0:0:0:0:
250,196,98585,1,0,0:0:0:0:
250,196,98747,1,2,0:0:0:0:
250,196,98827,1,0,0:0:0:0:
250,196,98908,1,0,0:0:0:0:
250,196,98988,1,0,0:0:0:0:
250,196,99069,1,2,0:0:0:0:
250,196,99150,1,2,0:0:0:0:
273,185,99230,1,2,0:0:0:0:
273,185,99284,1,2,0:0:0:0:
273,185,99338,1,2,0:0:0:0:
286,209,99553,1,6,0:0:0:0:
286,209,99795,1,6,0:0:0:0:
286,209,100037,1,6,0:0:0:0:
286,209,100279,1,6,0:0:0:0:
248,205,100682,1,2,0:0:0:0:
248,205,100763,1,0,0:0:0:0:
248,205,100843,1,0,0:0:0:0:
248,205,100924,1,2,0:0:0:0:
248,205,101005,1,2,0:0:0:0:
248,205,101166,1,0,0:0:0:0:
248,205,101247,1,2,0:0:0:0:
248,205,101327,1,2,0:0:0:0:
248,205,101408,1,0,0:0:0:0:
248,205,101488,1,0,0:0:0:0:
248,205,101569,1,0,0:0:0:0:
248,205,101650,1,2,0:0:0:0:
248,205,101730,1,2,0:0:0:0:
248,205,101811,1,0,0:0:0:0:
248,205,101892,1,0,0:0:0:0:
248,205,101972,1,2,0:0:0:0:
248,205,102053,1,0,0:0:0:0:
248,205,102134,1,0,0:0:0:0:
253,199,102214,1,0,0:0:0:0:
253,199,102295,1,2,0:0:0:0:
253,199,102456,1,0,0:0:0:0:
253,199,102537,1,2,0:0:0:0:
253,199,102617,1,0,0:0:0:0:
253,199,102698,1,2,0:0:0:0:
253,199,102779,1,2,0:0:0:0:
253,199,102859,1,0,0:0:0:0:
253,199,102940,1,0,0:0:0:0:
253,199,103021,1,0,0:0:0:0:
253,199,103101,1,2,0:0:0:0:
253,199,103182,1,0,0:0:0:0:
253,199,103263,1,0,0:0:0:0:
253,199,103343,1,2,0:0:0:0:
253,199,103424,1,2,0:0:0:0:
253,199,103505,1,0,0:0:0:0:
253,199,103585,1,2,0:0:0:0:
253,199,103666,1,2,0:0:0:0:
253,199,103747,1,0,0:0:0:0:
253,199,103827,1,2,0:0:0:0:
253,199,103908,1,2,0:0:0:0:
253,199,103988,1,0,0:0:0:0:
253,199,104069,1,2,0:0:0:0:
253,199,104150,1,2,0:0:0:0:
249,163,104230,1,0,0:0:0:0:
242,182,104311,1,2,0:0:0:0:
242,182,104392,1,0,0:0:0:0:
242,182,104472,1,2,0:0:0:0:
242,182,104553,1,2,0:0:0:0:
242,182,104634,1,0,0:0:0:0:
242,182,104714,1,0,0:0:0:0:
242,182,104795,1,2,0:0:0:0:
242,182,104876,1,0,0:0:0:0:
242,182,104956,1,0,0:0:0:0:
242,182,105037,1,2,0:0:0:0:
242,182,105117,1,0,0:0:0:0:
242,182,105198,1,0,0:0:0:0:
242,182,105279,1,2,0:0:0:0:
242,182,105359,1,0,0:0:0:0:
242,182,105440,1,0,0:0:0:0:
246,182,105521,1,2,0:0:0:0:
246,182,105682,1,0,0:0:0:0:
239,168,105843,1,6,0:0:0:0:
258,197,106005,1,0,0:0:0:0:
258,197,106085,1,0,0:0:0:0:
258,197,106166,1,2,0:0:0:0:
260,158,106327,1,2,0:0:0:0:
260,158,106408,1,2,0:0:0:0:
260,158,106488,1,0,0:0:0:0:
260,158,106569,1,0,0:0:0:0:
260,158,106650,1,2,0:0:0:0:
260,158,106730,1,0,0:0:0:0:
260,158,106811,1,2,0:0:0:0:
260,158,106892,1,2,0:0:0:0:
260,158,106972,1,0,0:0:0:0:
260,158,107134,1,6,0:0:0:0:
252,187,107295,1,0,0:0:0:0:
252,187,107376,1,0,0:0:0:0:
252,187,107456,1,2,0:0:0:0:
252,187,107617,1,0,0:0:0:0:
252,187,107698,1,2,0:0:0:0:
265,185,107779,1,0,0:0:0:0:
265,185,107859,1,0,0:0:0:0:
265,185,107940,1,2,0:0:0:0:
265,185,108021,1,0,0:0:0:0:
265,185,108101,1,2,0:0:0:0:
265,185,108182,1,0,0:0:0:0:
265,185,108263,1,2,0:0:0:0:
265,185,108343,1,2,0:0:0:0:
265,185,108424,1,2,0:0:0:0:
265,185,108585,1,0,0:0:0:0:
265,185,108666,1,2,0:0:0:0:
265,185,108827,1,0,0:0:0:0:
265,185,108908,1,2,0:0:0:0:
265,185,109069,1,2,0:0:0:0:
265,185,109150,1,2,0:0:0:0:
265,185,109230,1,0,0:0:0:0:
265,185,109311,1,0,0:0:0:0:
252,148,109392,1,2,0:0:0:0:
252,148,109472,1,0,0:0:0:0:
252,148,109553,1,2,0:0:0:0:
252,148,109634,1,2,0:0:0:0:
252,148,109714,1,0,0:0:0:0:
252,148,109956,1,0,0:0:0:0:
252,148,110198,1,2,0:0:0:0:
252,148,110440,1,2,0:0:0:0:
283,158,110682,1,2,0:0:0:0:
283,158,111005,1,4,0:0:0:0:
