osu file format v14

[General]
AudioFilename: PxLight - Gekkou Ranbu.mp3
AudioLeadIn: 0
PreviewTime: 89812
Countdown: 0
SampleSet: Soft
StackLeniency: 0.7
Mode: 3
LetterboxInBreaks: 0
SpecialStyle: 1
WidescreenStoryboard: 0

[Editor]
DistanceSpacing: 0.8
BeatDivisor: 4
GridSize: 4
TimelineZoom: 1.7

[Metadata]
Title:Gekkou Ranbu
TitleUnicode:月光乱舞
Artist:P*Light
ArtistUnicode:P*Light
Creator:Spy
Version:victorica's 8K Leggendaria
Source:SOUND VOLTEX III GRAVITY WARS
Tags:BEMANI KONAMI SDVX 天下一音ゲ祭 全国一斉認定大会 2015 RASIS レイシス Voltenizer Maxima Kuo Kyoka Zan_- Rizqy victorica_db [Emiria] SanadaYukimura [_A_v_a_l_o_n_]
BeatmapID:838526
BeatmapSetID:382403

[Difficulty]
HPDrainRate:8
CircleSize:8
OverallDifficulty:9
ApproachRate:5
SliderMultiplier:1.4
SliderTickRate:1

[Events]
//Background and Video events
0,0,"BG.jpg",0,0
//Break Periods
//Storyboard Layer 0 (Background)
//Storyboard Layer 1 (Fail)
//Storyboard Layer 2 (Pass)
//Storyboard Layer 3 (Foreground)
//Storyboard Sound Samples
Sample,30780,0,"clap.wav",80
Sample,31183,0,"whistle.wav",80
Sample,31345,0,"whistle.wav",80
Sample,31506,0,"whistle.wav",80
Sample,31667,0,"whistle.wav",80
Sample,38845,0,"clap.wav",80
Sample,42070,0,"clap.wav",80
Sample,50941,0,"hihat.wav",45
Sample,64087,0,"whistle.wav",80
Sample,64167,0,"whistle.wav",80
Sample,64329,0,"whistle.wav",80
Sample,64409,0,"whistle.wav",80
Sample,64570,0,"whistle.wav",80
Sample,64732,0,"whistle.wav",80
Sample,64812,0,"whistle.wav",80
Sample,64974,0,"whistle.wav",80
Sample,65054,0,"whistle.wav",80
Sample,65216,0,"whistle.wav",80
Sample,65377,0,"whistle.wav",80
Sample,65538,0,"whistle.wav",80
Sample,65700,0,"whistle.wav",80
Sample,65861,0,"whistle.wav",80
Sample,66264,0,"clap.wav",80
Sample,88280,0,"whistle.wav",80
Sample,88361,0,"whistle.wav",80
Sample,88441,0,"whistle.wav",80
Sample,102232,0,"drum.wav",30

[TimingPoints]
2071,322.58064516129,4,2,1,50,1,0
89812,-100,4,2,1,50,0,1
110458,-100,4,2,1,50,0,0

[HitObjects]
416,192,1425,5,0,0:0:0:0:
224,192,1587,1,0,0:0:0:0:
352,192,1748,1,0,0:0:0:0:
160,192,1909,1,0,0:0:0:0:
32,192,2071,5,0,0:0:0:65:finish.wav
352,192,2071,1,0,0:0:0:80:whistle.wav
96,192,2071,1,0,0:0:0:0:
480,192,2071,1,0,0:0:0:0:
224,192,2071,1,0,0:0:0:0:
160,192,2393,1,0,0:0:0:80:clap.wav
416,192,2393,1,0,0:0:0:0:
32,192,2554,1,0,0:0:0:65:finish.wav
96,192,2554,1,0,0:0:0:80:whistle.wav
224,192,2554,1,0,0:0:0:0:
352,192,2554,1,0,0:0:0:0:
480,192,2554,1,0,0:0:0:0:
416,192,2716,1,0,0:0:0:0:
288,192,2877,1,0,0:0:0:0:
160,192,3038,1,0,0:0:0:30:drum.wav
288,192,3200,1,0,0:0:0:0:
32,192,3361,1,0,0:0:0:65:finish.wav
416,192,3361,1,0,0:0:0:80:whistle.wav
96,192,3361,1,0,0:0:0:0:
224,192,3361,1,0,0:0:0:0:
480,192,3361,1,0,0:0:0:0:
352,192,3683,1,0,0:0:0:80:clap.wav
160,192,3683,1,0,0:0:0:0:
32,192,3845,1,0,0:0:0:65:finish.wav
288,192,3845,1,0,0:0:0:80:whistle.wav
96,192,3845,1,0,0:0:0:0:
480,192,3845,1,0,0:0:0:0:
224,192,3845,1,0,0:0:0:0:
416,192,4006,1,0,0:0:0:0:
96,192,4167,1,0,0:0:0:30:drum.wav
352,192,4167,1,0,0:0:0:0:
224,192,4329,1,0,0:0:0:30:drum.wav
352,192,4490,1,0,0:0:0:0:
32,192,4651,1,0,0:0:0:80:whistle.wav
480,192,4651,1,0,0:0:0:0:
96,192,4651,1,0,0:0:0:0:
224,192,4651,1,0,0:0:0:0:
288,192,4651,1,0,0:0:0:0:
416,192,4812,1,0,0:0:0:0:
288,192,4974,1,0,0:0:0:0:
32,192,5135,1,0,0:0:0:80:whistle.wav
96,192,5135,1,0,0:0:0:0:
224,192,5135,1,0,0:0:0:0:
352,192,5135,1,0,0:0:0:0:
480,192,5135,1,0,0:0:0:0:
288,192,5296,1,0,0:0:0:0:
160,192,5458,1,0,0:0:0:0:
32,192,5619,1,0,0:0:0:80:whistle.wav
96,192,5619,1,0,0:0:0:30:drum.wav
288,192,5619,1,0,0:0:0:0:
416,192,5619,1,0,0:0:0:0:
480,192,5619,1,0,0:0:0:0:
224,192,5780,1,0,0:0:0:0:
32,192,5941,1,0,0:0:0:80:whistle.wav
352,192,5941,1,0,0:0:0:0:
480,192,5941,1,0,0:0:0:0:
96,192,5941,1,0,0:0:0:0:
288,192,5941,1,0,0:0:0:0:
160,192,6264,1,0,0:0:0:80:clap.wav
416,192,6264,1,0,0:0:0:0:
32,192,6425,1,0,0:0:0:80:whistle.wav
96,192,6425,1,0,0:0:0:0:
224,192,6425,1,0,0:0:0:0:
352,192,6425,1,0,0:0:0:0:
480,192,6425,1,0,0:0:0:0:
416,192,6587,1,0,0:0:0:0:
352,192,6748,1,0,0:0:0:30:drum.wav
96,192,6748,1,0,0:0:0:0:
288,192,6909,1,0,0:0:0:30:drum.wav
224,192,7070,1,0,0:0:0:0:
32,192,7232,1,0,0:0:0:65:finish.wav
480,192,7232,1,0,0:0:0:80:clap.wav
96,192,7232,1,0,0:0:0:80:whistle.wav
160,192,7232,1,0,0:0:0:0:
352,192,7232,1,0,0:0:0:0:
96,192,7554,1,0,0:0:0:80:clap.wav
96,192,7877,1,0,0:0:0:80:clap.wav
480,192,7877,1,0,0:0:0:0:
160,192,8038,1,0,0:0:0:0:
96,192,8200,1,0,0:0:0:80:clap.wav
224,192,8200,1,0,0:0:0:30:drum.wav
416,192,8200,1,0,0:0:0:0:
288,192,8361,1,0,0:0:0:0:
32,192,8522,1,0,0:0:0:80:clap.wav
96,192,8522,1,0,0:0:0:80:whistle.wav
224,192,8522,1,0,0:0:0:0:
480,192,8522,1,0,0:0:0:0:
352,192,8522,1,0,0:0:0:0:
96,192,8845,1,0,0:0:0:80:clap.wav
288,192,9006,1,0,0:0:0:0:
96,192,9167,1,0,0:0:0:80:clap.wav
288,192,9329,1,0,0:0:0:30:drum.wav
480,192,9329,1,0,0:0:0:0:
96,192,9490,1,0,0:0:0:80:clap.wav
416,192,9490,1,0,0:0:0:30:drum.wav
224,192,9490,1,0,0:0:0:0:
352,192,9651,1,0,0:0:0:0:
32,192,9812,1,0,0:0:0:80:clap.wav
288,192,9812,1,0,0:0:0:80:whistle.wav
96,192,9812,1,0,0:0:0:0:
480,192,9812,1,0,0:0:0:0:
224,192,9974,1,0,0:0:0:0:
32,192,10135,1,0,0:0:0:80:clap.wav
96,192,10135,1,0,0:0:0:0:
480,192,10135,1,0,0:0:0:0:
288,192,10135,1,0,0:0:0:0:
416,192,10296,1,0,0:0:0:0:
32,192,10458,1,0,0:0:0:80:clap.wav
96,192,10458,1,0,0:0:0:80:whistle.wav
352,192,10458,1,0,0:0:0:0:
224,192,10538,1,0,0:0:0:80:whistle.wav
352,192,10619,1,0,0:0:0:80:whistle.wav
480,192,10619,1,0,0:0:0:0:
224,192,10700,1,0,0:0:0:80:whistle.wav
32,192,10780,1,0,0:0:0:80:clap.wav
96,192,10780,1,0,0:0:0:80:whistle.wav
480,192,10780,1,0,0:0:0:30:drum.wav
352,192,10780,1,0,0:0:0:0:
224,192,10861,1,0,0:0:0:80:whistle.wav
352,192,10941,1,0,0:0:0:80:whistle.wav
96,192,10941,1,0,0:0:0:0:
224,192,11022,1,0,0:0:0:80:whistle.wav
32,192,11103,1,0,0:0:0:80:clap.wav
96,192,11103,1,0,0:0:0:80:whistle.wav
480,192,11103,1,0,0:0:0:0:
32,192,11425,1,0,0:0:0:0:
96,192,11425,1,0,0:0:0:0:
32,192,11748,1,0,0:0:0:0:
96,192,11748,1,0,0:0:0:0:
224,192,11748,1,0,0:0:0:0:
32,192,11909,1,0,0:0:0:0:
160,192,11909,1,0,0:0:0:0:
288,192,11909,1,0,0:0:0:0:
32,192,12070,1,0,0:0:0:80:clap.wav
224,192,12070,1,0,0:0:0:0:
352,192,12070,1,0,0:0:0:0:
480,192,12070,1,0,0:0:0:0:
288,192,12232,1,0,0:0:0:0:
416,192,12232,1,0,0:0:0:0:
32,192,12393,1,0,0:0:0:65:finish.wav
352,192,12393,1,0,0:0:0:80:whistle.wav
480,192,12393,1,0,0:0:0:0:
96,192,12393,1,0,0:0:0:0:
224,192,12554,1,0,0:0:0:45:hihat.wav
416,192,12554,1,0,0:0:0:0:
352,192,12635,1,0,0:0:0:0:
96,192,12716,1,0,0:0:0:80:whistle.wav
224,192,12716,1,0,0:0:0:80:clap.wav
480,192,12716,1,0,0:0:0:0:
288,192,12716,1,0,0:0:0:0:
160,192,12877,1,0,0:0:0:45:hihat.wav
288,192,12877,1,0,0:0:0:0:
96,192,13038,1,0,0:0:0:80:whistle.wav
224,192,13038,1,0,0:0:0:0:
480,192,13038,1,0,0:0:0:0:
160,192,13200,1,0,0:0:0:45:hihat.wav
288,192,13200,1,0,0:0:0:0:
352,192,13361,1,0,0:0:0:80:whistle.wav
224,192,13361,1,0,0:0:0:80:clap.wav
96,192,13361,1,0,0:0:0:0:
480,192,13361,1,0,0:0:0:0:
160,192,13522,1,0,0:0:0:45:hihat.wav
416,192,13522,1,0,0:0:0:0:
96,192,13683,1,0,0:0:0:80:whistle.wav
480,192,13683,1,0,0:0:0:0:
288,192,13683,1,0,0:0:0:0:
160,192,13845,1,0,0:0:0:45:hihat.wav
416,192,13845,1,0,0:0:0:0:
288,192,13925,1,0,0:0:0:0:
352,192,14006,1,0,0:0:0:80:whistle.wav
480,192,14006,1,0,0:0:0:80:clap.wav
96,192,14006,1,0,0:0:0:0:
160,192,14006,1,0,0:0:0:0:
160,192,14167,1,0,0:0:0:45:hihat.wav
288,192,14167,1,0,0:0:0:0:
416,192,14167,1,0,0:0:0:0:
224,192,14329,1,0,0:0:0:80:whistle.wav
352,192,14329,1,0,0:0:0:0:
96,192,14329,1,0,0:0:0:0:
224,192,14490,1,0,0:0:0:45:hihat.wav
288,192,14490,1,0,0:0:0:0:
416,192,14490,1,0,0:0:0:0:
160,192,14651,1,0,0:0:0:80:whistle.wav
352,192,14651,1,0,0:0:0:80:clap.wav
96,192,14651,1,0,0:0:0:30:drum.wav
480,192,14651,1,0,0:0:0:0:
288,192,14812,1,0,0:0:0:45:hihat.wav
416,192,14812,1,0,0:0:0:0:
96,192,14812,1,0,0:0:0:0:
480,192,14974,1,0,0:0:0:80:whistle.wav
96,192,14974,1,0,0:0:0:0:
224,192,14974,1,0,0:0:0:0:
352,192,15135,1,0,0:0:0:45:hihat.wav
160,192,15135,1,0,0:0:0:0:
224,192,15216,1,0,0:0:0:0:
96,192,15296,1,0,0:0:0:80:clap.wav
480,192,15296,1,0,0:0:0:80:whistle.wav
288,192,15296,1,0,0:0:0:0:
416,192,15296,1,0,0:0:0:0:
416,192,15458,1,0,0:0:0:45:hihat.wav
288,192,15458,1,0,0:0:0:0:
352,192,15619,1,0,0:0:0:80:whistle.wav
96,192,15619,1,0,0:0:0:0:
224,192,15619,1,0,0:0:0:0:
288,192,15780,1,0,0:0:0:45:hihat.wav
416,192,15780,1,0,0:0:0:0:
352,192,15941,1,0,0:0:0:80:clap.wav
96,192,15941,1,0,0:0:0:80:whistle.wav
480,192,15941,1,0,0:0:0:0:
160,192,15941,1,0,0:0:0:0:
288,192,16103,1,0,0:0:0:45:hihat.wav
224,192,16103,1,0,0:0:0:0:
96,192,16264,1,0,0:0:0:80:whistle.wav
352,192,16264,1,0,0:0:0:0:
480,192,16264,1,0,0:0:0:0:
160,192,16425,1,0,0:0:0:45:hihat.wav
288,192,16425,1,0,0:0:0:0:
416,192,16506,1,0,0:0:0:0:
352,192,16587,1,0,0:0:0:80:clap.wav
480,192,16587,1,0,0:0:0:80:whistle.wav
96,192,16587,1,0,0:0:0:0:
288,192,16587,1,0,0:0:0:0:
416,192,16748,1,0,0:0:0:45:hihat.wav
160,192,16748,1,0,0:0:0:0:
96,192,16909,1,0,0:0:0:80:whistle.wav
224,192,16909,1,0,0:0:0:0:
352,192,16909,1,0,0:0:0:0:
288,192,17070,1,0,0:0:0:45:hihat.wav
416,192,17070,1,0,0:0:0:30:drum.wav
160,192,17070,1,0,0:0:0:0:
480,192,17070,1,0,0:0:0:0:
96,192,17232,1,0,0:0:0:80:clap.wav
352,192,17232,1,0,0:0:0:80:whistle.wav
480,192,17232,1,0,0:0:0:30:drum.wav
224,192,17232,1,0,0:0:0:0:
160,192,17393,1,0,0:0:0:80:whistle.wav
288,192,17393,1,0,0:0:0:0:
416,192,17393,1,0,0:0:0:0:
32,192,17554,1,0,0:0:0:80:whistle.wav
224,192,17554,1,0,0:0:0:65:finish.wav
96,192,17554,1,0,0:0:0:0:
352,192,17554,1,0,0:0:0:0:
480,192,17554,1,0,0:0:0:0:
288,192,17716,1,0,0:0:0:45:hihat.wav
416,192,17716,1,0,0:0:0:0:
160,192,17796,1,0,0:0:0:0:
96,192,17877,1,0,0:0:0:80:whistle.wav
352,192,17877,1,0,0:0:0:80:clap.wav
480,192,17877,1,0,0:0:0:0:
288,192,17877,1,0,0:0:0:0:
288,192,18038,1,0,0:0:0:45:hihat.wav
160,192,18038,1,0,0:0:0:0:
96,192,18200,1,0,0:0:0:80:whistle.wav
352,192,18200,1,0,0:0:0:0:
480,192,18200,1,0,0:0:0:0:
160,192,18361,1,0,0:0:0:45:hihat.wav
416,192,18361,1,0,0:0:0:0:
224,192,18522,1,0,0:0:0:80:clap.wav
480,192,18522,1,0,0:0:0:80:whistle.wav
96,192,18522,1,0,0:0:0:30:drum.wav
32,192,18522,1,0,0:0:0:0:
416,192,18683,1,0,0:0:0:45:hihat.wav
160,192,18683,1,0,0:0:0:0:
32,192,18845,1,0,0:0:0:80:whistle.wav
96,192,18845,1,0,0:0:0:65:finish.wav
480,192,18845,1,0,0:0:0:0:
352,192,18845,1,0,0:0:0:0:
224,192,18845,1,0,0:0:0:0:
160,192,19006,1,0,0:0:0:45:hihat.wav
416,192,19006,1,0,0:0:0:0:
224,192,19087,1,0,0:0:0:0:
480,192,19167,1,0,0:0:0:80:clap.wav
96,192,19167,1,0,0:0:0:80:whistle.wav
352,192,19167,1,0,0:0:0:0:
160,192,19167,1,0,0:0:0:0:
224,192,19329,1,0,0:0:0:45:hihat.wav
352,192,19329,1,0,0:0:0:0:
480,192,19490,1,0,0:0:0:80:whistle.wav
288,192,19490,1,0,0:0:0:0:
160,192,19490,1,0,0:0:0:0:
224,192,19651,1,0,0:0:0:30:drum.wav
416,192,19651,1,0,0:0:0:45:hihat.wav
96,192,19651,1,0,0:0:0:0:
160,192,19812,1,0,0:0:0:80:whistle.wav
288,192,19812,1,0,0:0:0:80:clap.wav
480,192,19812,1,0,0:0:0:0:
416,192,19974,1,0,0:0:0:80:whistle.wav
224,192,19974,1,0,0:0:0:0:
96,192,19974,1,0,0:0:0:0:
32,192,20135,1,0,0:0:0:80:whistle.wav
160,192,20135,1,0,0:0:0:65:finish.wav
288,192,20135,1,0,0:0:0:0:
480,192,20135,1,0,0:0:0:0:
224,192,20296,1,0,0:0:0:30:drum.wav
352,192,20296,1,0,0:0:0:0:
32,192,20377,1,0,0:0:0:80:whistle.wav
96,192,20377,1,0,0:0:0:80:clap.wav
288,192,20377,1,0,0:0:0:0:
480,192,20377,1,0,0:0:0:0:
32,192,20619,1,0,0:0:0:30:drum.wav
96,192,20619,1,0,0:0:0:80:whistle.wav
224,192,20619,1,0,0:0:0:80:clap.wav
352,192,20619,1,0,0:0:0:0:
480,192,20619,1,0,0:0:0:0:
32,192,20780,1,0,0:0:0:80:whistle.wav
416,192,20780,1,0,0:0:0:0:
160,192,20780,1,0,0:0:0:0:
288,192,20780,1,0,0:0:0:0:
32,192,20941,1,0,0:0:0:30:drum.wav
96,192,20941,1,0,0:0:0:80:whistle.wav
224,192,20941,1,0,0:0:0:80:clap.wav
352,192,20941,1,0,0:0:0:0:
480,192,20941,1,0,0:0:0:0:
32,192,21103,1,0,0:0:0:30:drum.wav
288,192,21103,1,0,0:0:0:80:whistle.wav
416,192,21103,1,0,0:0:0:0:
160,192,21103,1,0,0:0:0:0:
32,192,21264,1,0,0:0:0:30:drum.wav
224,192,21264,1,0,0:0:0:80:whistle.wav
352,192,21264,1,0,0:0:0:80:clap.wav
480,192,21264,1,0,0:0:0:0:
32,192,21587,1,0,0:0:0:65:finish.wav
96,192,21587,1,0,0:0:0:80:whistle.wav
224,192,21587,1,0,0:0:0:0:
352,192,21587,1,0,0:0:0:0:
480,192,21587,1,0,0:0:0:0:
32,192,21829,1,0,0:0:0:65:finish.wav
96,192,21829,1,0,0:0:0:80:whistle.wav
160,192,21829,1,0,0:0:0:0:
288,192,21829,1,0,0:0:0:0:
480,192,21829,1,0,0:0:0:0:
32,192,22070,1,0,0:0:0:80:whistle.wav
96,192,22070,1,0,0:0:0:65:finish.wav
416,192,22070,1,0,0:0:0:0:
480,192,22070,1,0,0:0:0:0:
224,192,22070,1,0,0:0:0:0:
288,192,22232,1,0,0:0:0:30:drum.wav
32,192,22393,1,0,0:0:0:30:drum.wav
96,192,22393,1,0,0:0:0:80:clap.wav
288,192,22393,1,0,0:0:0:0:
480,192,22393,1,0,0:0:0:0:
32,192,22716,1,0,0:0:0:65:finish.wav
96,192,22716,1,0,0:0:0:80:whistle.wav
480,192,22716,1,0,0:0:0:0:
288,192,22716,1,0,0:0:0:0:
160,192,22877,1,0,0:0:0:45:hihat.wav
352,192,22877,1,0,0:0:0:0:
224,192,22958,1,0,0:0:0:0:
96,192,23038,1,0,0:0:0:80:clap.wav
480,192,23038,1,0,0:0:0:80:whistle.wav
288,192,23038,1,0,0:0:0:0:
416,192,23038,1,0,0:0:0:0:
160,192,23200,1,0,0:0:0:45:hihat.wav
352,192,23200,1,0,0:0:0:0:
96,192,23361,1,0,0:0:0:80:whistle.wav
416,192,23361,1,0,0:0:0:0:
224,192,23522,1,0,0:0:0:45:hihat.wav
480,192,23522,1,0,0:0:0:0:
96,192,23683,1,0,0:0:0:80:clap.wav
288,192,23683,1,0,0:0:0:80:whistle.wav
416,192,23683,1,0,0:0:0:0:
352,192,23683,1,0,0:0:0:0:
160,192,23845,1,0,0:0:0:45:hihat.wav
352,192,23845,1,0,0:0:0:0:
224,192,24006,1,0,0:0:0:0:
96,192,24006,1,0,0:0:0:0:
288,192,24006,1,0,0:0:0:0:
480,192,24006,1,0,0:0:0:0:
416,192,24167,1,0,0:0:0:45:hihat.wav
160,192,24167,1,0,0:0:0:0:
288,192,24248,1,0,0:0:0:0:
224,192,24329,1,0,0:0:0:80:whistle.wav
96,192,24329,1,0,0:0:0:80:clap.wav
480,192,24329,1,0,0:0:0:0:
352,192,24329,1,0,0:0:0:0:
288,192,24490,1,0,0:0:0:45:hihat.wav
416,192,24490,1,0,0:0:0:0:
352,192,24651,1,0,0:0:0:80:whistle.wav
224,192,24651,1,0,0:0:0:0:
96,192,24651,1,0,0:0:0:0:
160,192,24812,1,0,0:0:0:45:hihat.wav
288,192,24812,1,0,0:0:0:0:
96,192,24974,1,0,0:0:0:80:whistle.wav
480,192,24974,1,0,0:0:0:80:clap.wav
224,192,24974,1,0,0:0:0:0:
416,192,24974,1,0,0:0:0:0:
160,192,25135,1,0,0:0:0:45:hihat.wav
288,192,25135,1,0,0:0:0:0:
96,192,25296,1,0,0:0:0:0:
480,192,25296,1,0,0:0:0:0:
224,192,25296,1,0,0:0:0:0:
416,192,25296,1,0,0:0:0:0:
352,192,25458,1,0,0:0:0:45:hihat.wav
160,192,25458,1,0,0:0:0:0:
224,192,25538,1,0,0:0:0:0:
96,192,25619,1,0,0:0:0:80:clap.wav
480,192,25619,1,0,0:0:0:80:whistle.wav
288,192,25619,1,0,0:0:0:0:
416,192,25619,1,0,0:0:0:0:
160,192,25780,1,0,0:0:0:45:hihat.wav
352,192,25780,1,0,0:0:0:0:
288,192,25941,1,0,0:0:0:80:whistle.wav
480,192,25941,1,0,0:0:0:0:
96,192,25941,1,0,0:0:0:0:
416,192,26103,1,0,0:0:0:45:hihat.wav
224,192,26103,1,0,0:0:0:0:
352,192,26264,1,0,0:0:0:80:clap.wav
160,192,26264,1,0,0:0:0:80:whistle.wav
480,192,26264,1,0,0:0:0:0:
288,192,26264,1,0,0:0:0:0:
288,192,26425,1,0,0:0:0:45:hihat.wav
96,192,26425,1,0,0:0:0:0:
224,192,26587,1,0,0:0:0:80:whistle.wav
480,192,26587,1,0,0:0:0:0:
96,192,26587,1,0,0:0:0:0:
352,192,26587,1,0,0:0:0:0:
224,192,26748,1,0,0:0:0:45:hihat.wav
352,192,26829,1,0,0:0:0:0:
480,192,26909,1,0,0:0:0:80:whistle.wav
96,192,26909,1,0,0:0:0:80:clap.wav
224,192,26909,1,0,0:0:0:0:
160,192,27070,1,0,0:0:0:45:hihat.wav
416,192,27070,1,0,0:0:0:0:
96,192,27232,1,0,0:0:0:80:whistle.wav
288,192,27232,1,0,0:0:0:0:
416,192,27312,1,0,0:0:0:0:
352,192,27393,1,0,0:0:0:45:hihat.wav
224,192,27393,1,0,0:0:0:0:
480,192,27474,1,0,0:0:0:0:
416,192,27554,1,0,0:0:0:80:whistle.wav
96,192,27554,1,0,0:0:0:80:clap.wav
288,192,27554,1,0,0:0:0:30:drum.wav
160,192,27554,1,0,0:0:0:0:
96,192,27716,1,0,0:0:0:80:whistle.wav
352,192,27716,1,0,0:0:0:0:
32,192,27877,1,0,0:0:0:80:clap.wav
96,192,27877,1,0,0:0:0:65:finish.wav
224,192,27877,1,0,0:0:0:80:whistle.wav
480,192,27877,1,0,0:0:0:0:
288,192,27877,1,0,0:0:0:0:
160,192,28038,1,0,0:0:0:45:hihat.wav
288,192,28119,1,0,0:0:0:0:
416,192,28200,1,0,0:0:0:80:clap.wav
96,192,28200,1,0,0:0:0:80:whistle.wav
224,192,28200,1,0,0:0:0:0:
480,192,28200,1,0,0:0:0:0:
288,192,28361,1,0,0:0:0:45:hihat.wav
480,192,28361,1,0,0:0:0:0:
416,192,28522,1,0,0:0:0:80:clap.wav
96,192,28522,1,0,0:0:0:80:whistle.wav
224,192,28522,1,0,0:0:0:0:
160,192,28683,1,0,0:0:0:45:hihat.wav
352,192,28683,1,0,0:0:0:0:
224,192,28845,1,0,0:0:0:80:clap.wav
416,192,28845,1,0,0:0:0:80:whistle.wav
96,192,28845,1,0,0:0:0:0:
480,192,28845,1,0,0:0:0:0:
352,192,29006,1,0,0:0:0:45:hihat.wav
160,192,29006,1,0,0:0:0:0:
32,192,29167,1,0,0:0:0:80:clap.wav
96,192,29167,1,0,0:0:0:65:finish.wav
224,192,29167,1,0,0:0:0:80:whistle.wav
352,192,29167,1,0,0:0:0:0:
160,192,29329,1,0,0:0:0:45:hihat.wav
416,192,29329,1,0,0:0:0:0:
288,192,29409,1,0,0:0:0:0:
352,192,29490,1,0,0:0:0:80:clap.wav
96,192,29490,1,0,0:0:0:80:whistle.wav
480,192,29490,1,0,0:0:0:0:
224,192,29490,1,0,0:0:0:0:
224,192,29651,1,0,0:0:0:45:hihat.wav
416,192,29651,1,0,0:0:0:0:
352,192,29812,1,0,0:0:0:80:clap.wav
96,192,29812,1,0,0:0:0:80:whistle.wav
288,192,29812,1,0,0:0:0:0:
224,192,29974,1,0,0:0:0:45:hihat.wav
480,192,29974,1,0,0:0:0:0:
416,192,30135,1,0,0:0:0:80:clap.wav
288,192,30135,1,0,0:0:0:80:whistle.wav
96,192,30135,1,0,0:0:0:0:
160,192,30135,1,0,0:0:0:0:
224,192,30296,1,0,0:0:0:80:whistle.wav
352,192,30296,1,0,0:0:0:0:
32,192,30458,1,0,0:0:0:80:clap.wav
96,192,30458,1,0,0:0:0:65:finish.wav
288,192,30458,1,0,0:0:0:0:
480,192,30458,1,0,0:0:0:0:
224,192,30619,1,0,0:0:0:30:drum.wav
352,192,30619,1,0,0:0:0:0:
32,192,30700,1,0,0:0:0:80:whistle.wav
288,192,30700,1,0,0:0:0:0:
96,192,30700,1,0,0:0:0:0:
480,192,30700,1,0,0:0:0:0:
32,192,30941,1,0,0:0:0:30:drum.wav
96,192,30941,1,0,0:0:0:80:clap.wav
224,192,30941,1,0,0:0:0:80:whistle.wav
416,192,30941,1,0,0:0:0:0:
288,192,31022,1,0,0:0:0:0:
32,192,31103,1,0,0:0:0:80:whistle.wav
160,192,31103,1,0,0:0:0:0:
352,192,31103,1,0,0:0:0:0:
416,192,31183,1,0,0:0:0:0:
32,192,31264,1,0,0:0:0:30:drum.wav
288,192,31264,1,0,0:0:0:80:whistle.wav
480,192,31264,1,0,0:0:0:80:clap.wav
96,192,31264,1,0,0:0:0:0:
160,192,31345,1,0,0:0:0:0:
32,192,31425,1,0,0:0:0:80:whistle.wav
224,192,31425,1,0,0:0:0:0:
416,192,31425,1,0,0:0:0:0:
352,192,31506,1,0,0:0:0:0:
32,192,31587,1,0,0:0:0:30:drum.wav
96,192,31587,1,0,0:0:0:80:whistle.wav
288,192,31587,1,0,0:0:0:80:clap.wav
480,192,31587,1,0,0:0:0:0:
32,192,31909,1,0,0:0:0:65:finish.wav
96,192,31909,1,0,0:0:0:80:clap.wav
160,192,31909,1,0,0:0:0:0:
480,192,31909,1,0,0:0:0:0:
288,192,31909,1,0,0:0:0:0:
32,192,32151,1,0,0:0:0:65:finish.wav
96,192,32151,1,0,0:0:0:80:clap.wav
224,192,32151,1,0,0:0:0:0:
352,192,32151,1,0,0:0:0:0:
480,192,32151,1,0,0:0:0:0:
32,192,32393,1,0,0:0:0:80:clap.wav
96,192,32393,1,0,0:0:0:65:finish.wav
288,192,32393,1,0,0:0:0:0:
352,192,32393,1,0,0:0:0:0:
480,192,32393,1,0,0:0:0:0:
224,192,32554,1,0,0:0:0:30:drum.wav
32,192,32716,1,0,0:0:0:30:drum.wav
96,192,32716,1,0,0:0:0:80:clap.wav
352,192,32716,1,0,0:0:0:0:
480,192,32716,1,0,0:0:0:0:
32,192,33038,1,0,0:0:0:80:clap.wav
96,192,33038,1,0,0:0:0:65:finish.wav
224,192,33038,1,0,0:0:0:0:
480,192,33038,1,0,0:0:0:0:
416,192,33280,1,0,0:0:0:0:
288,192,33361,1,0,0:0:0:80:clap.wav
96,192,33361,1,0,0:0:0:0:
224,192,33522,1,0,0:0:0:0:
352,192,33603,1,0,0:0:0:0:
96,192,33683,1,0,0:0:0:80:clap.wav
288,192,33764,1,0,0:0:0:0:
416,192,33845,1,0,0:0:0:0:
96,192,34006,1,0,0:0:0:80:clap.wav
352,192,34006,1,0,0:0:0:0:
160,192,34087,1,0,0:0:0:0:
224,192,34167,1,0,0:0:0:0:
480,192,34167,1,0,0:0:0:0:
352,192,34248,1,0,0:0:0:0:
96,192,34329,1,0,0:0:0:80:clap.wav
480,192,34329,1,0,0:0:0:0:
288,192,34329,1,0,0:0:0:0:
416,192,34409,1,0,0:0:0:0:
160,192,34409,1,0,0:0:0:0:
352,192,34490,1,0,0:0:0:0:
288,192,34570,1,0,0:0:0:0:
416,192,34570,1,0,0:0:0:0:
96,192,34651,1,0,0:0:0:80:clap.wav
480,192,34651,1,0,0:0:0:0:
224,192,34651,1,0,0:0:0:0:
416,192,34732,1,0,0:0:0:0:
288,192,34732,1,0,0:0:0:0:
352,192,34812,1,0,0:0:0:0:
224,192,34812,1,0,0:0:0:0:
288,192,34893,1,0,0:0:0:0:
160,192,34893,1,0,0:0:0:0:
96,192,34974,1,0,0:0:0:80:clap.wav
224,192,34974,1,0,0:0:0:0:
480,192,34974,1,0,0:0:0:0:
352,192,35054,1,0,0:0:0:0:
480,192,35135,1,0,0:0:0:0:
352,192,35216,1,0,0:0:0:0:
96,192,35296,1,0,0:0:0:80:clap.wav
416,192,35296,1,0,0:0:0:0:
160,192,35296,1,0,0:0:0:0:
288,192,35458,1,0,0:0:0:0:
96,192,35619,1,0,0:0:0:80:clap.wav
352,192,35619,1,0,0:0:0:0:
160,192,35700,1,0,0:0:0:0:
416,192,35700,1,0,0:0:0:0:
288,192,35861,1,0,0:0:0:0:
96,192,35941,1,0,0:0:0:80:clap.wav
480,192,35941,1,0,0:0:0:0:
352,192,36103,1,0,0:0:0:0:
416,192,36183,1,0,0:0:0:0:
96,192,36264,1,0,0:0:0:80:clap.wav
480,192,36264,1,0,0:0:0:0:
224,192,36345,1,0,0:0:0:0:
416,192,36425,1,0,0:0:0:0:
96,192,36587,1,0,0:0:0:80:clap.wav
352,192,36587,1,0,0:0:0:0:
480,192,36587,1,0,0:0:0:0:
160,192,36667,1,0,0:0:0:0:
224,192,36748,1,0,0:0:0:0:
416,192,36748,1,0,0:0:0:0:
352,192,36829,1,0,0:0:0:0:
96,192,36909,1,0,0:0:0:80:clap.wav
416,192,36909,1,0,0:0:0:0:
480,192,36990,1,0,0:0:0:0:
224,192,36990,1,0,0:0:0:0:
288,192,37070,1,0,0:0:0:0:
352,192,37151,1,0,0:0:0:0:
160,192,37151,1,0,0:0:0:0:
480,192,37232,1,0,0:0:0:80:clap.wav
96,192,37232,1,0,0:0:0:0:
288,192,37232,1,0,0:0:0:0:
416,192,37312,1,0,0:0:0:0:
224,192,37312,1,0,0:0:0:0:
352,192,37393,1,0,0:0:0:0:
160,192,37393,1,0,0:0:0:0:
288,192,37474,1,0,0:0:0:0:
480,192,37474,1,0,0:0:0:0:
224,192,37554,1,0,0:0:0:80:clap.wav
96,192,37554,1,0,0:0:0:0:
416,192,37554,1,0,0:0:0:0:
352,192,37635,1,0,0:0:0:0:
224,192,37716,1,0,0:0:0:0:
96,192,37877,1,0,0:0:0:80:clap.wav
480,192,37877,1,0,0:0:0:0:
352,192,37877,1,0,0:0:0:0:
416,192,38038,1,0,0:0:0:0:
288,192,38119,1,0,0:0:0:0:
96,192,38200,1,0,0:0:0:65:finish.wav
480,192,38200,1,0,0:0:0:80:whistle.wav
224,192,38200,1,0,0:0:0:0:
32,192,38200,1,0,0:0:0:80:clap.wav
352,192,38280,1,0,0:0:0:0:
160,192,38361,1,0,0:0:0:80:whistle.wav
416,192,38361,1,0,0:0:0:0:
96,192,38522,1,0,0:0:0:80:whistle.wav
288,192,38522,1,0,0:0:0:80:clap.wav
480,192,38683,1,0,0:0:0:80:whistle.wav
160,192,38683,1,0,0:0:0:0:
352,192,38764,1,0,0:0:0:0:
96,192,38845,1,0,0:0:0:80:whistle.wav
288,192,38845,1,0,0:0:0:0:
480,192,38925,1,0,0:0:0:0:
416,192,39006,1,0,0:0:0:80:whistle.wav
288,192,39006,1,0,0:0:0:0:
352,192,39167,1,0,0:0:0:80:whistle.wav
224,192,39167,1,0,0:0:0:80:clap.wav
96,192,39167,1,0,0:0:0:0:
288,192,39248,1,0,0:0:0:0:
416,192,39329,1,0,0:0:0:80:whistle.wav
160,192,39329,1,0,0:0:0:0:
224,192,39409,1,0,0:0:0:0:
32,192,39490,1,0,0:0:0:80:whistle.wav
480,192,39490,1,0,0:0:0:65:finish.wav
96,192,39490,1,0,0:0:0:80:clap.wav
288,192,39490,1,0,0:0:0:0:
416,192,39570,1,0,0:0:0:0:
224,192,39651,1,0,0:0:0:80:whistle.wav
352,192,39651,1,0,0:0:0:0:
160,192,39651,1,0,0:0:0:0:
288,192,39732,1,0,0:0:0:0:
96,192,39812,1,0,0:0:0:80:whistle.wav
480,192,39812,1,0,0:0:0:80:clap.wav
352,192,39812,1,0,0:0:0:0:
416,192,39893,1,0,0:0:0:0:
288,192,39893,1,0,0:0:0:0:
352,192,39974,1,0,0:0:0:80:whistle.wav
224,192,39974,1,0,0:0:0:0:
96,192,39974,1,0,0:0:0:0:
288,192,40054,1,0,0:0:0:0:
160,192,40054,1,0,0:0:0:0:
480,192,40135,1,0,0:0:0:80:whistle.wav
96,192,40135,1,0,0:0:0:0:
352,192,40135,1,0,0:0:0:0:
224,192,40216,1,0,0:0:0:0:
352,192,40296,1,0,0:0:0:80:whistle.wav
224,192,40377,1,0,0:0:0:0:
480,192,40458,1,0,0:0:0:80:whistle.wav
96,192,40458,1,0,0:0:0:80:clap.wav
352,192,40458,1,0,0:0:0:0:
416,192,40619,1,0,0:0:0:80:whistle.wav
160,192,40619,1,0,0:0:0:0:
32,192,40780,1,0,0:0:0:80:whistle.wav
96,192,40780,1,0,0:0:0:65:finish.wav
480,192,40780,1,0,0:0:0:80:clap.wav
224,192,40780,1,0,0:0:0:0:
352,192,40861,1,0,0:0:0:0:
160,192,40941,1,0,0:0:0:80:whistle.wav
416,192,40941,1,0,0:0:0:0:
96,192,41103,1,0,0:0:0:80:whistle.wav
480,192,41103,1,0,0:0:0:80:clap.wav
288,192,41103,1,0,0:0:0:0:
224,192,41183,1,0,0:0:0:0:
352,192,41264,1,0,0:0:0:80:whistle.wav
160,192,41264,1,0,0:0:0:0:
32,192,41425,1,0,0:0:0:80:whistle.wav
480,192,41425,1,0,0:0:0:65:finish.wav
96,192,41425,1,0,0:0:0:80:clap.wav
288,192,41425,1,0,0:0:0:0:
416,192,41506,1,0,0:0:0:0:
160,192,41587,1,0,0:0:0:80:whistle.wav
352,192,41587,1,0,0:0:0:0:
224,192,41667,1,0,0:0:0:0:
96,192,41748,1,0,0:0:0:80:whistle.wav
480,192,41748,1,0,0:0:0:80:clap.wav
224,192,41829,1,0,0:0:0:0:
416,192,41909,1,0,0:0:0:80:whistle.wav
288,192,41909,1,0,0:0:0:0:
160,192,41990,1,0,0:0:0:0:
32,192,42070,1,0,0:0:0:80:whistle.wav
352,192,42070,1,0,0:0:0:65:finish.wav
480,192,42070,1,0,0:0:0:0:
96,192,42070,1,0,0:0:0:0:
224,192,42151,1,0,0:0:0:80:whistle.wav
416,192,42151,1,0,0:0:0:0:
96,192,42232,1,0,0:0:0:80:whistle.wav
480,192,42232,1,0,0:0:0:0:
224,192,42312,1,0,0:0:0:80:whistle.wav
288,192,42312,1,0,0:0:0:0:
96,192,42393,1,0,0:0:0:80:whistle.wav
416,192,42393,1,0,0:0:0:0:
224,192,42474,1,0,0:0:0:80:whistle.wav
352,192,42474,1,0,0:0:0:0:
96,192,42554,1,0,0:0:0:80:whistle.wav
480,192,42554,1,0,0:0:0:0:
224,192,42635,1,0,0:0:0:80:whistle.wav
352,192,42635,1,0,0:0:0:0:
480,192,42716,1,0,0:0:0:80:whistle.wav
96,192,42716,1,0,0:0:0:0:
288,192,42716,1,0,0:0:0:0:
224,192,42796,1,0,0:0:0:80:whistle.wav
416,192,42796,1,0,0:0:0:0:
352,192,42877,1,0,0:0:0:80:whistle.wav
96,192,42877,1,0,0:0:0:0:
224,192,42958,1,0,0:0:0:80:whistle.wav
288,192,42958,1,0,0:0:0:0:
480,192,43038,1,0,0:0:0:80:whistle.wav
96,192,43038,1,0,0:0:0:0:
224,192,43119,1,0,0:0:0:80:whistle.wav
416,192,43119,1,0,0:0:0:0:
352,192,43200,1,0,0:0:0:80:whistle.wav
96,192,43200,1,0,0:0:0:0:
416,192,43280,1,0,0:0:0:80:whistle.wav
224,192,43280,1,0,0:0:0:0:
352,192,43361,1,0,0:0:0:25:cym.wav
96,192,43361,1,0,0:0:0:0:
288,192,43361,1,0,0:0:0:0:
32,192,43361,1,0,0:0:0:0:
480,192,43361,1,0,0:0:0:0:
416,192,43683,1,0,0:0:0:0:
224,192,43845,1,0,0:0:0:0:
352,192,44006,1,0,0:0:0:0:
160,192,44167,1,0,0:0:0:0:
288,192,44329,1,0,0:0:0:0:
96,192,44490,1,0,0:0:0:0:
32,192,44651,1,0,0:0:0:80:whistle.wav
224,192,44651,1,0,0:0:0:80:clap.wav
352,192,44651,1,0,0:0:0:0:
480,192,44651,1,0,0:0:0:0:
32,192,44812,1,0,0:0:0:80:whistle.wav
416,192,44812,1,0,0:0:0:0:
288,192,44812,1,0,0:0:0:0:
160,192,44812,1,0,0:0:0:0:
32,192,44974,1,0,0:0:0:80:whistle.wav
96,192,44974,1,0,0:0:0:80:clap.wav
224,192,44974,1,0,0:0:0:0:
352,192,44974,1,0,0:0:0:0:
32,192,45135,1,0,0:0:0:80:whistle.wav
160,192,45135,1,0,0:0:0:0:
288,192,45135,1,0,0:0:0:0:
416,192,45135,1,0,0:0:0:0:
32,192,45296,1,0,0:0:0:80:whistle.wav
224,192,45296,1,0,0:0:0:80:clap.wav
352,192,45296,1,0,0:0:0:0:
480,192,45296,1,0,0:0:0:0:
32,192,45619,1,0,0:0:0:80:clap.wav
96,192,45619,1,0,0:0:0:0:
480,192,45619,1,0,0:0:0:0:
32,192,45941,1,0,0:0:0:80:whistle.wav
288,192,45941,1,0,0:0:0:65:finish.wav
96,192,45941,1,0,0:0:0:0:
480,192,45941,1,0,0:0:0:0:
416,192,46103,1,0,0:0:0:45:hihat.wav
160,192,46103,1,0,0:0:0:0:
288,192,46264,1,0,0:0:0:80:clap.wav
96,192,46264,1,0,0:0:0:80:whistle.wav
480,192,46264,1,0,0:0:0:0:
416,192,46425,1,0,0:0:0:45:hihat.wav
224,192,46425,1,0,0:0:0:0:
288,192,46587,1,0,0:0:0:80:whistle.wav
96,192,46587,1,0,0:0:0:0:
160,192,46748,1,0,0:0:0:45:hihat.wav
416,192,46748,1,0,0:0:0:0:
224,192,46909,1,0,0:0:0:80:clap.wav
480,192,46909,1,0,0:0:0:80:whistle.wav
96,192,46909,1,0,0:0:0:0:
416,192,46990,1,0,0:0:0:0:
352,192,47070,1,0,0:0:0:45:hihat.wav
160,192,47070,1,0,0:0:0:0:
288,192,47151,1,0,0:0:0:0:
96,192,47232,1,0,0:0:0:80:whistle.wav
224,192,47232,1,0,0:0:0:0:
480,192,47232,1,0,0:0:0:0:
288,192,47312,1,0,0:0:0:0:
352,192,47393,1,0,0:0:0:45:hihat.wav
160,192,47393,1,0,0:0:0:0:
416,192,47474,1,0,0:0:0:0:
480,192,47554,1,0,0:0:0:80:whistle.wav
96,192,47554,1,0,0:0:0:80:clap.wav
224,192,47635,1,0,0:0:0:0:
288,192,47716,1,0,0:0:0:45:hihat.wav
416,192,47716,1,0,0:0:0:0:
160,192,47796,1,0,0:0:0:0:
480,192,47877,1,0,0:0:0:80:whistle.wav
96,192,47877,1,0,0:0:0:0:
352,192,47877,1,0,0:0:0:0:
224,192,47958,1,0,0:0:0:0:
352,192,48038,1,0,0:0:0:45:hihat.wav
32,192,48200,1,0,0:0:0:80:whistle.wav
96,192,48200,1,0,0:0:0:80:clap.wav
480,192,48200,1,0,0:0:0:0:
224,192,48200,1,0,0:0:0:0:
352,192,48280,1,0,0:0:0:0:
480,192,48361,1,0,0:0:0:45:hihat.wav
160,192,48361,1,0,0:0:0:80:whistle.wav
288,192,48361,1,0,0:0:0:0:
352,192,48441,1,0,0:0:0:0:
224,192,48522,1,0,0:0:0:80:whistle.wav
96,192,48522,1,0,0:0:0:0:
416,192,48522,1,0,0:0:0:0:
160,192,48603,1,0,0:0:0:0:
288,192,48683,1,0,0:0:0:45:hihat.wav
480,192,48845,1,0,0:0:0:80:clap.wav
96,192,48845,1,0,0:0:0:80:whistle.wav
352,192,48845,1,0,0:0:0:0:
224,192,48925,1,0,0:0:0:0:
160,192,49006,1,0,0:0:0:45:hihat.wav
416,192,49006,1,0,0:0:0:0:
288,192,49087,1,0,0:0:0:0:
224,192,49167,1,0,0:0:0:80:whistle.wav
480,192,49167,1,0,0:0:0:0:
96,192,49167,1,0,0:0:0:0:
352,192,49248,1,0,0:0:0:0:
416,192,49329,1,0,0:0:0:45:hihat.wav
160,192,49329,1,0,0:0:0:0:
96,192,49490,1,0,0:0:0:80:clap.wav
288,192,49490,1,0,0:0:0:80:whistle.wav
480,192,49490,1,0,0:0:0:0:
416,192,49570,1,0,0:0:0:0:
352,192,49651,1,0,0:0:0:45:hihat.wav
288,192,49732,1,0,0:0:0:0:
224,192,49812,1,0,0:0:0:80:whistle.wav
96,192,49812,1,0,0:0:0:0:
480,192,49812,1,0,0:0:0:0:
288,192,49893,1,0,0:0:0:0:
352,192,49974,1,0,0:0:0:45:hihat.wav
416,192,49974,1,0,0:0:0:0:
96,192,50135,1,0,0:0:0:80:whistle.wav
224,192,50135,1,0,0:0:0:80:clap.wav
480,192,50135,1,0,0:0:0:0:
416,192,50216,1,0,0:0:0:0:
352,192,50296,1,0,0:0:0:45:hihat.wav
160,192,50296,1,0,0:0:0:0:
96,192,50458,1,0,0:0:0:80:whistle.wav
288,192,50458,1,0,0:0:0:0:
416,192,50458,1,0,0:0:0:0:
160,192,50619,1,0,0:0:0:45:hihat.wav
352,192,50619,1,0,0:0:0:80:whistle.wav
480,192,50619,1,0,0:0:0:0:
32,192,50780,1,0,0:0:0:80:whistle.wav
96,192,50780,1,0,0:0:0:80:clap.wav
224,192,50780,1,0,0:0:0:0:
416,192,50780,1,0,0:0:0:0:
224,192,51103,1,0,0:0:0:80:whistle.wav
352,192,51183,1,0,0:0:0:80:whistle.wav
224,192,51264,1,0,0:0:0:80:whistle.wav
352,192,51345,1,0,0:0:0:80:whistle.wav
32,192,51425,1,0,0:0:0:80:whistle.wav
224,192,51425,1,0,0:0:0:80:clap.wav
480,192,51425,1,0,0:0:0:65:finish.wav
96,192,51425,1,0,0:0:0:0:
160,192,51587,1,0,0:0:0:45:hihat.wav
416,192,51587,1,0,0:0:0:0:
288,192,51748,1,0,0:0:0:80:whistle.wav
96,192,51748,1,0,0:0:0:0:
480,192,51748,1,0,0:0:0:0:
352,192,51829,1,0,0:0:0:0:
416,192,51909,1,0,0:0:0:45:hihat.wav
224,192,51909,1,0,0:0:0:0:
96,192,52070,1,0,0:0:0:80:whistle.wav
480,192,52070,1,0,0:0:0:80:clap.wav
224,192,52070,1,0,0:0:0:0:
352,192,52151,1,0,0:0:0:0:
160,192,52232,1,0,0:0:0:45:hihat.wav
288,192,52232,1,0,0:0:0:0:
96,192,52393,1,0,0:0:0:80:whistle.wav
480,192,52393,1,0,0:0:0:0:
352,192,52393,1,0,0:0:0:0:
160,192,52474,1,0,0:0:0:0:
224,192,52554,1,0,0:0:0:45:hihat.wav
416,192,52554,1,0,0:0:0:0:
352,192,52716,1,0,0:0:0:80:clap.wav
96,192,52716,1,0,0:0:0:80:whistle.wav
480,192,52716,1,0,0:0:0:0:
224,192,52796,1,0,0:0:0:0:
352,192,52877,1,0,0:0:0:45:hihat.wav
416,192,52877,1,0,0:0:0:0:
96,192,53038,1,0,0:0:0:80:whistle.wav
288,192,53038,1,0,0:0:0:0:
480,192,53038,1,0,0:0:0:0:
224,192,53119,1,0,0:0:0:0:
160,192,53200,1,0,0:0:0:45:hihat.wav
32,192,53361,1,0,0:0:0:80:clap.wav
96,192,53361,1,0,0:0:0:80:whistle.wav
224,192,53361,1,0,0:0:0:0:
352,192,53361,1,0,0:0:0:0:
160,192,53522,1,0,0:0:0:45:hihat.wav
288,192,53522,1,0,0:0:0:80:whistle.wav
416,192,53522,1,0,0:0:0:0:
32,192,53683,1,0,0:0:0:80:whistle.wav
352,192,53683,1,0,0:0:0:65:finish.wav
480,192,53683,1,0,0:0:0:0:
96,192,53683,1,0,0:0:0:0:
160,192,53764,1,0,0:0:0:0:
224,192,53845,1,0,0:0:0:45:hihat.wav
352,192,54006,1,0,0:0:0:80:whistle.wav
96,192,54006,1,0,0:0:0:80:clap.wav
480,192,54006,1,0,0:0:0:0:
288,192,54087,1,0,0:0:0:0:
160,192,54167,1,0,0:0:0:45:hihat.wav
32,192,54329,1,0,0:0:0:80:whistle.wav
96,192,54329,1,0,0:0:0:65:finish.wav
480,192,54329,1,0,0:0:0:0:
352,192,54329,1,0,0:0:0:0:
288,192,54409,1,0,0:0:0:0:
160,192,54490,1,0,0:0:0:45:hihat.wav
288,192,54570,1,0,0:0:0:0:
352,192,54651,1,0,0:0:0:80:whistle.wav
480,192,54651,1,0,0:0:0:80:clap.wav
96,192,54651,1,0,0:0:0:0:
288,192,54732,1,0,0:0:0:0:
224,192,54812,1,0,0:0:0:45:hihat.wav
160,192,54893,1,0,0:0:0:0:
32,192,54974,1,0,0:0:0:80:whistle.wav
96,192,54974,1,0,0:0:0:0:
480,192,54974,1,0,0:0:0:0:
352,192,54974,1,0,0:0:0:0:
32,192,55135,1,0,0:0:0:80:whistle.wav
160,192,55135,1,0,0:0:0:0:
288,192,55135,1,0,0:0:0:0:
416,192,55135,1,0,0:0:0:0:
32,192,55296,1,0,0:0:0:80:whistle.wav
96,192,55296,1,0,0:0:0:0:
224,192,55296,1,0,0:0:0:0:
352,192,55296,1,0,0:0:0:0:
32,192,55458,1,0,0:0:0:80:whistle.wav
160,192,55458,1,0,0:0:0:0:
416,192,55458,1,0,0:0:0:0:
288,192,55458,1,0,0:0:0:0:
32,192,55619,1,0,0:0:0:80:whistle.wav
224,192,55619,1,0,0:0:0:0:
352,192,55619,1,0,0:0:0:0:
480,192,55619,1,0,0:0:0:0:
32,192,55780,1,0,0:0:0:80:whistle.wav
416,192,55780,1,0,0:0:0:0:
96,192,55780,1,0,0:0:0:0:
288,192,55780,1,0,0:0:0:0:
32,192,55941,1,0,0:0:0:80:whistle.wav
160,192,55941,1,0,0:0:0:80:clap.wav
352,192,55941,1,0,0:0:0:0:
480,192,55941,1,0,0:0:0:0:
416,192,56103,1,0,0:0:0:0:
224,192,56103,1,0,0:0:0:0:
32,192,56264,1,0,0:0:0:65:finish.wav
96,192,56264,1,0,0:0:0:80:whistle.wav
288,192,56264,1,0,0:0:0:0:
480,192,56264,1,0,0:0:0:0:
160,192,56345,1,0,0:0:0:0:
352,192,56425,1,0,0:0:0:45:hihat.wav
160,192,56506,1,0,0:0:0:0:
352,192,56587,1,0,0:0:0:80:clap.wav
96,192,56587,1,0,0:0:0:80:whistle.wav
480,192,56587,1,0,0:0:0:0:
224,192,56748,1,0,0:0:0:45:hihat.wav
288,192,56748,1,0,0:0:0:0:
416,192,56829,1,0,0:0:0:0:
96,192,56909,1,0,0:0:0:80:whistle.wav
352,192,56909,1,0,0:0:0:0:
288,192,56990,1,0,0:0:0:0:
480,192,57070,1,0,0:0:0:45:hihat.wav
352,192,57070,1,0,0:0:0:0:
96,192,57232,1,0,0:0:0:80:clap.wav
416,192,57232,1,0,0:0:0:80:whistle.wav
224,192,57232,1,0,0:0:0:0:
288,192,57393,1,0,0:0:0:45:hihat.wav
160,192,57393,1,0,0:0:0:0:
96,192,57554,1,0,0:0:0:80:whistle.wav
480,192,57554,1,0,0:0:0:0:
224,192,57635,1,0,0:0:0:0:
480,192,57716,1,0,0:0:0:45:hihat.wav
352,192,57716,1,0,0:0:0:0:
224,192,57796,1,0,0:0:0:0:
480,192,57877,1,0,0:0:0:80:whistle.wav
96,192,57877,1,0,0:0:0:80:clap.wav
288,192,57877,1,0,0:0:0:0:
352,192,58038,1,0,0:0:0:45:hihat.wav
160,192,58038,1,0,0:0:0:0:
224,192,58119,1,0,0:0:0:0:
96,192,58200,1,0,0:0:0:0:
480,192,58200,1,0,0:0:0:0:
224,192,58280,1,0,0:0:0:0:
352,192,58361,1,0,0:0:0:45:hihat.wav
416,192,58361,1,0,0:0:0:0:
96,192,58522,1,0,0:0:0:80:clap.wav
480,192,58522,1,0,0:0:0:0:
288,192,58522,1,0,0:0:0:0:
352,192,58603,1,0,0:0:0:0:
224,192,58683,1,0,0:0:0:45:hihat.wav
416,192,58683,1,0,0:0:0:0:
96,192,58845,1,0,0:0:0:80:whistle.wav
480,192,58845,1,0,0:0:0:0:
352,192,58845,1,0,0:0:0:0:
288,192,58925,1,0,0:0:0:0:
160,192,59006,1,0,0:0:0:45:hihat.wav
416,192,59006,1,0,0:0:0:0:
96,192,59167,1,0,0:0:0:80:clap.wav
352,192,59167,1,0,0:0:0:80:whistle.wav
480,192,59167,1,0,0:0:0:0:
288,192,59248,1,0,0:0:0:0:
160,192,59329,1,0,0:0:0:45:hihat.wav
416,192,59329,1,0,0:0:0:0:
288,192,59409,1,0,0:0:0:0:
96,192,59490,1,0,0:0:0:80:whistle.wav
224,192,59490,1,0,0:0:0:0:
480,192,59490,1,0,0:0:0:0:
416,192,59570,1,0,0:0:0:0:
352,192,59651,1,0,0:0:0:45:hihat.wav
288,192,59651,1,0,0:0:0:0:
96,192,59812,1,0,0:0:0:80:clap.wav
224,192,59812,1,0,0:0:0:80:whistle.wav
480,192,59812,1,0,0:0:0:0:
288,192,59893,1,0,0:0:0:0:
352,192,59974,1,0,0:0:0:45:hihat.wav
480,192,59974,1,0,0:0:0:0:
96,192,60135,1,0,0:0:0:80:whistle.wav
224,192,60135,1,0,0:0:0:0:
416,192,60135,1,0,0:0:0:0:
352,192,60216,1,0,0:0:0:0:
160,192,60296,1,0,0:0:0:45:hihat.wav
480,192,60296,1,0,0:0:0:0:
288,192,60377,1,0,0:0:0:0:
96,192,60458,1,0,0:0:0:80:whistle.wav
352,192,60458,1,0,0:0:0:80:clap.wav
480,192,60458,1,0,0:0:0:0:
416,192,60619,1,0,0:0:0:45:hihat.wav
160,192,60619,1,0,0:0:0:0:
352,192,60700,1,0,0:0:0:0:
96,192,60780,1,0,0:0:0:80:whistle.wav
288,192,60780,1,0,0:0:0:0:
480,192,60780,1,0,0:0:0:0:
224,192,60861,1,0,0:0:0:0:
416,192,60941,1,0,0:0:0:45:hihat.wav
160,192,60941,1,0,0:0:0:0:
288,192,61022,1,0,0:0:0:0:
224,192,61103,1,0,0:0:0:80:clap.wav
480,192,61103,1,0,0:0:0:0:
96,192,61103,1,0,0:0:0:0:
352,192,61183,1,0,0:0:0:0:
224,192,61264,1,0,0:0:0:0:
160,192,61264,1,0,0:0:0:0:
352,192,61345,1,0,0:0:0:0:
32,192,61425,1,0,0:0:0:65:finish.wav
480,192,61425,1,0,0:0:0:80:whistle.wav
96,192,61425,1,0,0:0:0:0:
224,192,61425,1,0,0:0:0:0:
160,192,61587,1,0,0:0:0:80:whistle.wav
416,192,61587,1,0,0:0:0:0:
288,192,61587,1,0,0:0:0:0:
96,192,61748,1,0,0:0:0:80:whistle.wav
480,192,61748,1,0,0:0:0:80:clap.wav
416,192,61909,1,0,0:0:0:80:whistle.wav
224,192,61909,1,0,0:0:0:0:
288,192,61909,1,0,0:0:0:0:
32,192,62070,1,0,0:0:0:80:whistle.wav
96,192,62070,1,0,0:0:0:65:finish.wav
480,192,62070,1,0,0:0:0:0:
352,192,62232,1,0,0:0:0:80:whistle.wav
224,192,62232,1,0,0:0:0:0:
160,192,62232,1,0,0:0:0:0:
96,192,62393,1,0,0:0:0:80:whistle.wav
480,192,62393,1,0,0:0:0:80:clap.wav
224,192,62554,1,0,0:0:0:80:whistle.wav
352,192,62554,1,0,0:0:0:0:
416,192,62554,1,0,0:0:0:0:
32,192,62716,1,0,0:0:0:80:whistle.wav
96,192,62716,1,0,0:0:0:65:finish.wav
480,192,62716,1,0,0:0:0:0:
160,192,62877,1,0,0:0:0:80:whistle.wav
352,192,62877,1,0,0:0:0:0:
416,192,62877,1,0,0:0:0:0:
224,192,63038,1,0,0:0:0:80:whistle.wav
480,192,63038,1,0,0:0:0:80:clap.wav
416,192,63200,1,0,0:0:0:80:whistle.wav
160,192,63200,1,0,0:0:0:0:
288,192,63200,1,0,0:0:0:0:
32,192,63361,1,0,0:0:0:65:finish.wav
224,192,63361,1,0,0:0:0:80:whistle.wav
352,192,63361,1,0,0:0:0:0:
96,192,63522,1,0,0:0:0:80:whistle.wav
480,192,63522,1,0,0:0:0:0:
288,192,63522,1,0,0:0:0:0:
224,192,63683,1,0,0:0:0:80:whistle.wav
352,192,63683,1,0,0:0:0:80:clap.wav
96,192,63845,1,0,0:0:0:80:whistle.wav
480,192,63845,1,0,0:0:0:0:
288,192,63845,1,0,0:0:0:0:
32,192,64006,1,0,0:0:0:80:whistle.wav
224,192,64006,1,0,0:0:0:80:clap.wav
352,192,64006,1,0,0:0:0:0:
160,192,64087,1,0,0:0:0:0:
416,192,64167,1,0,0:0:0:0:
32,192,64248,1,0,0:0:0:80:whistle.wav
96,192,64248,1,0,0:0:0:80:clap.wav
224,192,64248,1,0,0:0:0:0:
352,192,64329,1,0,0:0:0:0:
160,192,64409,1,0,0:0:0:0:
32,192,64490,1,0,0:0:0:80:clap.wav
352,192,64490,1,0,0:0:0:80:whistle.wav
480,192,64490,1,0,0:0:0:0:
224,192,64570,1,0,0:0:0:0:
32,192,64651,1,0,0:0:0:80:whistle.wav
416,192,64651,1,0,0:0:0:80:clap.wav
96,192,64651,1,0,0:0:0:0:
288,192,64732,1,0,0:0:0:0:
160,192,64812,1,0,0:0:0:0:
32,192,64893,1,0,0:0:0:80:whistle.wav
352,192,64893,1,0,0:0:0:80:clap.wav
480,192,64893,1,0,0:0:0:0:
224,192,64974,1,0,0:0:0:0:
416,192,65054,1,0,0:0:0:0:
32,192,65135,1,0,0:0:0:80:whistle.wav
96,192,65135,1,0,0:0:0:80:clap.wav
480,192,65135,1,0,0:0:0:0:
288,192,65216,1,0,0:0:0:0:
32,192,65296,1,0,0:0:0:80:whistle.wav
416,192,65296,1,0,0:0:0:80:clap.wav
96,192,65296,1,0,0:0:0:0:
352,192,65377,1,0,0:0:0:0:
160,192,65458,1,0,0:0:0:0:
224,192,65458,1,0,0:0:0:0:
480,192,65538,1,0,0:0:0:0:
32,192,65619,1,0,0:0:0:80:whistle.wav
288,192,65619,1,0,0:0:0:80:clap.wav
96,192,65619,1,0,0:0:0:0:
416,192,65700,1,0,0:0:0:0:
224,192,65780,1,0,0:0:0:0:
160,192,65780,1,0,0:0:0:0:
352,192,65861,1,0,0:0:0:0:
96,192,65941,1,0,0:0:0:80:whistle.wav
32,192,65941,1,0,0:0:0:0:
480,192,65941,1,0,0:0:0:0:
416,192,66022,1,0,0:0:0:80:whistle.wav
224,192,66022,1,0,0:0:0:0:
96,192,66103,1,0,0:0:0:80:whistle.wav
352,192,66103,1,0,0:0:0:0:
416,192,66183,1,0,0:0:0:80:whistle.wav
224,192,66183,1,0,0:0:0:0:
96,192,66264,1,0,0:0:0:80:whistle.wav
480,192,66264,1,0,0:0:0:0:
352,192,66345,1,0,0:0:0:80:whistle.wav
160,192,66345,1,0,0:0:0:0:
224,192,66425,1,0,0:0:0:80:whistle.wav
480,192,66425,1,0,0:0:0:0:
352,192,66506,1,0,0:0:0:80:whistle.wav
160,192,66506,1,0,0:0:0:0:
96,192,66587,1,0,0:0:0:45:cym.wav
480,192,66587,1,0,0:0:0:0:
416,192,66587,1,0,0:0:0:0:
32,192,66587,1,0,0:0:0:0:
224,192,66587,1,0,0:0:0:0:
96,192,68522,1,0,0:0:0:0:
224,192,68683,1,0,0:0:0:0:
352,192,68845,1,0,0:0:0:0:
224,192,69006,1,0,0:0:0:0:
96,192,69167,1,0,0:0:0:0:
480,192,69167,1,0,0:0:0:0:
480,192,69812,1,0,0:0:0:0:
352,192,69974,1,0,0:0:0:0:
288,192,70135,1,0,0:0:0:0:
160,192,70296,1,0,0:0:0:0:
96,192,70458,1,0,0:0:0:0:
480,192,70458,1,0,0:0:0:0:
96,192,71103,1,0,0:0:0:0:
352,192,71264,1,0,0:0:0:0:
160,192,71425,1,0,0:0:0:0:
416,192,71587,1,0,0:0:0:0:
96,192,71748,1,0,0:0:0:0:
288,192,71748,1,0,0:0:0:0:
480,192,71909,1,0,0:0:0:0:
224,192,72070,1,0,0:0:0:0:
416,192,72232,1,0,0:0:0:0:
160,192,72393,1,0,0:0:0:0:
352,192,72554,1,0,0:0:0:0:
288,192,72716,1,0,0:0:0:0:
224,192,72877,1,0,0:0:0:0:
160,192,73038,1,0,0:0:0:0:
480,192,73038,1,0,0:0:0:0:
96,192,73683,1,0,0:0:0:0:
160,192,73845,1,0,0:0:0:0:
288,192,74006,1,0,0:0:0:0:
416,192,74167,1,0,0:0:0:0:
480,192,74329,1,0,0:0:0:0:
96,192,74329,1,0,0:0:0:0:
480,192,74974,1,0,0:0:0:0:
352,192,75135,1,0,0:0:0:0:
224,192,75296,1,0,0:0:0:0:
96,192,75458,1,0,0:0:0:0:
224,192,75619,1,0,0:0:0:0:
480,192,75619,1,0,0:0:0:0:
96,192,76264,1,0,0:0:0:0:
224,192,76425,1,0,0:0:0:0:
352,192,76587,1,0,0:0:0:0:
224,192,76748,1,0,0:0:0:0:
96,192,76909,1,0,0:0:0:0:
480,192,76909,1,0,0:0:0:0:
416,192,77070,1,0,0:0:0:0:
160,192,77232,1,0,0:0:0:0:
352,192,77393,1,0,0:0:0:0:
224,192,77554,1,0,0:0:0:0:
416,192,77716,1,0,0:0:0:0:
288,192,77877,1,0,0:0:0:0:
352,192,78038,1,0,0:0:0:0:
416,192,78200,1,0,0:0:0:0:
96,192,78200,1,0,0:0:0:0:
32,192,79167,1,0,0:0:0:80:clap.wav
96,192,79167,1,0,0:0:0:0:
480,192,79167,1,0,0:0:0:0:
32,192,79490,1,0,0:0:0:65:finish.wav
96,192,79490,1,0,0:0:0:80:clap.wav
480,192,79490,1,0,0:0:0:0:
224,192,79490,1,0,0:0:0:0:
416,192,79570,1,0,0:0:0:0:
352,192,79651,1,0,0:0:0:0:
480,192,79812,1,0,0:0:0:80:clap.wav
96,192,79812,1,0,0:0:0:0:
160,192,79974,1,0,0:0:0:0:
352,192,79974,1,0,0:0:0:0:
416,192,80054,1,0,0:0:0:0:
96,192,80135,1,0,0:0:0:80:clap.wav
288,192,80135,1,0,0:0:0:0:
480,192,80135,1,0,0:0:0:0:
224,192,80216,1,0,0:0:0:0:
352,192,80296,1,0,0:0:0:0:
288,192,80377,1,0,0:0:0:0:
96,192,80458,1,0,0:0:0:80:clap.wav
480,192,80458,1,0,0:0:0:0:
416,192,80538,1,0,0:0:0:0:
288,192,80619,1,0,0:0:0:0:
160,192,80700,1,0,0:0:0:0:
480,192,80780,1,0,0:0:0:80:clap.wav
96,192,80780,1,0,0:0:0:0:
352,192,80780,1,0,0:0:0:0:
288,192,80861,1,0,0:0:0:0:
160,192,80941,1,0,0:0:0:0:
96,192,81103,1,0,0:0:0:80:clap.wav
480,192,81103,1,0,0:0:0:0:
160,192,81264,1,0,0:0:0:0:
288,192,81264,1,0,0:0:0:0:
352,192,81345,1,0,0:0:0:0:
96,192,81425,1,0,0:0:0:80:clap.wav
480,192,81425,1,0,0:0:0:0:
224,192,81425,1,0,0:0:0:0:
352,192,81506,1,0,0:0:0:0:
416,192,81587,1,0,0:0:0:0:
288,192,81667,1,0,0:0:0:0:
352,192,81748,1,0,0:0:0:80:clap.wav
96,192,81748,1,0,0:0:0:0:
224,192,81829,1,0,0:0:0:0:
352,192,81909,1,0,0:0:0:0:
416,192,81990,1,0,0:0:0:0:
96,192,82070,1,0,0:0:0:80:clap.wav
224,192,82070,1,0,0:0:0:0:
480,192,82070,1,0,0:0:0:0:
160,192,82232,1,0,0:0:0:0:
288,192,82312,1,0,0:0:0:0:
96,192,82393,1,0,0:0:0:80:clap.wav
480,192,82393,1,0,0:0:0:0:
352,192,82554,1,0,0:0:0:0:
224,192,82554,1,0,0:0:0:0:
96,192,82716,1,0,0:0:0:80:clap.wav
288,192,82716,1,0,0:0:0:0:
480,192,82716,1,0,0:0:0:0:
416,192,82796,1,0,0:0:0:0:
96,192,83038,1,0,0:0:0:80:clap.wav
480,192,83038,1,0,0:0:0:0:
352,192,83038,1,0,0:0:0:0:
224,192,83119,1,0,0:0:0:0:
352,192,83200,1,0,0:0:0:0:
224,192,83280,1,0,0:0:0:0:
96,192,83361,1,0,0:0:0:80:clap.wav
480,192,83361,1,0,0:0:0:0:
288,192,83361,1,0,0:0:0:0:
224,192,83603,1,0,0:0:0:0:
416,192,83683,1,0,0:0:0:80:clap.wav
96,192,83683,1,0,0:0:0:0:
288,192,83845,1,0,0:0:0:0:
96,192,84006,1,0,0:0:0:80:clap.wav
480,192,84006,1,0,0:0:0:0:
352,192,84006,1,0,0:0:0:0:
224,192,84087,1,0,0:0:0:0:
416,192,84167,1,0,0:0:0:0:
480,192,84329,1,0,0:0:0:80:clap.wav
96,192,84329,1,0,0:0:0:0:
288,192,84409,1,0,0:0:0:0:
416,192,84490,1,0,0:0:0:0:
288,192,84570,1,0,0:0:0:0:
32,192,84651,1,0,0:0:0:65:finish.wav
96,192,84651,1,0,0:0:0:80:clap.wav
224,192,84651,1,0,0:0:0:80:whistle.wav
480,192,84651,1,0,0:0:0:0:
352,192,84732,1,0,0:0:0:0:
416,192,84812,1,0,0:0:0:80:whistle.wav
160,192,84812,1,0,0:0:0:0:
96,192,84974,1,0,0:0:0:80:whistle.wav
480,192,84974,1,0,0:0:0:0:
160,192,85135,1,0,0:0:0:80:whistle.wav
352,192,85135,1,0,0:0:0:0:
288,192,85216,1,0,0:0:0:0:
32,192,85296,1,0,0:0:0:80:whistle.wav
96,192,85296,1,0,0:0:0:65:finish.wav
480,192,85296,1,0,0:0:0:0:
224,192,85296,1,0,0:0:0:0:
352,192,85377,1,0,0:0:0:0:
160,192,85458,1,0,0:0:0:80:whistle.wav
288,192,85458,1,0,0:0:0:0:
96,192,85619,1,0,0:0:0:80:whistle.wav
416,192,85619,1,0,0:0:0:0:
224,192,85619,1,0,0:0:0:0:
288,192,85700,1,0,0:0:0:0:
224,192,85780,1,0,0:0:0:80:whistle.wav
416,192,85780,1,0,0:0:0:0:
160,192,85861,1,0,0:0:0:80:whistle.wav
352,192,85861,1,0,0:0:0:0:
32,192,85941,1,0,0:0:0:80:whistle.wav
288,192,85941,1,0,0:0:0:65:finish.wav
96,192,85941,1,0,0:0:0:0:
480,192,85941,1,0,0:0:0:0:
224,192,86022,1,0,0:0:0:0:
288,192,86103,1,0,0:0:0:80:whistle.wav
96,192,86103,1,0,0:0:0:0:
352,192,86183,1,0,0:0:0:0:
96,192,86264,1,0,0:0:0:80:whistle.wav
480,192,86264,1,0,0:0:0:0:
224,192,86425,1,0,0:0:0:80:whistle.wav
96,192,86425,1,0,0:0:0:0:
352,192,86506,1,0,0:0:0:0:
32,192,86587,1,0,0:0:0:80:whistle.wav
480,192,86587,1,0,0:0:0:65:finish.wav
96,192,86587,1,0,0:0:0:0:
224,192,86667,1,0,0:0:0:0:
96,192,86748,1,0,0:0:0:80:whistle.wav
416,192,86748,1,0,0:0:0:0:
96,192,86909,1,0,0:0:0:80:whistle.wav
480,192,86909,1,0,0:0:0:0:
288,192,86990,1,0,0:0:0:0:
96,192,87070,1,0,0:0:0:80:whistle.wav
416,192,87070,1,0,0:0:0:0:
352,192,87151,1,0,0:0:0:0:
224,192,87151,1,0,0:0:0:0:
480,192,87232,1,0,0:0:0:80:whistle.wav
96,192,87232,1,0,0:0:0:0:
224,192,87312,1,0,0:0:0:80:whistle.wav
416,192,87312,1,0,0:0:0:0:
352,192,87393,1,0,0:0:0:80:whistle.wav
160,192,87393,1,0,0:0:0:0:
480,192,87474,1,0,0:0:0:80:whistle.wav
288,192,87474,1,0,0:0:0:0:
96,192,87554,1,0,0:0:0:80:whistle.wav
416,192,87554,1,0,0:0:0:0:
224,192,87635,1,0,0:0:0:80:whistle.wav
352,192,87635,1,0,0:0:0:0:
96,192,87716,1,0,0:0:0:80:whistle.wav
416,192,87716,1,0,0:0:0:0:
480,192,87796,1,0,0:0:0:80:whistle.wav
224,192,87796,1,0,0:0:0:0:
96,192,87877,1,0,0:0:0:80:whistle.wav
352,192,87877,1,0,0:0:0:0:
288,192,87958,1,0,0:0:0:80:whistle.wav
416,192,87958,1,0,0:0:0:0:
352,192,88038,1,0,0:0:0:80:whistle.wav
160,192,88038,1,0,0:0:0:0:
480,192,88119,1,0,0:0:0:80:whistle.wav
224,192,88119,1,0,0:0:0:0:
32,192,88200,128,0,88522:0:0:0:80:whistle.wav
96,192,88200,1,0,0:0:0:0:
416,192,88200,1,0,0:0:0:0:
480,192,88522,1,0,0:0:0:0:
96,192,88522,1,0,0:0:0:0:
32,192,88845,1,0,0:0:0:0:
32,192,89167,1,0,0:0:0:80:clap.wav
224,192,89167,1,0,0:0:0:0:
352,192,89248,1,0,0:0:0:80:clap.wav
32,192,89329,1,0,0:0:0:80:clap.wav
224,192,89329,1,0,0:0:0:0:
352,192,89409,1,0,0:0:0:80:clap.wav
32,192,89490,1,0,0:0:0:80:clap.wav
224,192,89490,1,0,0:0:0:80:whistle.wav
480,192,89490,1,0,0:0:0:0:
96,192,89490,1,0,0:0:0:0:
32,192,89812,1,0,0:0:0:65:finish.wav
160,192,89812,1,0,0:0:0:80:whistle.wav
288,192,89812,1,0,0:0:0:0:
416,192,89812,1,0,0:0:0:0:
224,192,89893,1,0,0:0:0:0:
352,192,89974,1,0,0:0:0:45:hihat.wav
480,192,90054,1,0,0:0:0:0:
416,192,90135,1,0,0:0:0:80:whistle.wav
224,192,90135,1,0,0:0:0:80:clap.wav
96,192,90135,1,0,0:0:0:0:
352,192,90296,1,0,0:0:0:45:hihat.wav
224,192,90377,1,0,0:0:0:0:
96,192,90458,1,0,0:0:0:80:whistle.wav
288,192,90458,1,0,0:0:0:0:
224,192,90619,1,0,0:0:0:45:hihat.wav
288,192,90700,1,0,0:0:0:0:
352,192,90780,1,0,0:0:0:80:whistle.wav
96,192,90780,1,0,0:0:0:80:clap.wav
480,192,90780,1,0,0:0:0:0:
288,192,90861,1,0,0:0:0:0:
224,192,90941,1,0,0:0:0:45:hihat.wav
160,192,91022,1,0,0:0:0:0:
96,192,91103,1,0,0:0:0:80:whistle.wav
480,192,91103,1,0,0:0:0:0:
352,192,91103,1,0,0:0:0:0:
224,192,91183,1,0,0:0:0:0:
352,192,91264,1,0,0:0:0:45:hihat.wav
96,192,91425,1,0,0:0:0:80:whistle.wav
224,192,91425,1,0,0:0:0:80:clap.wav
416,192,91425,1,0,0:0:0:0:
160,192,91587,1,0,0:0:0:45:hihat.wav
352,192,91587,1,0,0:0:0:0:
224,192,91667,1,0,0:0:0:0:
416,192,91667,1,0,0:0:0:0:
480,192,91748,1,0,0:0:0:80:whistle.wav
96,192,91748,1,0,0:0:0:0:
288,192,91829,1,0,0:0:0:0:
416,192,91909,1,0,0:0:0:45:hihat.wav
288,192,91990,1,0,0:0:0:0:
352,192,92070,1,0,0:0:0:80:whistle.wav
96,192,92070,1,0,0:0:0:80:clap.wav
224,192,92070,1,0,0:0:0:30:drum.wav
480,192,92070,1,0,0:0:0:0:
416,192,92151,1,0,0:0:0:0:
288,192,92232,1,0,0:0:0:45:hihat.wav
416,192,92312,1,0,0:0:0:0:
352,192,92393,1,0,0:0:0:80:whistle.wav
480,192,92393,1,0,0:0:0:0:
96,192,92393,1,0,0:0:0:0:
160,192,92554,1,0,0:0:0:45:hihat.wav
288,192,92635,1,0,0:0:0:0:
96,192,92716,1,0,0:0:0:80:clap.wav
224,192,92716,1,0,0:0:0:80:whistle.wav
480,192,92716,1,0,0:0:0:0:
160,192,92877,1,0,0:0:0:45:hihat.wav
416,192,92877,1,0,0:0:0:0:
96,192,93038,1,0,0:0:0:80:whistle.wav
352,192,93038,1,0,0:0:0:0:
416,192,93119,1,0,0:0:0:0:
160,192,93119,1,0,0:0:0:0:
480,192,93200,1,0,0:0:0:45:hihat.wav
352,192,93280,1,0,0:0:0:0:
224,192,93361,1,0,0:0:0:80:clap.wav
96,192,93361,1,0,0:0:0:80:whistle.wav
480,192,93361,1,0,0:0:0:0:
160,192,93522,1,0,0:0:0:45:hihat.wav
416,192,93522,1,0,0:0:0:0:
224,192,93603,1,0,0:0:0:0:
480,192,93603,1,0,0:0:0:0:
96,192,93683,1,0,0:0:0:80:whistle.wav
416,192,93683,1,0,0:0:0:0:
288,192,93764,1,0,0:0:0:0:
480,192,93845,1,0,0:0:0:45:hihat.wav
160,192,93845,1,0,0:0:0:0:
352,192,93845,1,0,0:0:0:0:
224,192,93925,1,0,0:0:0:0:
416,192,93925,1,0,0:0:0:0:
96,192,94006,1,0,0:0:0:80:whistle.wav
480,192,94006,1,0,0:0:0:80:clap.wav
288,192,94006,1,0,0:0:0:0:
352,192,94087,1,0,0:0:0:0:
160,192,94167,1,0,0:0:0:45:hihat.wav
288,192,94167,1,0,0:0:0:0:
96,192,94329,1,0,0:0:0:80:whistle.wav
480,192,94329,1,0,0:0:0:0:
224,192,94409,1,0,0:0:0:0:
352,192,94490,1,0,0:0:0:45:hihat.wav
96,192,94490,1,0,0:0:0:30:drum.wav
480,192,94490,1,0,0:0:0:0:
224,192,94570,1,0,0:0:0:0:
416,192,94570,1,0,0:0:0:0:
96,192,94651,1,0,0:0:0:80:whistle.wav
480,192,94651,1,0,0:0:0:80:clap.wav
288,192,94651,1,0,0:0:0:30:drum.wav
160,192,94651,1,0,0:0:0:0:
352,192,94732,1,0,0:0:0:0:
416,192,94812,1,0,0:0:0:80:whistle.wav
224,192,94812,1,0,0:0:0:0:
160,192,94893,1,0,0:0:0:0:
32,192,94974,1,0,0:0:0:65:finish.wav
96,192,94974,1,0,0:0:0:80:whistle.wav
480,192,94974,1,0,0:0:0:0:
224,192,94974,1,0,0:0:0:0:
352,192,94974,1,0,0:0:0:0:
288,192,95054,1,0,0:0:0:0:
224,192,95135,1,0,0:0:0:45:hihat.wav
416,192,95135,1,0,0:0:0:0:
96,192,95296,1,0,0:0:0:80:clap.wav
480,192,95296,1,0,0:0:0:80:whistle.wav
288,192,95296,1,0,0:0:0:0:
160,192,95458,1,0,0:0:0:45:hihat.wav
352,192,95458,1,0,0:0:0:0:
224,192,95538,1,0,0:0:0:0:
416,192,95538,1,0,0:0:0:0:
480,192,95619,1,0,0:0:0:80:whistle.wav
96,192,95619,1,0,0:0:0:0:
352,192,95700,1,0,0:0:0:0:
224,192,95780,1,0,0:0:0:45:hihat.wav
416,192,95861,1,0,0:0:0:0:
160,192,95941,1,0,0:0:0:80:clap.wav
96,192,95941,1,0,0:0:0:80:whistle.wav
288,192,95941,1,0,0:0:0:30:drum.wav
480,192,95941,1,0,0:0:0:0:
416,192,96022,1,0,0:0:0:0:
160,192,96103,1,0,0:0:0:45:hihat.wav
288,192,96183,1,0,0:0:0:0:
32,192,96264,1,0,0:0:0:80:whistle.wav
96,192,96264,1,0,0:0:0:65:finish.wav
224,192,96264,1,0,0:0:0:0:
352,192,96264,1,0,0:0:0:0:
480,192,96264,1,0,0:0:0:0:
288,192,96345,1,0,0:0:0:0:
416,192,96425,1,0,0:0:0:45:hihat.wav
160,192,96425,1,0,0:0:0:0:
96,192,96587,1,0,0:0:0:80:whistle.wav
224,192,96587,1,0,0:0:0:80:clap.wav
480,192,96587,1,0,0:0:0:0:
480,192,96748,1,0,0:0:0:45:hihat.wav
352,192,96829,1,0,0:0:0:0:
224,192,96909,1,0,0:0:0:80:whistle.wav
96,192,96909,1,0,0:0:0:0:
352,192,96990,1,0,0:0:0:0:
480,192,97070,1,0,0:0:0:45:hihat.wav
96,192,97070,1,0,0:0:0:30:drum.wav
224,192,97151,1,0,0:0:0:30:drum.wav
352,192,97151,1,0,0:0:0:0:
96,192,97232,1,0,0:0:0:80:whistle.wav
480,192,97232,1,0,0:0:0:80:clap.wav
288,192,97232,1,0,0:0:0:0:
416,192,97312,1,0,0:0:0:0:
352,192,97393,1,0,0:0:0:45:hihat.wav
288,192,97474,1,0,0:0:0:0:
32,192,97554,1,0,0:0:0:65:finish.wav
224,192,97554,1,0,0:0:0:80:whistle.wav
96,192,97554,1,0,0:0:0:0:
480,192,97554,1,0,0:0:0:0:
160,192,97716,1,0,0:0:0:30:drum.wav
352,192,97716,1,0,0:0:0:0:
32,192,97796,1,0,0:0:0:80:whistle.wav
96,192,97796,1,0,0:0:0:65:finish.wav
480,192,97796,1,0,0:0:0:0:
288,192,97796,1,0,0:0:0:0:
32,192,98038,1,0,0:0:0:80:whistle.wav
96,192,98038,1,0,0:0:0:65:finish.wav
224,192,98038,1,0,0:0:0:0:
352,192,98038,1,0,0:0:0:0:
480,192,98038,1,0,0:0:0:0:
96,192,98200,1,0,0:0:0:80:whistle.wav
480,192,98200,1,0,0:0:0:0:
160,192,98280,1,0,0:0:0:80:whistle.wav
416,192,98280,1,0,0:0:0:0:
224,192,98361,1,0,0:0:0:30:drum.wav
352,192,98361,1,0,0:0:0:80:whistle.wav
96,192,98441,1,0,0:0:0:80:whistle.wav
480,192,98441,1,0,0:0:0:0:
288,192,98441,1,0,0:0:0:0:
224,192,98522,1,0,0:0:0:80:whistle.wav
352,192,98522,1,0,0:0:0:0:
160,192,98603,1,0,0:0:0:80:whistle.wav
416,192,98603,1,0,0:0:0:0:
96,192,98683,1,0,0:0:0:80:whistle.wav
480,192,98683,1,0,0:0:0:0:
224,192,98724,1,0,0:0:0:0:
352,192,98764,1,0,0:0:0:80:whistle.wav
480,192,98804,1,0,0:0:0:0:
32,192,99006,1,0,0:0:0:65:finish.wav
96,192,99006,1,0,0:0:0:80:whistle.wav
224,192,99006,1,0,0:0:0:0:
352,192,99006,1,0,0:0:0:0:
32,192,99248,1,0,0:0:0:65:finish.wav
160,192,99248,1,0,0:0:0:80:whistle.wav
288,192,99248,1,0,0:0:0:0:
416,192,99248,1,0,0:0:0:0:
32,192,99490,1,0,0:0:0:80:whistle.wav
352,192,99490,1,0,0:0:0:65:finish.wav
224,192,99490,1,0,0:0:0:0:
96,192,99490,1,0,0:0:0:0:
32,192,99732,1,0,0:0:0:65:finish.wav
96,192,99732,1,0,0:0:0:80:whistle.wav
224,192,99732,1,0,0:0:0:80:clap.wav
416,192,99732,1,0,0:0:0:0:
32,192,100135,1,0,0:0:0:80:whistle.wav
96,192,100135,1,0,0:0:0:65:finish.wav
288,192,100135,1,0,0:0:0:0:
480,192,100135,1,0,0:0:0:0:
416,192,100216,1,0,0:0:0:0:
224,192,100296,1,0,0:0:0:45:hihat.wav
352,192,100296,1,0,0:0:0:0:
96,192,100458,1,0,0:0:0:80:clap.wav
288,192,100458,1,0,0:0:0:80:whistle.wav
480,192,100458,1,0,0:0:0:0:
416,192,100458,1,0,0:0:0:0:
160,192,100619,1,0,0:0:0:45:hihat.wav
352,192,100700,1,0,0:0:0:0:
224,192,100780,1,0,0:0:0:80:whistle.wav
480,192,100780,1,0,0:0:0:0:
96,192,100780,1,0,0:0:0:0:
416,192,100861,1,0,0:0:0:0:
352,192,100941,1,0,0:0:0:45:hihat.wav
288,192,101022,1,0,0:0:0:0:
224,192,101103,1,0,0:0:0:80:clap.wav
96,192,101103,1,0,0:0:0:80:whistle.wav
480,192,101103,1,0,0:0:0:0:
352,192,101103,1,0,0:0:0:0:
416,192,101183,1,0,0:0:0:0:
288,192,101264,1,0,0:0:0:45:hihat.wav
416,192,101345,1,0,0:0:0:0:
288,192,101425,1,0,0:0:0:80:whistle.wav
96,192,101425,1,0,0:0:0:0:
480,192,101425,1,0,0:0:0:0:
352,192,101506,1,0,0:0:0:0:
224,192,101587,1,0,0:0:0:45:hihat.wav
96,192,101748,1,0,0:0:0:80:whistle.wav
352,192,101748,1,0,0:0:0:80:clap.wav
480,192,101748,1,0,0:0:0:0:
160,192,101748,1,0,0:0:0:0:
160,192,101909,1,0,0:0:0:45:hihat.wav
288,192,101990,1,0,0:0:0:0:
96,192,102070,1,0,0:0:0:80:whistle.wav
480,192,102070,1,0,0:0:0:0:
224,192,102070,1,0,0:0:0:0:
416,192,102151,1,0,0:0:0:0:
288,192,102232,1,0,0:0:0:45:hihat.wav
160,192,102232,1,0,0:0:0:0:
416,192,102312,1,0,0:0:0:0:
288,192,102393,1,0,0:0:0:80:whistle.wav
96,192,102393,1,0,0:0:0:80:clap.wav
480,192,102393,1,0,0:0:0:30:drum.wav
160,192,102393,1,0,0:0:0:0:
224,192,102474,1,0,0:0:0:0:
416,192,102554,1,0,0:0:0:45:hihat.wav
224,192,102635,1,0,0:0:0:0:
96,192,102716,1,0,0:0:0:80:whistle.wav
288,192,102716,1,0,0:0:0:0:
480,192,102716,1,0,0:0:0:0:
160,192,102877,1,0,0:0:0:45:hihat.wav
352,192,102958,1,0,0:0:0:0:
96,192,103038,1,0,0:0:0:80:clap.wav
288,192,103038,1,0,0:0:0:80:whistle.wav
480,192,103038,1,0,0:0:0:0:
224,192,103038,1,0,0:0:0:0:
224,192,103200,1,0,0:0:0:45:hihat.wav
416,192,103200,1,0,0:0:0:0:
96,192,103361,1,0,0:0:0:80:whistle.wav
288,192,103361,1,0,0:0:0:0:
480,192,103361,1,0,0:0:0:0:
416,192,103441,1,0,0:0:0:0:
224,192,103522,1,0,0:0:0:45:hihat.wav
96,192,103683,1,0,0:0:0:80:clap.wav
480,192,103683,1,0,0:0:0:80:whistle.wav
288,192,103683,1,0,0:0:0:0:
352,192,103683,1,0,0:0:0:0:
416,192,103845,1,0,0:0:0:45:hihat.wav
224,192,103845,1,0,0:0:0:0:
96,192,104006,1,0,0:0:0:80:whistle.wav
352,192,104006,1,0,0:0:0:0:
480,192,104006,1,0,0:0:0:0:
224,192,104167,1,0,0:0:0:45:hihat.wav
352,192,104248,1,0,0:0:0:0:
96,192,104329,1,0,0:0:0:80:whistle.wav
288,192,104329,1,0,0:0:0:80:clap.wav
416,192,104329,1,0,0:0:0:0:
480,192,104329,1,0,0:0:0:0:
160,192,104490,1,0,0:0:0:45:hihat.wav
352,192,104490,1,0,0:0:0:0:
96,192,104651,1,0,0:0:0:80:whistle.wav
480,192,104651,1,0,0:0:0:0:
288,192,104651,1,0,0:0:0:0:
224,192,104732,1,0,0:0:0:0:
352,192,104812,1,0,0:0:0:45:hihat.wav
160,192,104812,1,0,0:0:0:30:drum.wav
416,192,104812,1,0,0:0:0:0:
96,192,104974,1,0,0:0:0:80:whistle.wav
224,192,104974,1,0,0:0:0:80:clap.wav
480,192,104974,1,0,0:0:0:30:drum.wav
288,192,104974,1,0,0:0:0:0:
160,192,105135,1,0,0:0:0:80:whistle.wav
352,192,105135,1,0,0:0:0:0:
32,192,105296,1,0,0:0:0:80:clap.wav
224,192,105296,1,0,0:0:0:80:whistle.wav
416,192,105296,1,0,0:0:0:65:finish.wav
96,192,105296,1,0,0:0:0:0:
480,192,105296,1,0,0:0:0:0:
288,192,105377,1,0,0:0:0:0:
416,192,105458,1,0,0:0:0:45:hihat.wav
96,192,105619,1,0,0:0:0:80:clap.wav
224,192,105619,1,0,0:0:0:80:whistle.wav
352,192,105619,1,0,0:0:0:0:
480,192,105619,1,0,0:0:0:0:
160,192,105780,1,0,0:0:0:45:hihat.wav
288,192,105861,1,0,0:0:0:0:
96,192,105941,1,0,0:0:0:80:whistle.wav
224,192,105941,1,0,0:0:0:80:clap.wav
416,192,105941,1,0,0:0:0:0:
160,192,106022,1,0,0:0:0:0:
224,192,106103,1,0,0:0:0:45:hihat.wav
288,192,106183,1,0,0:0:0:0:
352,192,106264,1,0,0:0:0:80:clap.wav
480,192,106264,1,0,0:0:0:80:whistle.wav
96,192,106264,1,0,0:0:0:30:drum.wav
224,192,106264,1,0,0:0:0:0:
416,192,106345,1,0,0:0:0:0:
352,192,106425,1,0,0:0:0:45:hihat.wav
288,192,106506,1,0,0:0:0:0:
32,192,106587,1,0,0:0:0:80:clap.wav
224,192,106587,1,0,0:0:0:80:whistle.wav
96,192,106587,1,0,0:0:0:65:finish.wav
480,192,106587,1,0,0:0:0:0:
352,192,106667,1,0,0:0:0:0:
480,192,106748,1,0,0:0:0:45:hihat.wav
96,192,106909,1,0,0:0:0:80:clap.wav
288,192,106909,1,0,0:0:0:80:whistle.wav
416,192,106909,1,0,0:0:0:0:
160,192,106909,1,0,0:0:0:0:
224,192,107070,1,0,0:0:0:45:hihat.wav
352,192,107151,1,0,0:0:0:0:
480,192,107232,1,0,0:0:0:80:clap.wav
96,192,107232,1,0,0:0:0:80:whistle.wav
288,192,107232,1,0,0:0:0:0:
416,192,107312,1,0,0:0:0:0:
352,192,107393,1,0,0:0:0:45:hihat.wav
160,192,107393,1,0,0:0:0:30:drum.wav
224,192,107393,1,0,0:0:0:0:
288,192,107474,1,0,0:0:0:0:
224,192,107554,1,0,0:0:0:80:clap.wav
96,192,107554,1,0,0:0:0:80:whistle.wav
352,192,107554,1,0,0:0:0:0:
480,192,107554,1,0,0:0:0:0:
416,192,107635,1,0,0:0:0:0:
160,192,107716,1,0,0:0:0:80:whistle.wav
288,192,107716,1,0,0:0:0:0:
416,192,107796,1,0,0:0:0:0:
32,192,107877,1,0,0:0:0:80:whistle.wav
96,192,107877,1,0,0:0:0:65:finish.wav
480,192,107877,1,0,0:0:0:0:
288,192,107877,1,0,0:0:0:0:
224,192,108038,1,0,0:0:0:80:clap.wav
352,192,108038,1,0,0:0:0:0:
32,192,108119,1,0,0:0:0:80:whistle.wav
96,192,108119,1,0,0:0:0:0:
480,192,108119,1,0,0:0:0:0:
288,192,108200,1,0,0:0:0:80:clap.wav
32,192,108361,1,0,0:0:0:80:clap.wav
96,192,108361,1,0,0:0:0:0:
480,192,108361,1,0,0:0:0:0:
32,192,108522,1,0,0:0:0:80:whistle.wav
96,192,108522,1,0,0:0:0:0:
480,192,108522,1,0,0:0:0:0:
224,192,108603,1,0,0:0:0:80:whistle.wav
32,192,108683,1,0,0:0:0:80:whistle.wav
352,192,108683,1,0,0:0:0:0:
480,192,108683,1,0,0:0:0:0:
96,192,108683,1,0,0:0:0:0:
224,192,108764,1,0,0:0:0:80:whistle.wav
32,192,108845,1,0,0:0:0:80:whistle.wav
352,192,108845,1,0,0:0:0:0:
480,192,108845,1,0,0:0:0:0:
160,192,108845,1,0,0:0:0:0:
288,192,108925,1,0,0:0:0:80:whistle.wav
32,192,109006,1,0,0:0:0:80:whistle.wav
416,192,109006,1,0,0:0:0:0:
288,192,109087,1,0,0:0:0:80:whistle.wav
32,192,109167,1,0,0:0:0:80:whistle.wav
96,192,109167,1,0,0:0:0:65:finish.wav
224,192,109167,1,0,0:0:0:0:
352,192,109167,1,0,0:0:0:0:
480,192,109167,1,0,0:0:0:0:
32,192,109409,1,0,0:0:0:80:whistle.wav
96,192,109409,1,0,0:0:0:65:finish.wav
160,192,109409,1,0,0:0:0:0:
416,192,109409,1,0,0:0:0:0:
288,192,109409,1,0,0:0:0:0:
32,192,109651,1,0,0:0:0:80:whistle.wav
352,192,109651,1,0,0:0:0:65:finish.wav
224,192,109651,1,0,0:0:0:0:
96,192,109651,1,0,0:0:0:0:
480,192,109651,1,0,0:0:0:0:
32,192,109893,1,0,0:0:0:65:finish.wav
160,192,109893,1,0,0:0:0:80:whistle.wav
352,192,109893,1,0,0:0:0:0:
480,192,109893,1,0,0:0:0:0:
288,192,109893,1,0,0:0:0:0:
32,192,110135,128,0,110458:0:0:0:80:whistle.wav
480,192,110135,1,0,0:0:0:0:
160,192,110135,1,0,0:0:0:0:
96,192,110135,1,0,0:0:0:0:
288,192,110135,1,0,0:0:0:0:
96,192,110458,1,0,0:0:0:80:whistle.wav
480,192,110458,1,0,0:0:0:65:finish.wav
224,192,110458,1,0,0:0:0:30:cym.wav
352,192,110458,1,0,0:0:0:0:
288,192,110458,1,0,0:0:0:0:
