osu file format v14

[General]
AudioFilename: PxLight - Gekkou Ranbu.mp3
AudioLeadIn: 0
PreviewTime: 89812
Countdown: 0
SampleSet: Soft
StackLeniency: 0.7
Mode: 3
LetterboxInBreaks: 0
SpecialStyle: 1
WidescreenStoryboard: 0

[Editor]
DistanceSpacing: 0.8
BeatDivisor: 4
GridSize: 4
TimelineZoom: 1.8

[Metadata]
Title:Gekkou Ranbu
TitleUnicode:月光乱舞
Artist:P*Light
ArtistUnicode:P*Light
Creator:Spy
Version:Zan's 8K Normal
Source:SOUND VOLTEX III GRAVITY WARS
Tags:BEMANI KONAMI SDVX 天下一音ゲ祭 全国一斉認定大会 2015 RASIS レイシス Voltenizer Maxima Kuo Kyoka Zan_- Rizqy victorica_db [Emiria] SanadaYukimura [_A_v_a_l_o_n_]
BeatmapID:836791
BeatmapSetID:382403

[Difficulty]
HPDrainRate:7
CircleSize:8
OverallDifficulty:7
ApproachRate:5
SliderMultiplier:1.4
SliderTickRate:1

[Events]
//Background and Video events
0,0,"BG.jpg",0,0
//Break Periods
//Storyboard Layer 0 (Background)
//Storyboard Layer 1 (Fail)
//Storyboard Layer 2 (Pass)
//Storyboard Layer 3 (Foreground)
//Storyboard Sound Samples
Sample,7232,0,"whistle.wav",80
Sample,8200,0,"drum.wav",30
Sample,9329,0,"drum.wav",30
Sample,9490,0,"drum.wav",30
Sample,10458,0,"whistle.wav",80
Sample,10538,0,"whistle.wav",80
Sample,10619,0,"whistle.wav",80
Sample,10700,0,"whistle.wav",80
Sample,10780,0,"whistle.wav",80
Sample,10780,0,"drum.wav",30
Sample,10861,0,"whistle.wav",80
Sample,10941,0,"whistle.wav",80
Sample,11022,0,"whistle.wav",80
Sample,11103,0,"whistle.wav",80
Sample,12554,0,"hihat.wav",45
Sample,12716,0,"clap.wav",80
Sample,13361,0,"clap.wav",80
Sample,13845,0,"hihat.wav",45
Sample,14006,0,"clap.wav",80
Sample,14651,0,"clap.wav",80
Sample,14651,0,"drum.wav",30
Sample,15135,0,"hihat.wav",45
Sample,15296,0,"whistle.wav",80
Sample,15941,0,"whistle.wav",80
Sample,16425,0,"hihat.wav",45
Sample,16587,0,"whistle.wav",80
Sample,17070,0,"drum.wav",30
Sample,17232,0,"whistle.wav",80
Sample,17232,0,"drum.wav",30
Sample,17716,0,"hihat.wav",45
Sample,17877,0,"clap.wav",80
Sample,18522,0,"whistle.wav",80
Sample,18522,0,"drum.wav",30
Sample,19006,0,"hihat.wav",45
Sample,19167,0,"whistle.wav",80
Sample,19651,0,"hihat.wav",45
Sample,19812,0,"clap.wav",80
Sample,20296,0,"drum.wav",30
Sample,20377,0,"clap.wav",80
Sample,20619,0,"whistle.wav",80
Sample,20619,0,"clap.wav",80
Sample,20941,0,"whistle.wav",80
Sample,20941,0,"clap.wav",80
Sample,21103,0,"whistle.wav",80
Sample,21264,0,"whistle.wav",80
Sample,21264,0,"clap.wav",80
Sample,22877,0,"hihat.wav",45
Sample,23038,0,"whistle.wav",80
Sample,23200,0,"hihat.wav",45
Sample,23522,0,"hihat.wav",45
Sample,23683,0,"whistle.wav",80
Sample,23845,0,"hihat.wav",45
Sample,24167,0,"hihat.wav",45
Sample,24329,0,"clap.wav",80
Sample,24490,0,"hihat.wav",45
Sample,24812,0,"hihat.wav",45
Sample,24974,0,"clap.wav",80
Sample,25135,0,"hihat.wav",45
Sample,25458,0,"hihat.wav",45
Sample,25619,0,"whistle.wav",80
Sample,25780,0,"hihat.wav",45
Sample,26103,0,"hihat.wav",45
Sample,26264,0,"whistle.wav",80
Sample,26425,0,"hihat.wav",45
Sample,26748,0,"hihat.wav",45
Sample,26909,0,"clap.wav",80
Sample,27070,0,"hihat.wav",45
Sample,27393,0,"hihat.wav",45
Sample,27554,0,"clap.wav",80
Sample,27554,0,"drum.wav",30
Sample,27716,0,"whistle.wav",80
Sample,27877,0,"whistle.wav",80
Sample,28038,0,"hihat.wav",45
Sample,28200,0,"whistle.wav",80
Sample,28361,0,"hihat.wav",45
Sample,28522,0,"whistle.wav",80
Sample,28683,0,"hihat.wav",45
Sample,28845,0,"whistle.wav",80
Sample,29006,0,"hihat.wav",45
Sample,29167,0,"whistle.wav",80
Sample,29329,0,"hihat.wav",45
Sample,29490,0,"whistle.wav",80
Sample,29651,0,"hihat.wav",45
Sample,29812,0,"whistle.wav",80
Sample,29974,0,"hihat.wav",45
Sample,30135,0,"whistle.wav",80
Sample,30619,0,"drum.wav",30
Sample,30780,0,"clap.wav",80
Sample,30941,0,"clap.wav",80
Sample,30941,0,"whistle.wav",80
Sample,31183,0,"whistle.wav",80
Sample,31264,0,"whistle.wav",80
Sample,31264,0,"clap.wav",80
Sample,31345,0,"whistle.wav",80
Sample,31506,0,"whistle.wav",80
Sample,31587,0,"whistle.wav",80
Sample,31587,0,"clap.wav",80
Sample,31667,0,"whistle.wav",80
Sample,38200,0,"clap.wav",80
Sample,38522,0,"clap.wav",80
Sample,38845,0,"clap.wav",80
Sample,39167,0,"clap.wav",80
Sample,39490,0,"clap.wav",80
Sample,39812,0,"clap.wav",80
Sample,40135,0,"clap.wav",80
Sample,40458,0,"clap.wav",80
Sample,40780,0,"clap.wav",80
Sample,41103,0,"clap.wav",80
Sample,41425,0,"clap.wav",80
Sample,41748,0,"clap.wav",80
Sample,42070,0,"clap.wav",80
Sample,42151,0,"whistle.wav",80
Sample,42232,0,"whistle.wav",80
Sample,42312,0,"whistle.wav",80
Sample,42474,0,"whistle.wav",80
Sample,42554,0,"whistle.wav",80
Sample,42635,0,"whistle.wav",80
Sample,42796,0,"whistle.wav",80
Sample,42877,0,"whistle.wav",80
Sample,42958,0,"whistle.wav",80
Sample,43119,0,"whistle.wav",80
Sample,43200,0,"whistle.wav",80
Sample,43280,0,"whistle.wav",80
Sample,44651,0,"clap.wav",80
Sample,44974,0,"clap.wav",80
Sample,45296,0,"clap.wav",80
Sample,46264,0,"whistle.wav",80
Sample,46909,0,"whistle.wav",80
Sample,47554,0,"clap.wav",80
Sample,48038,0,"hihat.wav",45
Sample,48200,0,"clap.wav",80
Sample,48361,0,"whistle.wav",80
Sample,48683,0,"hihat.wav",45
Sample,48845,0,"clap.wav",80
Sample,48845,0,"whistle.wav",80
Sample,49329,0,"hihat.wav",45
Sample,49490,0,"whistle.wav",80
Sample,49651,0,"hihat.wav",45
Sample,50135,0,"clap.wav",80
Sample,50619,0,"whistle.wav",80
Sample,50941,0,"hihat.wav",45
Sample,51183,0,"whistle.wav",80
Sample,51264,0,"whistle.wav",80
Sample,51345,0,"whistle.wav",80
Sample,51425,0,"finish.wav",65
Sample,52070,0,"clap.wav",80
Sample,52716,0,"whistle.wav",80
Sample,53200,0,"hihat.wav",45
Sample,53361,0,"whistle.wav",80
Sample,53522,0,"whistle.wav",80
Sample,53845,0,"hihat.wav",45
Sample,54006,0,"whistle.wav",80
Sample,54006,0,"clap.wav",80
Sample,54490,0,"hihat.wav",45
Sample,54651,0,"clap.wav",80
Sample,54812,0,"hihat.wav",45
Sample,55941,0,"clap.wav",80
Sample,56425,0,"hihat.wav",45
Sample,56587,0,"whistle.wav",80
Sample,56748,0,"hihat.wav",45
Sample,57070,0,"hihat.wav",45
Sample,57232,0,"whistle.wav",80
Sample,57393,0,"hihat.wav",45
Sample,57716,0,"hihat.wav",45
Sample,57877,0,"clap.wav",80
Sample,58038,0,"hihat.wav",45
Sample,58361,0,"hihat.wav",45
Sample,58522,0,"clap.wav",80
Sample,58683,0,"hihat.wav",45
Sample,59006,0,"hihat.wav",45
Sample,59167,0,"whistle.wav",80
Sample,59329,0,"hihat.wav",45
Sample,59651,0,"hihat.wav",45
Sample,59812,0,"whistle.wav",80
Sample,59974,0,"hihat.wav",45
Sample,60296,0,"hihat.wav",45
Sample,60458,0,"clap.wav",80
Sample,60619,0,"hihat.wav",45
Sample,60941,0,"hihat.wav",45
Sample,61103,0,"clap.wav",80
Sample,61264,0,"hihat.wav",45
Sample,61425,0,"whistle.wav",80
Sample,61748,0,"clap.wav",80
Sample,62393,0,"clap.wav",80
Sample,63038,0,"clap.wav",80
Sample,63683,0,"clap.wav",80
Sample,64006,0,"clap.wav",80
Sample,64087,0,"whistle.wav",80
Sample,64167,0,"whistle.wav",80
Sample,64248,0,"clap.wav",80
Sample,64329,0,"whistle.wav",80
Sample,64409,0,"whistle.wav",80
Sample,64490,0,"whistle.wav",80
Sample,64570,0,"whistle.wav",80
Sample,64651,0,"clap.wav",80
Sample,64732,0,"whistle.wav",80
Sample,64812,0,"whistle.wav",80
Sample,64893,0,"clap.wav",80
Sample,64974,0,"whistle.wav",80
Sample,65054,0,"whistle.wav",80
Sample,65135,0,"clap.wav",80
Sample,65216,0,"whistle.wav",80
Sample,65296,0,"clap.wav",80
Sample,65377,0,"whistle.wav",80
Sample,65538,0,"whistle.wav",80
Sample,65619,0,"clap.wav",80
Sample,65700,0,"whistle.wav",80
Sample,65861,0,"whistle.wav",80
Sample,65941,0,"clap.wav",80
Sample,66022,0,"whistle.wav",80
Sample,66103,0,"whistle.wav",80
Sample,66183,0,"whistle.wav",80
Sample,66264,0,"clap.wav",80
Sample,66345,0,"whistle.wav",80
Sample,66425,0,"whistle.wav",80
Sample,66506,0,"whistle.wav",80
Sample,84651,0,"clap.wav",80
Sample,84651,0,"whistle.wav",80
Sample,85296,0,"finish.wav",65
Sample,85861,0,"whistle.wav",80
Sample,85941,0,"finish.wav",65
Sample,86587,0,"finish.wav",65
Sample,87312,0,"whistle.wav",80
Sample,87474,0,"whistle.wav",80
Sample,87635,0,"whistle.wav",80
Sample,87796,0,"whistle.wav",80
Sample,87958,0,"whistle.wav",80
Sample,88119,0,"whistle.wav",80
Sample,88280,0,"whistle.wav",80
Sample,88361,0,"whistle.wav",80
Sample,88441,0,"whistle.wav",80
Sample,89248,0,"clap.wav",80
Sample,89490,0,"whistle.wav",80
Sample,90135,0,"clap.wav",80
Sample,90296,0,"hihat.wav",45
Sample,90619,0,"hihat.wav",45
Sample,90780,0,"clap.wav",80
Sample,91425,0,"clap.wav",80
Sample,91587,0,"hihat.wav",45
Sample,91909,0,"hihat.wav",45
Sample,92070,0,"clap.wav",80
Sample,92070,0,"drum.wav",30
Sample,92554,0,"hihat.wav",45
Sample,92716,0,"clap.wav",80
Sample,92716,0,"whistle.wav",80
Sample,93038,0,"whistle.wav",80
Sample,93200,0,"hihat.wav",45
Sample,93361,0,"whistle.wav",80
Sample,93845,0,"hihat.wav",45
Sample,94006,0,"whistle.wav",80
Sample,94006,0,"clap.wav",80
Sample,94329,0,"whistle.wav",80
Sample,94490,0,"hihat.wav",45
Sample,94490,0,"drum.wav",30
Sample,94651,0,"clap.wav",80
Sample,94651,0,"drum.wav",30
Sample,95296,0,"whistle.wav",80
Sample,95458,0,"hihat.wav",45
Sample,95780,0,"hihat.wav",45
Sample,95941,0,"whistle.wav",80
Sample,95941,0,"drum.wav",30
Sample,96264,0,"finish.wav",65
Sample,96587,0,"clap.wav",80
Sample,96748,0,"hihat.wav",45
Sample,97070,0,"hihat.wav",45
Sample,97070,0,"drum.wav",30
Sample,97151,0,"drum.wav",30
Sample,97232,0,"clap.wav",80
Sample,97554,0,"whistle.wav",80
Sample,97716,0,"drum.wav",30
Sample,97796,0,"finish.wav",65
Sample,98038,0,"finish.wav",65
Sample,98280,0,"whistle.wav",80
Sample,98361,0,"drum.wav",30
Sample,98361,0,"whistle.wav",80
Sample,98441,0,"whistle.wav",80
Sample,98603,0,"whistle.wav",80
Sample,98683,0,"whistle.wav",80
Sample,98764,0,"whistle.wav",80
Sample,99732,0,"clap.wav",80
Sample,100296,0,"hihat.wav",45
Sample,100458,0,"whistle.wav",80
Sample,100619,0,"hihat.wav",45
Sample,100941,0,"hihat.wav",45
Sample,101103,0,"whistle.wav",80
Sample,101748,0,"clap.wav",80
Sample,101909,0,"hihat.wav",45
Sample,102232,0,"hihat.wav",45
Sample,102232,0,"drum.wav",30
Sample,102393,0,"clap.wav",80
Sample,102393,0,"drum.wav",30
Sample,102554,0,"hihat.wav",45
Sample,102877,0,"hihat.wav",45
Sample,103038,0,"clap.wav",80
Sample,103038,0,"whistle.wav",80
Sample,103361,0,"whistle.wav",80
Sample,103522,0,"hihat.wav",45
Sample,103683,0,"whistle.wav",80
Sample,104167,0,"hihat.wav",45
Sample,104329,0,"whistle.wav",80
Sample,104329,0,"clap.wav",80
Sample,104651,0,"whistle.wav",80
Sample,104812,0,"hihat.wav",45
Sample,104812,0,"drum.wav",30
Sample,104974,0,"clap.wav",80
Sample,104974,0,"drum.wav",30
Sample,105296,0,"whistle.wav",80
Sample,105296,0,"finish.wav",65
Sample,105458,0,"hihat.wav",45
Sample,105619,0,"whistle.wav",80
Sample,105780,0,"hihat.wav",45
Sample,105941,0,"clap.wav",80
Sample,106103,0,"hihat.wav",45
Sample,106264,0,"whistle.wav",80
Sample,106264,0,"drum.wav",30
Sample,106425,0,"hihat.wav",45
Sample,106587,0,"whistle.wav",80
Sample,106587,0,"finish.wav",65
Sample,106748,0,"hihat.wav",45
Sample,106909,0,"whistle.wav",80
Sample,107070,0,"hihat.wav",45
Sample,107232,0,"whistle.wav",80
Sample,107393,0,"hihat.wav",45
Sample,107393,0,"drum.wav",30
Sample,107554,0,"whistle.wav",80
Sample,107877,0,"finish.wav",65
Sample,108119,0,"whistle.wav",80
Sample,108603,0,"whistle.wav",80
Sample,108683,0,"whistle.wav",80
Sample,108764,0,"whistle.wav",80
Sample,108925,0,"whistle.wav",80
Sample,109006,0,"whistle.wav",80
Sample,109087,0,"whistle.wav",80
Sample,110458,0,"cym.wav",30

[TimingPoints]
2071,322.58064516129,4,2,1,50,1,0
89812,-100,4,2,1,50,0,1
110458,-100,4,2,1,50,0,0

[HitObjects]
96,192,1425,5,0,0:0:0:0:
160,192,1587,1,0,0:0:0:0:
352,192,1748,1,0,0:0:0:0:
416,192,1909,1,0,0:0:0:0:
32,192,2071,1,0,0:0:0:65:finish.wav
480,192,2071,1,0,0:0:0:80:whistle.wav
224,192,2393,1,0,0:0:0:80:clap.wav
32,192,2554,1,0,0:0:0:65:finish.wav
416,192,2554,1,0,0:0:0:80:whistle.wav
96,192,2716,1,0,0:0:0:0:
224,192,2877,1,0,0:0:0:0:
352,192,3038,1,0,0:0:0:30:drum.wav
480,192,3200,1,0,0:0:0:0:
32,192,3361,1,0,0:0:0:65:finish.wav
352,192,3361,1,0,0:0:0:80:whistle.wav
224,192,3683,1,0,0:0:0:80:clap.wav
416,192,3845,1,0,0:0:0:65:finish.wav
32,192,3845,1,0,0:0:0:80:whistle.wav
160,192,4006,1,0,0:0:0:0:
288,192,4167,1,0,0:0:0:30:drum.wav
416,192,4329,1,0,0:0:0:30:drum.wav
224,192,4490,1,0,0:0:0:0:
32,192,4651,1,0,0:0:0:80:whistle.wav
480,192,4651,1,0,0:0:0:0:
352,192,5135,1,0,0:0:0:80:whistle.wav
32,192,5135,1,0,0:0:0:0:
32,192,5619,1,0,0:0:0:80:whistle.wav
416,192,5619,1,0,0:0:0:30:drum.wav
32,192,5941,1,0,0:0:0:80:whistle.wav
224,192,5941,1,0,0:0:0:0:
352,192,6264,1,0,0:0:0:80:clap.wav
32,192,6425,1,0,0:0:0:80:whistle.wav
480,192,6425,1,0,0:0:0:0:
160,192,6587,1,0,0:0:0:0:
224,192,6748,1,0,0:0:0:30:drum.wav
288,192,6909,1,0,0:0:0:30:drum.wav
352,192,7070,1,0,0:0:0:0:
32,192,7232,1,0,0:0:0:65:finish.wav
480,192,7232,1,0,0:0:0:80:clap.wav
416,192,7554,1,0,0:0:0:80:clap.wav
416,192,7877,1,0,0:0:0:80:clap.wav
416,192,8200,1,0,0:0:0:80:clap.wav
32,192,8522,1,0,0:0:0:80:clap.wav
288,192,8522,1,0,0:0:0:80:whistle.wav
224,192,8845,1,0,0:0:0:80:clap.wav
224,192,9167,1,0,0:0:0:80:clap.wav
224,192,9490,1,0,0:0:0:80:clap.wav
32,192,9812,1,0,0:0:0:80:clap.wav
352,192,9812,1,0,0:0:0:80:whistle.wav
160,192,10135,1,0,0:0:0:80:clap.wav
416,192,10458,128,0,11103:0:0:0:80:clap.wav
352,192,10780,128,0,11103:0:0:0:80:clap.wav
160,192,11103,1,0,0:0:0:80:clap.wav
352,192,11425,1,0,0:0:0:0:
480,192,11748,1,0,0:0:0:0:
352,192,11909,1,0,0:0:0:0:
224,192,12070,1,0,0:0:0:80:clap.wav
96,192,12232,1,0,0:0:0:0:
32,192,12393,1,0,0:0:0:65:finish.wav
416,192,12393,1,0,0:0:0:80:whistle.wav
416,192,12635,1,0,0:0:0:0:
224,192,12716,1,0,0:0:0:80:whistle.wav
96,192,12877,1,0,0:0:0:45:hihat.wav
224,192,13038,1,0,0:0:0:80:whistle.wav
416,192,13200,1,0,0:0:0:45:hihat.wav
288,192,13361,1,0,0:0:0:80:whistle.wav
480,192,13522,1,0,0:0:0:45:hihat.wav
352,192,13683,1,0,0:0:0:80:whistle.wav
352,192,13925,1,0,0:0:0:0:
160,192,14006,1,0,0:0:0:80:whistle.wav
416,192,14167,1,0,0:0:0:45:hihat.wav
96,192,14329,1,0,0:0:0:80:whistle.wav
352,192,14490,1,0,0:0:0:45:hihat.wav
224,192,14651,1,0,0:0:0:80:whistle.wav
288,192,14812,1,0,0:0:0:45:hihat.wav
480,192,14974,1,0,0:0:0:80:whistle.wav
352,192,15216,1,0,0:0:0:0:
160,192,15296,1,0,0:0:0:80:clap.wav
352,192,15458,1,0,0:0:0:45:hihat.wav
96,192,15619,1,0,0:0:0:80:whistle.wav
416,192,15780,1,0,0:0:0:45:hihat.wav
288,192,15941,1,0,0:0:0:80:clap.wav
160,192,16103,1,0,0:0:0:45:hihat.wav
96,192,16264,1,0,0:0:0:80:whistle.wav
96,192,16506,1,0,0:0:0:0:
416,192,16587,1,0,0:0:0:80:clap.wav
160,192,16748,1,0,0:0:0:45:hihat.wav
288,192,16909,1,0,0:0:0:80:whistle.wav
480,192,17070,1,0,0:0:0:45:hihat.wav
224,192,17232,1,0,0:0:0:80:clap.wav
416,192,17393,1,0,0:0:0:80:whistle.wav
32,192,17554,1,0,0:0:0:80:whistle.wav
352,192,17554,1,0,0:0:0:65:finish.wav
352,192,17796,1,0,0:0:0:0:
224,192,17877,1,0,0:0:0:80:whistle.wav
96,192,18038,1,0,0:0:0:45:hihat.wav
480,192,18200,1,0,0:0:0:80:whistle.wav
160,192,18361,1,0,0:0:0:45:hihat.wav
416,192,18522,1,0,0:0:0:80:clap.wav
288,192,18683,1,0,0:0:0:45:hihat.wav
32,192,18845,1,0,0:0:0:80:whistle.wav
480,192,18845,1,0,0:0:0:65:finish.wav
480,192,19087,1,0,0:0:0:0:
224,192,19167,1,0,0:0:0:80:clap.wav
416,192,19329,1,0,0:0:0:45:hihat.wav
160,192,19490,1,0,0:0:0:80:whistle.wav
352,192,19651,1,0,0:0:0:30:drum.wav
224,192,19812,1,0,0:0:0:80:whistle.wav
416,192,19974,1,0,0:0:0:80:whistle.wav
288,192,20135,1,0,0:0:0:80:whistle.wav
32,192,20135,1,0,0:0:0:65:finish.wav
160,192,20377,1,0,0:0:0:80:whistle.wav
480,192,20458,1,0,0:0:0:0:
352,192,20619,1,0,0:0:0:30:drum.wav
96,192,20780,1,0,0:0:0:80:whistle.wav
416,192,20941,1,0,0:0:0:30:drum.wav
160,192,21103,1,0,0:0:0:30:drum.wav
352,192,21264,1,0,0:0:0:30:drum.wav
32,192,21587,1,0,0:0:0:65:finish.wav
352,192,21587,1,0,0:0:0:80:whistle.wav
32,192,21829,1,0,0:0:0:65:finish.wav
416,192,21829,1,0,0:0:0:80:whistle.wav
32,192,22070,1,0,0:0:0:80:whistle.wav
480,192,22070,1,0,0:0:0:65:finish.wav
288,192,22232,1,0,0:0:0:30:drum.wav
416,192,22393,1,0,0:0:0:30:drum.wav
160,192,22393,1,0,0:0:0:80:clap.wav
32,192,22716,1,0,0:0:0:65:finish.wav
480,192,22716,1,0,0:0:0:80:whistle.wav
160,192,23038,1,0,0:0:0:80:clap.wav
416,192,23361,1,0,0:0:0:80:whistle.wav
224,192,23683,1,0,0:0:0:80:clap.wav
352,192,24006,1,0,0:0:0:80:whistle.wav
96,192,24006,1,0,0:0:0:0:
480,192,24329,1,0,0:0:0:80:whistle.wav
160,192,24651,1,0,0:0:0:80:whistle.wav
352,192,24974,1,0,0:0:0:80:whistle.wav
480,192,25296,1,0,0:0:0:80:whistle.wav
160,192,25296,1,0,0:0:0:0:
416,192,25619,1,0,0:0:0:80:clap.wav
96,192,25941,1,0,0:0:0:80:whistle.wav
352,192,26264,1,0,0:0:0:80:clap.wav
224,192,26587,1,0,0:0:0:80:whistle.wav
480,192,26587,1,0,0:0:0:0:
96,192,26909,1,0,0:0:0:80:whistle.wav
480,192,27232,1,0,0:0:0:80:whistle.wav
288,192,27554,1,0,0:0:0:80:whistle.wav
32,192,27877,1,0,0:0:0:80:clap.wav
416,192,27877,1,0,0:0:0:65:finish.wav
160,192,28200,1,0,0:0:0:80:clap.wav
160,192,28522,1,0,0:0:0:80:clap.wav
160,192,28845,1,0,0:0:0:80:clap.wav
32,192,29167,1,0,0:0:0:80:clap.wav
480,192,29167,1,0,0:0:0:65:finish.wav
352,192,29490,1,0,0:0:0:80:clap.wav
352,192,29812,1,0,0:0:0:80:clap.wav
352,192,30135,1,0,0:0:0:80:clap.wav
160,192,30296,1,0,0:0:0:80:whistle.wav
32,192,30458,1,0,0:0:0:80:clap.wav
352,192,30458,1,0,0:0:0:65:finish.wav
416,192,30700,1,0,0:0:0:80:whistle.wav
224,192,30941,1,0,0:0:0:30:drum.wav
96,192,31103,1,0,0:0:0:80:whistle.wav
480,192,31264,1,0,0:0:0:30:drum.wav
160,192,31425,1,0,0:0:0:80:whistle.wav
352,192,31587,1,0,0:0:0:30:drum.wav
32,192,31909,1,0,0:0:0:65:finish.wav
480,192,31909,1,0,0:0:0:80:clap.wav
32,192,32151,1,0,0:0:0:65:finish.wav
480,192,32151,1,0,0:0:0:80:clap.wav
32,192,32393,1,0,0:0:0:80:clap.wav
480,192,32393,1,0,0:0:0:65:finish.wav
288,192,32554,1,0,0:0:0:30:drum.wav
416,192,32716,1,0,0:0:0:30:drum.wav
160,192,32716,1,0,0:0:0:80:clap.wav
32,192,33038,1,0,0:0:0:80:clap.wav
352,192,33038,1,0,0:0:0:65:finish.wav
480,192,33361,1,0,0:0:0:80:clap.wav
480,192,33683,1,0,0:0:0:80:clap.wav
480,192,34006,1,0,0:0:0:80:clap.wav
480,192,34329,1,0,0:0:0:80:clap.wav
480,192,34651,1,0,0:0:0:80:clap.wav
480,192,34974,1,0,0:0:0:80:clap.wav
480,192,35296,1,0,0:0:0:80:clap.wav
160,192,35619,1,0,0:0:0:80:clap.wav
160,192,35941,1,0,0:0:0:80:clap.wav
160,192,36264,1,0,0:0:0:80:clap.wav
160,192,36587,1,0,0:0:0:80:clap.wav
160,192,36909,1,0,0:0:0:80:clap.wav
160,192,37232,1,0,0:0:0:80:clap.wav
160,192,37554,1,0,0:0:0:80:clap.wav
160,192,37877,1,0,0:0:0:80:clap.wav
480,192,38200,1,0,0:0:0:65:finish.wav
32,192,38200,1,0,0:0:0:80:whistle.wav
352,192,38361,1,0,0:0:0:80:whistle.wav
224,192,38522,1,0,0:0:0:80:whistle.wav
96,192,38683,1,0,0:0:0:80:whistle.wav
416,192,38845,1,0,0:0:0:80:whistle.wav
288,192,39006,1,0,0:0:0:80:whistle.wav
160,192,39167,1,0,0:0:0:80:whistle.wav
480,192,39329,1,0,0:0:0:80:whistle.wav
352,192,39490,1,0,0:0:0:80:whistle.wav
32,192,39490,1,0,0:0:0:65:finish.wav
224,192,39651,1,0,0:0:0:80:whistle.wav
96,192,39812,1,0,0:0:0:80:whistle.wav
416,192,39974,1,0,0:0:0:80:whistle.wav
288,192,40135,1,0,0:0:0:80:whistle.wav
160,192,40296,1,0,0:0:0:80:whistle.wav
480,192,40458,1,0,0:0:0:80:whistle.wav
352,192,40619,1,0,0:0:0:80:whistle.wav
224,192,40780,1,0,0:0:0:80:whistle.wav
32,192,40780,1,0,0:0:0:65:finish.wav
416,192,40941,1,0,0:0:0:80:whistle.wav
288,192,41103,1,0,0:0:0:80:whistle.wav
160,192,41264,1,0,0:0:0:80:whistle.wav
32,192,41425,1,0,0:0:0:80:whistle.wav
480,192,41425,1,0,0:0:0:65:finish.wav
352,192,41587,1,0,0:0:0:80:whistle.wav
224,192,41748,1,0,0:0:0:80:whistle.wav
96,192,41909,1,0,0:0:0:80:whistle.wav
32,192,42070,1,0,0:0:0:80:whistle.wav
480,192,42070,128,0,43361:0:0:0:65:finish.wav
224,192,42393,1,0,0:0:0:80:whistle.wav
416,192,42716,128,0,43361:0:0:0:80:whistle.wav
160,192,43038,1,0,0:0:0:80:whistle.wav
32,192,43361,1,0,0:0:0:25:cym.wav
288,192,43683,1,0,0:0:0:0:
352,192,43845,1,0,0:0:0:0:
416,192,44006,1,0,0:0:0:0:
96,192,44167,1,0,0:0:0:0:
160,192,44329,1,0,0:0:0:0:
224,192,44490,1,0,0:0:0:0:
480,192,44651,1,0,0:0:0:80:whistle.wav
96,192,44812,1,0,0:0:0:80:whistle.wav
416,192,44974,1,0,0:0:0:80:whistle.wav
160,192,45135,1,0,0:0:0:80:whistle.wav
352,192,45296,1,0,0:0:0:80:whistle.wav
32,192,45619,1,0,0:0:0:80:clap.wav
32,192,45941,1,0,0:0:0:80:whistle.wav
352,192,45941,1,0,0:0:0:65:finish.wav
224,192,46103,1,0,0:0:0:45:hihat.wav
96,192,46264,1,0,0:0:0:80:clap.wav
352,192,46425,1,0,0:0:0:45:hihat.wav
224,192,46587,1,0,0:0:0:80:whistle.wav
352,192,46748,1,0,0:0:0:45:hihat.wav
480,192,46909,1,0,0:0:0:80:clap.wav
96,192,47070,1,0,0:0:0:45:hihat.wav
352,192,47232,1,0,0:0:0:80:whistle.wav
224,192,47393,1,0,0:0:0:45:hihat.wav
480,192,47554,1,0,0:0:0:80:whistle.wav
96,192,47716,1,0,0:0:0:45:hihat.wav
224,192,47877,1,0,0:0:0:80:whistle.wav
480,192,48200,1,0,0:0:0:80:whistle.wav
288,192,48361,1,0,0:0:0:45:hihat.wav
96,192,48522,1,0,0:0:0:80:whistle.wav
352,192,49006,1,0,0:0:0:45:hihat.wav
160,192,49167,1,0,0:0:0:80:whistle.wav
416,192,49490,1,0,0:0:0:80:clap.wav
160,192,49812,1,0,0:0:0:80:whistle.wav
288,192,49974,1,0,0:0:0:45:hihat.wav
416,192,50135,1,0,0:0:0:80:whistle.wav
96,192,50296,1,0,0:0:0:45:hihat.wav
224,192,50458,1,0,0:0:0:80:whistle.wav
352,192,50619,1,0,0:0:0:45:hihat.wav
480,192,50780,1,0,0:0:0:80:whistle.wav
32,192,50780,1,0,0:0:0:80:clap.wav
224,192,51103,128,0,51425:0:0:0:80:whistle.wav
32,192,51425,1,0,0:0:0:80:whistle.wav
480,192,51425,1,0,0:0:0:80:clap.wav
160,192,51587,1,0,0:0:0:45:hihat.wav
416,192,51748,1,0,0:0:0:80:whistle.wav
224,192,51909,1,0,0:0:0:45:hihat.wav
352,192,52070,1,0,0:0:0:80:whistle.wav
96,192,52232,1,0,0:0:0:45:hihat.wav
480,192,52393,1,0,0:0:0:80:whistle.wav
224,192,52554,1,0,0:0:0:45:hihat.wav
352,192,52716,1,0,0:0:0:80:clap.wav
160,192,52877,1,0,0:0:0:45:hihat.wav
416,192,53038,1,0,0:0:0:80:whistle.wav
96,192,53361,1,0,0:0:0:80:clap.wav
288,192,53522,1,0,0:0:0:45:hihat.wav
480,192,53683,1,0,0:0:0:80:whistle.wav
32,192,53683,1,0,0:0:0:65:finish.wav
224,192,54167,1,0,0:0:0:45:hihat.wav
96,192,54329,1,0,0:0:0:80:whistle.wav
416,192,54329,1,0,0:0:0:65:finish.wav
288,192,54651,1,0,0:0:0:80:whistle.wav
32,192,54974,1,0,0:0:0:80:whistle.wav
416,192,54974,1,0,0:0:0:0:
224,192,55135,1,0,0:0:0:80:whistle.wav
352,192,55296,1,0,0:0:0:80:whistle.wav
160,192,55458,1,0,0:0:0:80:whistle.wav
288,192,55619,1,0,0:0:0:80:whistle.wav
416,192,55780,1,0,0:0:0:80:whistle.wav
288,192,55941,1,0,0:0:0:80:whistle.wav
160,192,56103,1,0,0:0:0:0:
32,192,56264,1,0,0:0:0:65:finish.wav
480,192,56264,1,0,0:0:0:80:whistle.wav
352,192,56587,1,0,0:0:0:80:clap.wav
224,192,56909,1,0,0:0:0:80:whistle.wav
416,192,57232,1,0,0:0:0:80:clap.wav
160,192,57554,1,0,0:0:0:80:whistle.wav
352,192,57877,1,0,0:0:0:80:whistle.wav
96,192,58200,1,0,0:0:0:80:whistle.wav
224,192,58522,1,0,0:0:0:80:whistle.wav
352,192,58845,1,0,0:0:0:80:whistle.wav
480,192,59167,1,0,0:0:0:80:clap.wav
160,192,59490,1,0,0:0:0:80:whistle.wav
416,192,59812,1,0,0:0:0:80:clap.wav
288,192,60135,1,0,0:0:0:80:whistle.wav
160,192,60458,1,0,0:0:0:80:whistle.wav
416,192,60780,1,0,0:0:0:80:whistle.wav
96,192,61103,128,0,61425:0:0:0:80:whistle.wav
288,192,61425,1,0,0:0:0:65:finish.wav
480,192,61587,1,0,0:0:0:80:whistle.wav
352,192,61748,1,0,0:0:0:80:whistle.wav
224,192,61909,1,0,0:0:0:80:whistle.wav
96,192,62070,1,0,0:0:0:80:whistle.wav
480,192,62070,1,0,0:0:0:65:finish.wav
352,192,62232,1,0,0:0:0:80:whistle.wav
224,192,62393,1,0,0:0:0:80:whistle.wav
96,192,62554,1,0,0:0:0:80:whistle.wav
480,192,62716,1,0,0:0:0:80:whistle.wav
224,192,62716,1,0,0:0:0:65:finish.wav
352,192,62877,1,0,0:0:0:80:whistle.wav
224,192,63038,1,0,0:0:0:80:whistle.wav
96,192,63200,1,0,0:0:0:80:whistle.wav
160,192,63361,1,0,0:0:0:65:finish.wav
480,192,63361,1,0,0:0:0:80:whistle.wav
352,192,63522,1,0,0:0:0:80:whistle.wav
224,192,63683,1,0,0:0:0:80:whistle.wav
96,192,63845,1,0,0:0:0:80:whistle.wav
480,192,64006,1,0,0:0:0:80:whistle.wav
352,192,64248,1,0,0:0:0:80:whistle.wav
96,192,64490,1,0,0:0:0:80:clap.wav
224,192,64651,1,0,0:0:0:80:whistle.wav
416,192,64893,1,0,0:0:0:80:whistle.wav
288,192,65135,1,0,0:0:0:80:whistle.wav
96,192,65296,1,0,0:0:0:80:whistle.wav
352,192,65458,1,0,0:0:0:80:whistle.wav
224,192,65619,1,0,0:0:0:80:whistle.wav
416,192,65780,1,0,0:0:0:80:whistle.wav
160,192,65941,128,0,66587:0:0:0:80:whistle.wav
416,192,66264,128,0,66587:0:0:0:80:whistle.wav
288,192,66587,1,0,0:0:0:45:cym.wav
96,192,68522,1,0,0:0:0:0:
160,192,68683,1,0,0:0:0:0:
224,192,68845,1,0,0:0:0:0:
288,192,69006,1,0,0:0:0:0:
96,192,69167,1,0,0:0:0:0:
352,192,69167,1,0,0:0:0:0:
160,192,69812,1,0,0:0:0:0:
224,192,69974,1,0,0:0:0:0:
288,192,70135,1,0,0:0:0:0:
352,192,70296,1,0,0:0:0:0:
416,192,70458,1,0,0:0:0:0:
96,192,70458,1,0,0:0:0:0:
224,192,71103,1,0,0:0:0:0:
288,192,71264,1,0,0:0:0:0:
352,192,71425,1,0,0:0:0:0:
416,192,71587,1,0,0:0:0:0:
480,192,71748,1,0,0:0:0:0:
96,192,71748,1,0,0:0:0:0:
224,192,71909,1,0,0:0:0:0:
352,192,72070,1,0,0:0:0:0:
160,192,72232,1,0,0:0:0:0:
416,192,72393,1,0,0:0:0:0:
96,192,72554,1,0,0:0:0:0:
352,192,72716,1,0,0:0:0:0:
224,192,72877,1,0,0:0:0:0:
96,192,73038,1,0,0:0:0:0:
480,192,73038,1,0,0:0:0:0:
96,192,73683,1,0,0:0:0:0:
160,192,73845,1,0,0:0:0:0:
224,192,74006,1,0,0:0:0:0:
288,192,74167,1,0,0:0:0:0:
352,192,74329,1,0,0:0:0:0:
96,192,74329,1,0,0:0:0:0:
160,192,74974,1,0,0:0:0:0:
224,192,75135,1,0,0:0:0:0:
288,192,75296,1,0,0:0:0:0:
352,192,75458,1,0,0:0:0:0:
416,192,75619,1,0,0:0:0:0:
96,192,75619,1,0,0:0:0:0:
224,192,76264,1,0,0:0:0:0:
288,192,76425,1,0,0:0:0:0:
352,192,76587,1,0,0:0:0:0:
416,192,76748,1,0,0:0:0:0:
480,192,76909,1,0,0:0:0:0:
96,192,76909,1,0,0:0:0:0:
160,192,77070,1,0,0:0:0:0:
352,192,77232,1,0,0:0:0:0:
224,192,77393,1,0,0:0:0:0:
416,192,77554,1,0,0:0:0:0:
288,192,77716,1,0,0:0:0:0:
480,192,77877,1,0,0:0:0:0:
352,192,78038,1,0,0:0:0:0:
96,192,78200,1,0,0:0:0:0:
224,192,78200,1,0,0:0:0:0:
160,192,79167,1,0,0:0:0:80:clap.wav
416,192,79167,1,0,0:0:0:0:
32,192,79490,1,0,0:0:0:65:finish.wav
288,192,79490,1,0,0:0:0:80:clap.wav
160,192,79812,1,0,0:0:0:80:clap.wav
480,192,80135,1,0,0:0:0:80:clap.wav
352,192,80458,1,0,0:0:0:80:clap.wav
96,192,80780,1,0,0:0:0:80:clap.wav
224,192,81103,1,0,0:0:0:80:clap.wav
416,192,81425,1,0,0:0:0:80:clap.wav
160,192,81748,1,0,0:0:0:80:clap.wav
352,192,82070,1,0,0:0:0:80:clap.wav
480,192,82393,1,0,0:0:0:80:clap.wav
96,192,82716,1,0,0:0:0:80:clap.wav
224,192,83038,1,0,0:0:0:80:clap.wav
352,192,83361,1,0,0:0:0:80:clap.wav
96,192,83683,1,0,0:0:0:80:clap.wav
288,192,84006,1,0,0:0:0:80:clap.wav
480,192,84329,1,0,0:0:0:80:clap.wav
416,192,84651,1,0,0:0:0:65:finish.wav
224,192,84812,1,0,0:0:0:80:whistle.wav
480,192,84974,1,0,0:0:0:80:whistle.wav
96,192,85135,1,0,0:0:0:80:whistle.wav
416,192,85296,1,0,0:0:0:80:whistle.wav
160,192,85458,1,0,0:0:0:80:whistle.wav
352,192,85619,1,0,0:0:0:80:whistle.wav
96,192,85780,1,0,0:0:0:80:whistle.wav
416,192,85941,1,0,0:0:0:80:whistle.wav
160,192,86103,1,0,0:0:0:80:whistle.wav
480,192,86264,1,0,0:0:0:80:whistle.wav
224,192,86425,1,0,0:0:0:80:whistle.wav
416,192,86587,1,0,0:0:0:80:whistle.wav
160,192,86748,1,0,0:0:0:80:whistle.wav
352,192,86909,1,0,0:0:0:80:whistle.wav
96,192,87070,1,0,0:0:0:80:whistle.wav
416,192,87232,1,0,0:0:0:80:whistle.wav
160,192,87393,1,0,0:0:0:80:whistle.wav
480,192,87554,1,0,0:0:0:80:whistle.wav
224,192,87716,1,0,0:0:0:80:whistle.wav
416,192,87877,1,0,0:0:0:80:whistle.wav
160,192,88038,1,0,0:0:0:80:whistle.wav
352,192,88200,128,0,88522:0:0:0:80:whistle.wav
96,192,88522,1,0,0:0:0:0:
288,192,88845,1,0,0:0:0:0:
480,192,89167,1,0,0:0:0:80:clap.wav
352,192,89329,1,0,0:0:0:80:clap.wav
224,192,89409,1,0,0:0:0:80:clap.wav
96,192,89490,1,0,0:0:0:80:clap.wav
32,192,89812,1,0,0:0:0:65:finish.wav
416,192,89812,1,0,0:0:0:80:whistle.wav
224,192,89974,1,0,0:0:0:45:hihat.wav
352,192,90135,1,0,0:0:0:80:whistle.wav
480,192,90458,1,0,0:0:0:80:whistle.wav
96,192,90780,1,0,0:0:0:80:whistle.wav
224,192,90941,1,0,0:0:0:45:hihat.wav
416,192,91103,1,0,0:0:0:80:whistle.wav
288,192,91264,1,0,0:0:0:45:hihat.wav
160,192,91425,1,0,0:0:0:80:whistle.wav
352,192,91748,1,0,0:0:0:80:whistle.wav
96,192,92070,1,0,0:0:0:80:whistle.wav
288,192,92232,1,0,0:0:0:45:hihat.wav
480,192,92393,1,0,0:0:0:80:whistle.wav
480,192,92635,1,0,0:0:0:0:
352,192,92877,1,0,0:0:0:45:hihat.wav
352,192,93119,1,0,0:0:0:0:
96,192,93361,1,0,0:0:0:80:clap.wav
96,192,93522,1,0,0:0:0:45:hihat.wav
224,192,93683,1,0,0:0:0:80:whistle.wav
224,192,93925,1,0,0:0:0:0:
352,192,94167,1,0,0:0:0:45:hihat.wav
160,192,94409,1,0,0:0:0:0:
480,192,94651,1,0,0:0:0:80:whistle.wav
352,192,94812,1,0,0:0:0:80:whistle.wav
224,192,94974,1,0,0:0:0:65:finish.wav
32,192,94974,1,0,0:0:0:80:whistle.wav
160,192,95135,1,0,0:0:0:45:hihat.wav
416,192,95296,1,0,0:0:0:80:clap.wav
224,192,95619,1,0,0:0:0:80:whistle.wav
352,192,95941,1,0,0:0:0:80:clap.wav
224,192,96103,1,0,0:0:0:45:hihat.wav
96,192,96264,1,0,0:0:0:80:whistle.wav
288,192,96425,1,0,0:0:0:45:hihat.wav
480,192,96587,1,0,0:0:0:80:whistle.wav
352,192,96909,1,0,0:0:0:80:whistle.wav
160,192,97232,1,0,0:0:0:80:whistle.wav
288,192,97393,1,0,0:0:0:45:hihat.wav
416,192,97554,1,0,0:0:0:65:finish.wav
416,192,97796,1,0,0:0:0:80:whistle.wav
160,192,98038,1,0,0:0:0:80:whistle.wav
480,192,98200,128,0,98845:0:0:0:80:whistle.wav
416,192,98522,128,0,98845:0:0:0:80:whistle.wav
32,192,99006,1,0,0:0:0:65:finish.wav
352,192,99006,1,0,0:0:0:80:whistle.wav
32,192,99248,1,0,0:0:0:65:finish.wav
352,192,99248,1,0,0:0:0:80:whistle.wav
32,192,99490,1,0,0:0:0:80:whistle.wav
480,192,99490,1,0,0:0:0:65:finish.wav
352,192,99732,1,0,0:0:0:65:finish.wav
32,192,99732,1,0,0:0:0:80:whistle.wav
32,192,100135,1,0,0:0:0:80:whistle.wav
416,192,100135,1,0,0:0:0:65:finish.wav
224,192,100458,1,0,0:0:0:80:clap.wav
480,192,100780,1,0,0:0:0:80:whistle.wav
160,192,101103,1,0,0:0:0:80:clap.wav
288,192,101264,1,0,0:0:0:45:hihat.wav
416,192,101425,1,0,0:0:0:80:whistle.wav
224,192,101587,1,0,0:0:0:45:hihat.wav
96,192,101748,1,0,0:0:0:80:whistle.wav
352,192,102070,1,0,0:0:0:80:whistle.wav
224,192,102393,1,0,0:0:0:80:whistle.wav
416,192,102716,1,0,0:0:0:80:whistle.wav
416,192,102958,1,0,0:0:0:0:
224,192,103200,1,0,0:0:0:45:hihat.wav
224,192,103441,1,0,0:0:0:0:
96,192,103683,1,0,0:0:0:80:clap.wav
96,192,103845,1,0,0:0:0:45:hihat.wav
352,192,104006,1,0,0:0:0:80:whistle.wav
352,192,104248,1,0,0:0:0:0:
160,192,104490,1,0,0:0:0:45:hihat.wav
416,192,104732,1,0,0:0:0:0:
96,192,104974,1,0,0:0:0:80:whistle.wav
224,192,105135,1,0,0:0:0:80:whistle.wav
352,192,105296,1,0,0:0:0:80:clap.wav
352,192,105619,1,0,0:0:0:80:clap.wav
352,192,105941,1,0,0:0:0:80:whistle.wav
352,192,106264,1,0,0:0:0:80:clap.wav
480,192,106587,1,0,0:0:0:80:clap.wav
480,192,106909,1,0,0:0:0:80:clap.wav
480,192,107232,1,0,0:0:0:80:clap.wav
480,192,107554,1,0,0:0:0:80:clap.wav
352,192,107716,1,0,0:0:0:80:whistle.wav
224,192,107877,1,0,0:0:0:80:whistle.wav
96,192,108038,1,0,0:0:0:80:clap.wav
288,192,108200,1,0,0:0:0:80:clap.wav
480,192,108361,1,0,0:0:0:80:clap.wav
160,192,108522,128,0,109167:0:0:0:80:whistle.wav
224,192,108845,128,0,109167:0:0:0:80:whistle.wav
32,192,109167,1,0,0:0:0:80:whistle.wav
352,192,109167,1,0,0:0:0:65:finish.wav
32,192,109409,1,0,0:0:0:80:whistle.wav
352,192,109409,1,0,0:0:0:65:finish.wav
416,192,109651,1,0,0:0:0:80:whistle.wav
32,192,109651,1,0,0:0:0:65:finish.wav
32,192,109893,1,0,0:0:0:65:finish.wav
416,192,109893,1,0,0:0:0:80:whistle.wav
32,192,110135,1,0,0:0:0:80:whistle.wav
480,192,110135,128,0,110458:0:0:0:0:
288,192,110458,1,0,0:0:0:80:whistle.wav
32,192,110458,1,0,0:0:0:65:finish.wav
