osu file format v14

[General]
AudioFilename: Gekkou Ranbu.mp3
AudioLeadIn: 0
PreviewTime: 32830
Countdown: 0
SampleSet: None
StackLeniency: 0.7
Mode: 3
LetterboxInBreaks: 0
SpecialStyle: 0
WidescreenStoryboard: 0

[Editor]
DistanceSpacing: 0.8
BeatDivisor: 4
GridSize: 32
TimelineZoom: 2.799999

[Metadata]
Title:Gekkou Ranbu
TitleUnicode:月光乱舞
Artist:P*Light
ArtistUnicode:P*Light
Creator:SpectorDG
Version:ADVANCED
Source:SOUND VOLTEX III GRAVITY WARS
Tags:KONAMI BEMANI 天下一音ゲ祭 SDVX 3 Medley Innocent Floor The Sampling Paradise 2 MINUTES FIGHTERS Sakura Reflection Slayer Remix 4th 5th KAC Critical_Star C.Star
BeatmapID:948535
BeatmapSetID:440924

[Difficulty]
HPDrainRate:8
CircleSize:4
OverallDifficulty:7
ApproachRate:5
SliderMultiplier:1.4
SliderTickRate:1

[Events]
//Background and Video events
0,0,"BG.jpg",0,0
//Break Periods
//Storyboard Layer 0 (Background)
//Storyboard Layer 1 (Fail)
//Storyboard Layer 2 (Pass)
//Storyboard Layer 3 (Foreground)
//Storyboard Sound Samples

[TimingPoints]
1880,322.58064516129,4,3,1,30,1,0
12214,322.58064516129,4,3,1,30,1,0
22534,322.58064516129,4,3,1,30,1,0
23798,322.58064516129,4,3,1,30,1,0
44448,322.58064516129,4,3,1,30,1,0
57347,322.58064516129,4,3,1,30,1,0
76665,322.58064516129,4,3,1,30,1,0
77955,-100,4,3,1,30,0,1
87632,-100,4,3,1,30,0,0
88281,322.58064516129,4,3,1,30,1,1
97958,-100,4,3,1,30,0,0
98603,-100,4,3,1,30,0,1
107635,-100,4,3,1,30,0,0
108932,322.58064516129,4,3,1,30,1,1
119254,-100,4,3,1,30,0,0

[HitObjects]
192,192,1234,5,2,0:0:0:0:
320,192,1396,1,2,0:0:0:0:
192,192,1557,1,2,0:0:0:0:
64,192,1718,1,2,0:0:0:0:
192,192,1880,1,2,0:0:0:0:
448,192,1880,1,4,0:0:0:0:
64,192,2202,1,8,0:0:0:0:
192,192,2363,1,4,0:0:0:0:
448,192,2363,1,0,0:0:0:0:
320,192,2525,1,2,0:0:0:0:
192,192,2686,1,2,0:0:0:0:
64,192,2847,1,2,0:0:0:0:
192,192,3009,1,2,0:0:0:0:
64,192,3170,1,4,0:0:0:0:
448,192,3170,1,0,0:0:0:0:
320,192,3492,1,8,0:0:0:0:
448,192,3654,1,4,0:0:0:0:
64,192,3654,1,0,0:0:0:0:
192,192,3815,1,2,0:0:0:0:
320,192,3976,1,2,0:0:0:0:
192,192,4138,1,2,0:0:0:0:
64,192,4299,1,2,0:0:0:0:
192,192,4460,1,2,0:0:0:0:
448,192,4460,1,4,0:0:0:0:
320,192,4621,1,2,0:0:0:0:
192,192,4783,1,2,0:0:0:0:
64,192,4944,1,2,0:0:0:0:
448,192,4944,1,4,0:0:0:0:
192,192,5105,1,2,0:0:0:0:
320,192,5267,1,2,0:0:0:0:
64,192,5428,1,2,0:0:0:0:
448,192,5428,1,4,0:0:0:0:
192,192,5589,1,2,0:0:0:0:
64,192,5750,1,2,0:0:0:0:
320,192,5750,1,4,0:0:0:0:
448,192,6073,1,8,0:0:0:0:
64,192,6234,1,4,0:0:0:0:
320,192,6234,1,0,0:0:0:0:
192,192,6396,1,2,0:0:0:0:
320,192,6557,1,2,0:0:0:0:
192,192,6718,1,2,0:0:0:0:
64,192,6879,1,2,0:0:0:0:
448,192,7041,1,4,0:0:0:0:
192,192,7041,1,2,0:0:0:0:
448,192,7363,1,8,0:0:0:0:
64,192,7363,1,0,0:0:0:0:
64,192,7686,1,2,0:0:0:0:
320,192,7686,1,8,0:0:0:0:
192,192,7847,1,2,0:0:0:0:
320,192,8009,1,8,0:0:0:0:
192,192,8170,1,8,0:0:0:0:
320,192,8331,1,2,0:0:0:0:
64,192,8331,1,4,0:0:0:0:
448,192,8654,1,8,0:0:0:0:
64,192,8654,1,0,0:0:0:0:
192,192,8976,1,8,0:0:0:0:
448,192,8976,1,2,0:0:0:0:
320,192,9138,1,2,0:0:0:0:
192,192,9299,1,2,0:0:0:0:
320,192,9460,1,2,0:0:0:0:
64,192,9621,1,4,0:0:0:0:
448,192,9621,1,2,0:0:0:0:
192,192,9783,1,2,0:0:0:0:
320,192,9944,1,2,0:0:0:0:
64,192,9944,1,4,0:0:0:0:
448,192,10105,1,2,0:0:0:0:
192,192,10267,1,12,3:0:0:0:
64,192,10347,1,8,0:0:0:0:
320,192,10428,1,8,0:0:0:0:
448,192,10509,1,8,0:0:0:0:
64,192,10589,1,8,0:0:0:0:
192,192,10670,1,8,0:0:0:0:
448,192,10750,1,8,0:0:0:0:
320,192,10831,1,8,0:0:0:0:
64,192,10912,1,8,0:0:0:0:
192,192,10912,1,2,0:0:0:0:
448,192,11073,1,0,0:0:0:0:
192,192,11234,1,0,0:0:0:0:
320,192,11234,1,0,0:0:0:0:
448,192,11396,1,0,0:0:0:0:
64,192,11557,128,0,11879:0:0:0:0:
192,192,11557,128,0,11879:0:0:0:0:
448,192,11879,128,0,12214:0:0:0:0:
64,192,12214,1,4,0:0:0:0:
192,192,12214,1,8,0:0:0:0:
320,192,12375,1,0,0:0:0:0:
448,192,12536,1,8,0:0:0:0:
64,192,12536,1,0,0:0:0:0:
320,192,12859,1,8,0:0:0:0:
448,192,12859,1,0,0:0:0:0:
64,192,13101,1,0,0:0:0:0:
448,192,13181,1,8,0:0:0:0:
192,192,13181,1,0,0:0:0:0:
320,192,13343,1,0,0:0:0:0:
448,192,13504,1,8,0:0:0:0:
64,192,13504,1,0,0:0:0:0:
192,192,13665,1,0,0:0:0:0:
320,192,13826,1,8,0:0:0:0:
64,192,13826,1,0,0:0:0:0:
64,192,14149,1,8,0:0:0:0:
448,192,14149,1,0,0:0:0:0:
192,192,14391,1,0,0:0:0:0:
320,192,14472,1,8,0:0:0:0:
448,192,14472,1,0,0:0:0:0:
192,192,14633,1,0,0:0:0:0:
448,192,14794,1,8,0:0:0:0:
64,192,14794,1,0,0:0:0:0:
320,192,15036,1,0,0:0:0:0:
64,192,15117,1,8,0:0:0:0:
192,192,15117,1,0,0:0:0:0:
448,192,15278,1,0,0:0:0:0:
320,192,15439,1,8,0:0:0:0:
64,192,15439,1,0,0:0:0:0:
192,192,15681,1,0,0:0:0:0:
320,192,15762,1,8,0:0:0:0:
448,192,15762,1,0,0:0:0:0:
64,192,15923,1,0,0:0:0:0:
192,192,16084,1,8,0:0:0:0:
448,192,16084,1,0,0:0:0:0:
320,192,16326,1,0,0:0:0:0:
64,192,16407,1,8,0:0:0:0:
192,192,16407,1,0,0:0:0:0:
448,192,16568,1,0,0:0:0:0:
64,192,16730,1,4,0:0:0:0:
192,192,16730,1,0,0:0:0:0:
320,192,16730,1,0,0:0:0:0:
448,192,16972,1,4,0:0:0:0:
192,192,16972,1,0,0:0:0:0:
64,192,16972,1,0,0:0:0:0:
320,192,17213,1,4,0:0:0:0:
64,192,17213,1,0,0:0:0:0:
448,192,17375,1,8,0:0:0:0:
192,192,17375,1,4,0:0:0:0:
320,192,17536,1,0,0:0:0:0:
448,192,17697,1,8,0:0:0:0:
64,192,17697,1,0,0:0:0:0:
64,192,18020,1,8,0:0:0:0:
320,192,18020,1,4,0:0:0:0:
192,192,18181,1,0,0:0:0:0:
320,192,18343,1,8,0:0:0:0:
448,192,18343,1,0,0:0:0:0:
192,192,18665,1,4,0:0:0:0:
64,192,18665,1,8,0:0:0:0:
320,192,18826,1,8,0:0:0:0:
448,192,18826,1,0,0:0:0:0:
192,192,18988,1,4,0:0:0:0:
64,192,18988,1,8,0:0:0:0:
320,192,19149,1,8,0:0:0:0:
448,192,19149,1,0,0:0:0:0:
192,192,19310,1,4,0:0:0:0:
64,192,19310,1,8,0:0:0:0:
320,192,19472,1,0,0:0:0:0:
64,192,19552,1,8,0:0:0:0:
192,192,19552,1,4,0:0:0:0:
448,192,19633,1,0,0:0:0:0:
320,192,19713,1,0,0:0:0:0:
64,192,19794,1,4,0:0:0:0:
192,192,19875,1,0,0:0:0:0:
320,192,19955,1,8,0:0:0:0:
448,192,19955,1,0,0:0:0:0:
64,192,20036,1,8,0:0:0:0:
192,192,20197,1,8,0:0:0:0:
448,192,20197,128,0,20439:0:0:0:0:
320,192,20439,1,8,0:0:0:0:
192,192,20520,1,8,0:0:0:0:
64,192,20601,1,8,0:0:0:0:
448,192,20601,1,0,0:0:0:0:
320,192,20681,1,8,0:0:0:0:
64,192,20762,1,8,0:0:0:0:
192,192,20843,1,8,0:0:0:0:
448,192,20923,1,8,0:0:0:0:
320,192,21004,1,8,0:0:0:0:
192,192,21084,1,8,0:0:0:0:
64,192,21165,1,8,0:0:0:0:
320,192,21246,1,8,0:0:0:0:
448,192,21246,1,0,0:0:0:0:
192,192,21326,1,8,0:0:0:0:
64,192,21488,1,8,0:0:0:0:
448,192,21488,128,0,21730:0:0:0:0:
192,192,21730,1,8,0:0:0:0:
64,192,21730,1,4,0:0:0:0:
448,192,21891,1,8,0:0:0:0:
320,192,21972,1,8,0:0:0:0:
64,192,22052,1,8,0:0:0:0:
192,192,22133,1,8,0:0:0:0:
448,192,22213,1,8,0:0:0:0:
320,192,22294,1,8,0:0:0:0:
192,192,22375,1,8,0:0:0:0:
64,192,22455,1,8,0:0:0:0:
448,192,22534,5,12,0:0:0:0:
320,192,22534,1,0,0:0:0:0:
192,192,22668,1,0,0:0:0:0:
320,192,22829,1,8,0:0:0:0:
448,192,22829,1,0,0:0:0:0:
64,192,22990,1,0,0:0:0:0:
320,192,23152,1,8,0:0:0:0:
448,192,23152,1,0,0:0:0:0:
192,192,23313,1,0,0:0:0:0:
320,192,23474,1,8,0:0:0:0:
448,192,23474,1,0,0:0:0:0:
64,192,23636,1,0,0:0:0:0:
448,192,23798,1,4,0:0:0:0:
192,192,23798,1,8,0:0:0:0:
320,192,24120,1,8,0:0:0:0:
64,192,24281,1,4,0:0:0:0:
192,192,24281,1,8,0:0:0:0:
64,192,24604,1,4,0:0:0:0:
192,192,24604,1,8,0:0:0:0:
320,192,24927,1,8,0:0:0:0:
448,192,24927,1,4,0:0:0:0:
64,192,25088,1,8,0:0:0:0:
192,192,25088,1,4,0:0:0:0:
448,192,25249,1,0,0:0:0:0:
192,192,25410,1,8,0:0:0:0:
64,192,25410,1,0,0:0:0:0:
320,192,25572,1,0,0:0:0:0:
192,192,25733,1,8,0:0:0:0:
64,192,25733,1,0,0:0:0:0:
448,192,25894,1,0,0:0:0:0:
192,192,26056,1,8,0:0:0:0:
64,192,26056,1,0,0:0:0:0:
320,192,26217,1,0,0:0:0:0:
448,192,26378,1,4,0:0:0:0:
64,192,26378,1,8,0:0:0:0:
64,192,26701,1,4,0:0:0:0:
448,192,26701,1,8,0:0:0:0:
192,192,26862,1,4,0:0:0:0:
320,192,26862,1,8,0:0:0:0:
192,192,27185,1,8,0:0:0:0:
320,192,27185,1,4,0:0:0:0:
320,192,27507,1,8,0:0:0:0:
192,192,27507,1,4,0:0:0:0:
64,192,27668,1,8,0:0:0:0:
448,192,27668,1,4,0:0:0:0:
192,192,27830,1,0,0:0:0:0:
320,192,27991,1,8,0:0:0:0:
64,192,27991,1,0,0:0:0:0:
448,192,28152,1,0,0:0:0:0:
320,192,28233,1,0,0:0:0:0:
64,192,28314,1,8,0:0:0:0:
192,192,28314,1,0,0:0:0:0:
320,192,28475,1,0,0:0:0:0:
192,192,28636,1,8,0:0:0:0:
448,192,28636,1,0,0:0:0:0:
64,192,28797,1,0,0:0:0:0:
192,192,28878,1,0,0:0:0:0:
320,192,28959,1,8,0:0:0:0:
448,192,28959,1,4,0:0:0:0:
64,192,29120,1,0,0:0:0:0:
192,192,29281,1,8,0:0:0:0:
448,192,29281,1,0,0:0:0:0:
320,192,29443,1,0,0:0:0:0:
192,192,29523,1,0,0:0:0:0:
448,192,29604,1,8,0:0:0:0:
64,192,29604,1,0,0:0:0:0:
192,192,29765,1,0,0:0:0:0:
448,192,29927,1,8,0:0:0:0:
320,192,29927,1,0,0:0:0:0:
64,192,30088,1,0,0:0:0:0:
192,192,30168,1,0,0:0:0:0:
448,192,30249,128,8,30894:0:0:0:0:
320,192,30249,1,4,0:0:0:0:
64,192,30572,128,8,30894:0:0:0:0:
192,192,30894,1,0,0:0:0:0:
320,192,30894,128,12,31539:0:0:0:0:
448,192,31217,128,8,31539:0:0:0:0:
192,192,31539,1,0,0:0:0:0:
64,192,31539,1,4,0:0:0:0:
320,192,31862,1,2,0:0:0:0:
192,192,32023,1,2,0:0:0:0:
64,192,32185,1,2,0:0:0:0:
192,192,32346,1,2,0:0:0:0:
320,192,32507,1,2,0:0:0:0:
192,192,32668,1,2,0:0:0:0:
448,192,32830,1,8,0:0:0:0:
64,192,32830,1,4,0:0:0:0:
320,192,32991,1,8,0:0:0:0:
64,192,32991,1,4,0:0:0:0:
448,192,33152,1,8,0:0:0:0:
192,192,33152,1,4,0:0:0:0:
64,192,33314,1,8,0:0:0:0:
448,192,33314,1,4,0:0:0:0:
64,192,33475,1,4,0:0:0:0:
320,192,33475,128,8,33797:0:0:0:0:
64,192,33797,128,0,34120:0:0:0:0:
448,192,33797,128,0,34120:0:0:0:0:
192,192,34120,1,8,0:0:0:0:
320,192,34120,1,0,0:0:0:0:
64,192,34281,1,0,0:0:0:0:
192,192,34362,1,0,0:0:0:0:
320,192,34443,1,8,0:0:0:0:
448,192,34443,1,0,0:0:0:0:
192,192,34604,1,0,0:0:0:0:
320,192,34685,1,0,0:0:0:0:
448,192,34765,1,8,0:0:0:0:
64,192,34765,1,0,0:0:0:0:
192,192,34846,1,0,0:0:0:0:
320,192,34927,1,0,0:0:0:0:
192,192,35007,1,0,0:0:0:0:
320,192,35088,1,8,0:0:0:0:
64,192,35088,1,0,0:0:0:0:
192,192,35249,1,0,0:0:0:0:
64,192,35410,1,8,0:0:0:0:
448,192,35410,1,0,0:0:0:0:
320,192,35572,1,0,0:0:0:0:
192,192,35652,1,0,0:0:0:0:
320,192,35733,1,8,0:0:0:0:
448,192,35733,1,0,0:0:0:0:
64,192,35814,1,0,0:0:0:0:
192,192,35894,1,0,0:0:0:0:
448,192,36056,1,8,0:0:0:0:
64,192,36056,1,0,0:0:0:0:
320,192,36136,1,0,0:0:0:0:
192,192,36217,1,0,0:0:0:0:
320,192,36378,1,8,0:0:0:0:
64,192,36378,1,0,0:0:0:0:
192,192,36539,1,0,0:0:0:0:
64,192,36701,1,8,0:0:0:0:
448,192,36701,1,0,0:0:0:0:
320,192,36862,1,0,0:0:0:0:
192,192,36943,1,0,0:0:0:0:
320,192,37023,1,8,0:0:0:0:
448,192,37023,1,0,0:0:0:0:
192,192,37185,1,0,0:0:0:0:
64,192,37265,1,0,0:0:0:0:
192,192,37346,1,8,0:0:0:0:
448,192,37346,1,0,0:0:0:0:
320,192,37427,1,0,0:0:0:0:
64,192,37507,1,0,0:0:0:0:
192,192,37588,1,0,0:0:0:0:
320,192,37668,1,8,0:0:0:0:
448,192,37668,1,0,0:0:0:0:
192,192,37749,1,0,0:0:0:0:
64,192,37830,1,0,0:0:0:0:
448,192,37991,1,8,0:0:0:0:
192,192,37991,1,0,0:0:0:0:
320,192,38072,1,0,0:0:0:0:
192,192,38152,1,0,0:0:0:0:
64,192,38314,1,8,0:0:0:0:
320,192,38314,1,0,0:0:0:0:
448,192,38475,1,0,0:0:0:0:
320,192,38556,1,0,0:0:0:0:
192,192,38636,1,8,0:0:0:0:
64,192,38636,128,0,39281:0:0:0:0:
320,192,38797,1,0,0:0:0:0:
448,192,38959,1,8,0:0:0:0:
192,192,38959,1,0,0:0:0:0:
320,192,39120,1,0,0:0:0:0:
448,192,39281,1,4,0:0:0:0:
192,192,39281,1,8,0:0:0:0:
320,192,39443,1,0,0:0:0:0:
192,192,39523,1,0,0:0:0:0:
64,192,39604,1,8,0:0:0:0:
448,192,39604,1,0,0:0:0:0:
192,192,39765,1,0,0:0:0:0:
320,192,39846,1,0,0:0:0:0:
448,192,39927,1,8,0:0:0:0:
64,192,39927,1,0,0:0:0:0:
192,192,40007,1,0,0:0:0:0:
320,192,40088,1,0,0:0:0:0:
192,192,40168,1,0,0:0:0:0:
64,192,40249,1,8,0:0:0:0:
448,192,40249,1,0,0:0:0:0:
320,192,40410,1,0,0:0:0:0:
192,192,40491,1,0,0:0:0:0:
64,192,40572,1,8,0:0:0:0:
448,192,40572,1,0,0:0:0:0:
320,192,40652,1,0,0:0:0:0:
192,192,40733,1,0,0:0:0:0:
320,192,40814,1,0,0:0:0:0:
64,192,40894,1,8,0:0:0:0:
448,192,40894,1,0,0:0:0:0:
192,192,41056,1,0,0:0:0:0:
448,192,41217,1,8,0:0:0:0:
64,192,41217,1,0,0:0:0:0:
320,192,41297,1,0,0:0:0:0:
192,192,41378,1,0,0:0:0:0:
448,192,41539,1,8,0:0:0:0:
64,192,41539,1,0,0:0:0:0:
320,192,41701,1,0,0:0:0:0:
64,192,41862,1,8,0:0:0:0:
448,192,41862,1,4,0:0:0:0:
192,192,42023,1,0,0:0:0:0:
320,192,42185,1,8,0:0:0:0:
64,192,42185,1,0,0:0:0:0:
448,192,42346,1,8,0:0:0:0:
192,192,42346,1,0,0:0:0:0:
64,192,42507,1,4,0:0:0:0:
448,192,42507,1,8,0:0:0:0:
192,192,42668,1,0,0:0:0:0:
64,192,42830,1,8,0:0:0:0:
448,192,42830,1,0,0:0:0:0:
320,192,42991,1,8,0:0:0:0:
192,192,42991,1,0,0:0:0:0:
192,192,43152,1,4,0:0:0:0:
448,192,43152,1,8,0:0:0:0:
448,192,43314,1,8,0:0:0:0:
64,192,43314,1,0,0:0:0:0:
192,192,43475,1,8,0:0:0:0:
320,192,43475,1,0,0:0:0:0:
64,192,43636,1,8,0:0:0:0:
448,192,43636,1,0,0:0:0:0:
320,192,43797,1,0,0:0:0:0:
64,192,43797,1,0,0:0:0:0:
192,192,43959,1,0,0:0:0:0:
448,192,43959,1,0,0:0:0:0:
64,192,44120,1,0,0:0:0:0:
320,192,44120,128,0,44281:0:0:0:0:
448,192,44281,128,0,44443:0:0:0:0:
192,192,44448,1,8,0:0:0:0:
64,192,44448,1,4,0:0:0:0:
320,192,44609,1,0,0:0:0:0:
192,192,44689,1,0,0:0:0:0:
448,192,44770,1,8,0:0:0:0:
64,192,44770,1,0,0:0:0:0:
192,192,44931,1,0,0:0:0:0:
320,192,45093,1,8,0:0:0:0:
64,192,45093,1,0,0:0:0:0:
448,192,45254,1,0,0:0:0:0:
448,192,45415,1,8,0:0:0:0:
192,192,45415,1,0,0:0:0:0:
192,192,45577,1,0,0:0:0:0:
64,192,45738,1,8,0:0:0:0:
448,192,45738,1,0,0:0:0:0:
320,192,45899,1,0,0:0:0:0:
192,192,45980,1,0,0:0:0:0:
320,192,46060,1,8,0:0:0:0:
448,192,46060,1,0,0:0:0:0:
64,192,46222,1,0,0:0:0:0:
192,192,46383,1,8,0:0:0:0:
448,192,46383,1,0,0:0:0:0:
320,192,46491,1,0,0:0:0:0:
192,192,46598,1,0,0:0:0:0:
320,192,46706,1,8,0:0:0:0:
64,192,46706,1,0,0:0:0:0:
192,192,46867,1,0,0:0:0:0:
64,192,47028,1,8,0:0:0:0:
448,192,47028,1,0,0:0:0:0:
320,192,47189,1,0,0:0:0:0:
192,192,47270,1,0,0:0:0:0:
64,192,47351,1,8,0:0:0:0:
448,192,47351,1,0,0:0:0:0:
320,192,47512,1,0,0:0:0:0:
64,192,47673,1,8,0:0:0:0:
448,192,47673,1,0,0:0:0:0:
192,192,47835,1,0,0:0:0:0:
192,192,47996,1,8,0:0:0:0:
448,192,47996,1,0,0:0:0:0:
448,192,48157,1,0,0:0:0:0:
320,192,48318,1,8,0:0:0:0:
64,192,48318,1,0,0:0:0:0:
192,192,48480,1,0,0:0:0:0:
320,192,48560,1,0,0:0:0:0:
448,192,48641,1,8,0:0:0:0:
64,192,48641,1,0,0:0:0:0:
192,192,48802,1,0,0:0:0:0:
448,192,48964,1,8,0:0:0:0:
64,192,48964,1,0,0:0:0:0:
320,192,49125,1,0,0:0:0:0:
448,192,49286,1,8,0:0:0:0:
192,192,49286,1,0,0:0:0:0:
320,192,49367,1,0,0:0:0:0:
192,192,49447,1,0,0:0:0:0:
320,192,49528,1,0,0:0:0:0:
64,192,49609,5,8,0:0:0:0:
448,192,49609,1,4,0:0:0:0:
192,192,49770,1,0,0:0:0:0:
192,192,49931,1,8,0:0:0:0:
192,192,50093,1,0,0:0:0:0:
64,192,50254,1,4,0:0:0:0:
448,192,50254,1,8,0:0:0:0:
320,192,50415,1,0,0:0:0:0:
320,192,50577,1,8,0:0:0:0:
320,192,50738,1,0,0:0:0:0:
448,192,50899,1,8,0:0:0:0:
192,192,50899,1,4,0:0:0:0:
64,192,51060,1,0,0:0:0:0:
64,192,51222,1,8,0:0:0:0:
64,192,51383,1,0,0:0:0:0:
192,192,51544,1,8,0:0:0:0:
448,192,51544,1,4,0:0:0:0:
320,192,51706,1,0,0:0:0:0:
320,192,51867,1,8,0:0:0:0:
320,192,52028,1,0,0:0:0:0:
448,192,52189,1,4,0:0:0:0:
64,192,52189,1,8,0:0:0:0:
192,192,52270,1,0,0:0:0:0:
320,192,52351,1,0,0:0:0:0:
192,192,52431,1,4,0:0:0:0:
64,192,52512,1,0,0:0:0:0:
448,192,52593,1,0,0:0:0:0:
320,192,52673,1,4,0:0:0:0:
64,192,52754,1,0,0:0:0:0:
192,192,52835,1,8,0:0:0:0:
448,192,52835,1,4,0:0:0:0:
320,192,52915,1,0,0:0:0:0:
64,192,52996,1,0,0:0:0:0:
192,192,53077,1,8,0:0:0:0:
448,192,53157,1,0,0:0:0:0:
320,192,53238,1,0,0:0:0:0:
64,192,53318,1,4,0:0:0:0:
192,192,53399,1,0,0:0:0:0:
320,192,53480,1,8,0:0:0:0:
448,192,53480,1,4,0:0:0:0:
64,192,53560,1,0,0:0:0:0:
192,192,53641,1,8,0:0:0:0:
320,192,53722,1,0,0:0:0:0:
448,192,53802,1,8,0:0:0:0:
64,192,53802,1,0,0:0:0:0:
320,192,53883,1,0,0:0:0:0:
192,192,53964,1,8,0:0:0:0:
64,192,54044,1,0,0:0:0:0:
320,192,54125,1,8,0:0:0:0:
448,192,54206,1,8,0:0:0:0:
192,192,54286,1,8,0:0:0:0:
64,192,54367,1,8,0:0:0:0:
320,192,54447,1,8,0:0:0:0:
448,192,54528,1,8,0:0:0:0:
64,192,54609,1,8,0:0:0:0:
192,192,54689,1,8,0:0:0:0:
320,192,54770,1,8,0:0:0:0:
448,192,54770,128,0,56706:0:0:0:0:
64,192,57028,128,0,57189:0:0:0:0:
448,192,57189,128,0,57347:0:0:0:0:
192,192,57347,128,4,57992:0:0:0:0:
64,192,57347,1,0,0:0:0:0:
448,192,57992,128,0,58637:0:0:0:0:
64,192,58637,128,0,58959:0:0:0:0:
448,192,58959,128,0,59121:0:0:0:0:
64,192,59121,128,0,59443:0:0:0:0:
320,192,59443,128,0,59766:0:0:0:0:
448,192,59766,128,0,60088:0:0:0:0:
64,192,60088,128,0,60250:0:0:0:0:
320,192,60250,128,0,60411:0:0:0:0:
64,192,60411,128,0,60572:0:0:0:0:
448,192,60572,128,0,60734:0:0:0:0:
64,192,60734,128,0,60895:0:0:0:0:
320,192,60895,128,0,61056:0:0:0:0:
64,192,61056,128,0,61863:0:0:0:0:
320,192,62185,128,0,62346:0:0:0:0:
64,192,62346,128,0,62508:0:0:0:0:
448,192,62508,128,0,63153:0:0:0:0:
64,192,63153,128,0,63798:0:0:0:0:
320,192,63798,128,0,64121:0:0:0:0:
64,192,64121,128,0,64282:0:0:0:0:
320,192,64282,128,0,64605:0:0:0:0:
64,192,64605,128,0,64927:0:0:0:0:
448,192,64927,128,0,65250:0:0:0:0:
192,192,65250,128,0,65411:0:0:0:0:
448,192,65411,128,0,65572:0:0:0:0:
64,192,65572,128,0,65734:0:0:0:0:
448,192,65734,128,0,65895:0:0:0:0:
192,192,65895,128,0,66056:0:0:0:0:
320,192,66056,128,0,66217:0:0:0:0:
64,192,66217,128,0,67024:0:0:0:0:
448,192,67346,128,0,67508:0:0:0:0:
320,192,67508,128,0,67669:0:0:0:0:
192,192,67669,1,8,0:0:0:0:
64,192,67669,128,4,68314:0:0:0:0:
192,192,67992,1,8,0:0:0:0:
192,192,68314,1,8,0:0:0:0:
448,192,68314,128,0,68959:0:0:0:0:
192,192,68637,1,8,0:0:0:0:
192,192,68959,1,8,0:0:0:0:
64,192,68959,128,0,69282:0:0:0:0:
320,192,69282,128,8,69443:0:0:0:0:
448,192,69282,1,0,0:0:0:0:
64,192,69443,128,0,69766:0:0:0:0:
448,192,69605,1,8,0:0:0:0:
320,192,69766,1,4,0:0:0:0:
192,192,69766,128,0,70088:0:0:0:0:
448,192,69927,1,8,0:0:0:0:
64,192,70088,128,4,70411:0:0:0:0:
320,192,70088,1,0,0:0:0:0:
448,192,70250,1,8,0:0:0:0:
320,192,70411,128,0,70572:0:0:0:0:
192,192,70572,128,8,70734:0:0:0:0:
448,192,70572,1,0,0:0:0:0:
64,192,70734,128,0,70895:0:0:0:0:
448,192,70895,1,8,0:0:0:0:
320,192,70895,128,0,71056:0:0:0:0:
192,192,71056,128,0,71217:0:0:0:0:
320,192,71217,128,8,71379:0:0:0:0:
448,192,71217,1,0,0:0:0:0:
64,192,71379,128,0,72185:0:0:0:0:
448,192,71540,1,12,0:0:0:0:
192,192,71540,1,0,0:0:0:0:
448,192,71863,1,8,0:0:0:0:
448,192,72185,1,8,0:0:0:0:
192,192,72185,1,4,0:0:0:0:
320,192,72427,1,4,0:0:0:0:
64,192,72427,1,8,0:0:0:0:
448,192,72669,1,4,0:0:0:0:
192,192,72669,1,8,0:0:0:0:
320,192,72830,1,4,0:0:0:0:
64,192,72830,1,8,0:0:0:0:
448,192,72992,1,0,0:0:0:0:
320,192,73072,1,0,0:0:0:0:
192,192,73153,1,8,0:0:0:0:
64,192,73153,1,0,0:0:0:0:
320,192,73314,1,0,0:0:0:0:
192,192,73395,1,0,0:0:0:0:
448,192,73476,1,4,0:0:0:0:
64,192,73476,1,8,0:0:0:0:
320,192,73637,1,0,0:0:0:0:
64,192,73798,1,8,0:0:0:0:
448,192,73798,1,0,0:0:0:0:
192,192,73959,1,0,0:0:0:0:
320,192,74040,1,0,0:0:0:0:
448,192,74121,1,8,0:0:0:0:
64,192,74121,1,4,0:0:0:0:
192,192,74282,1,0,0:0:0:0:
320,192,74443,1,8,0:0:0:0:
448,192,74443,1,0,0:0:0:0:
192,192,74605,1,4,0:0:0:0:
64,192,74685,1,0,0:0:0:0:
320,192,74766,1,0,0:0:0:0:
448,192,74846,1,0,0:0:0:0:
64,192,74927,1,4,0:0:0:0:
192,192,75008,1,0,0:0:0:0:
448,192,75088,1,0,0:0:0:0:
320,192,75169,1,0,0:0:0:0:
64,192,75250,1,4,0:0:0:0:
192,192,75330,1,0,0:0:0:0:
448,192,75411,128,0,76665:0:0:0:0:
320,192,75411,1,0,0:0:0:0:
320,192,76056,128,4,76665:0:0:0:0:
64,192,76665,1,8,0:0:0:0:
192,192,76906,1,0,0:0:0:0:
320,192,77148,1,0,0:0:0:0:
192,192,77310,128,0,77632:0:0:0:0:
64,192,77310,128,0,77632:0:0:0:0:
448,192,77632,128,0,77955:0:0:0:0:
64,192,77955,1,0,0:0:0:0:
320,192,77955,1,4,0:0:0:0:
192,192,78197,1,0,0:0:0:0:
320,192,78277,1,8,0:0:0:0:
448,192,78277,1,0,0:0:0:0:
64,192,78439,1,0,0:0:0:0:
448,192,78600,1,0,0:0:0:0:
192,192,78600,1,0,0:0:0:0:
320,192,78842,1,0,0:0:0:0:
192,192,78923,1,8,0:0:0:0:
64,192,78923,1,0,0:0:0:0:
448,192,79084,1,0,0:0:0:0:
320,192,79245,1,0,0:0:0:0:
64,192,79245,1,0,0:0:0:0:
64,192,79487,1,0,0:0:0:0:
320,192,79568,1,8,0:0:0:0:
192,192,79568,1,0,0:0:0:0:
448,192,79729,1,0,0:0:0:0:
64,192,79890,1,0,0:0:0:0:
320,192,79890,1,0,0:0:0:0:
192,192,80132,1,0,0:0:0:0:
320,192,80213,1,8,0:0:0:0:
448,192,80213,1,0,0:0:0:0:
64,192,80374,1,0,0:0:0:0:
448,192,80535,1,0,0:0:0:0:
192,192,80535,1,0,0:0:0:0:
448,192,80777,1,0,0:0:0:0:
64,192,80858,1,8,0:0:0:0:
320,192,80858,1,0,0:0:0:0:
192,192,81019,1,0,0:0:0:0:
448,192,81181,1,0,0:0:0:0:
320,192,81181,1,0,0:0:0:0:
64,192,81423,1,0,0:0:0:0:
320,192,81503,1,8,0:0:0:0:
192,192,81503,1,0,0:0:0:0:
448,192,81665,1,0,0:0:0:0:
64,192,81826,1,0,0:0:0:0:
192,192,81826,1,0,0:0:0:0:
448,192,82068,1,0,0:0:0:0:
320,192,82148,1,8,0:0:0:0:
64,192,82148,1,0,0:0:0:0:
192,192,82310,1,0,0:0:0:0:
448,192,82471,1,0,0:0:0:0:
64,192,82471,1,0,0:0:0:0:
64,192,82713,1,0,0:0:0:0:
192,192,82794,1,8,0:0:0:0:
448,192,82794,1,0,0:0:0:0:
448,192,82955,1,0,0:0:0:0:
192,192,82955,1,0,0:0:0:0:
320,192,83116,1,4,0:0:0:0:
64,192,83116,1,0,0:0:0:0:
448,192,83358,1,0,0:0:0:0:
192,192,83439,1,8,0:0:0:0:
320,192,83439,1,0,0:0:0:0:
64,192,83600,1,0,0:0:0:0:
448,192,83761,1,0,0:0:0:0:
192,192,83761,1,0,0:0:0:0:
320,192,84003,1,0,0:0:0:0:
192,192,84084,1,8,0:0:0:0:
64,192,84084,1,0,0:0:0:0:
448,192,84245,1,0,0:0:0:0:
320,192,84406,1,0,0:0:0:0:
64,192,84406,1,0,0:0:0:0:
192,192,84648,1,0,0:0:0:0:
64,192,84729,1,8,0:0:0:0:
448,192,84729,1,0,0:0:0:0:
320,192,84890,1,0,0:0:0:0:
192,192,85052,1,0,0:0:0:0:
64,192,85052,1,0,0:0:0:0:
448,192,85294,1,0,0:0:0:0:
192,192,85374,1,8,0:0:0:0:
320,192,85374,1,0,0:0:0:0:
64,192,85535,1,0,0:0:0:0:
448,192,85697,1,8,0:0:0:0:
320,192,85697,1,0,0:0:0:0:
64,192,85858,1,8,0:0:0:0:
192,192,85858,1,0,0:0:0:0:
320,192,86019,1,0,0:0:0:0:
448,192,86019,1,8,0:0:0:0:
64,192,86181,1,8,0:0:0:0:
192,192,86181,1,0,0:0:0:0:
448,192,86342,1,8,0:0:0:0:
320,192,86342,1,0,0:0:0:0:
64,192,86503,1,8,0:0:0:0:
192,192,86503,1,0,0:0:0:0:
448,192,86664,1,8,0:0:0:0:
320,192,86664,1,0,0:0:0:0:
64,192,86826,1,8,0:0:0:0:
192,192,86826,1,0,0:0:0:0:
320,192,86987,1,4,0:0:0:0:
448,192,86987,1,8,0:0:0:0:
320,192,87229,1,8,0:0:0:0:
448,192,87229,1,4,0:0:0:0:
448,192,87471,1,4,0:0:0:0:
320,192,87471,1,8,0:0:0:0:
64,192,87632,128,0,87955:0:0:0:0:
320,192,87794,1,0,0:0:0:0:
448,192,87955,1,0,0:0:0:0:
320,192,87955,1,0,0:0:0:0:
192,192,88116,1,0,0:0:0:0:
64,192,88281,1,4,0:0:0:0:
320,192,88281,1,8,0:0:0:0:
192,192,88442,1,0,0:0:0:0:
320,192,88522,1,0,0:0:0:0:
64,192,88603,1,8,0:0:0:0:
192,192,88684,1,0,0:0:0:0:
448,192,88764,1,0,0:0:0:0:
320,192,88845,1,0,0:0:0:0:
192,192,88926,1,8,0:0:0:0:
64,192,89006,1,0,0:0:0:0:
320,192,89087,1,0,0:0:0:0:
192,192,89168,1,0,0:0:0:0:
448,192,89248,1,8,0:0:0:0:
64,192,89248,128,0,89571:0:0:0:0:
320,192,89410,1,0,0:0:0:0:
448,192,89571,1,8,0:0:0:0:
192,192,89571,1,0,0:0:0:0:
64,192,89732,1,0,0:0:0:0:
192,192,89813,1,0,0:0:0:0:
448,192,89893,1,8,0:0:0:0:
320,192,89974,1,0,0:0:0:0:
192,192,90055,1,0,0:0:0:0:
64,192,90135,1,0,0:0:0:0:
320,192,90216,1,8,0:0:0:0:
448,192,90297,1,0,0:0:0:0:
64,192,90377,1,0,0:0:0:0:
192,192,90458,1,0,0:0:0:0:
320,192,90539,1,8,0:0:0:0:
448,192,90539,128,0,90861:0:0:0:0:
192,192,90700,1,8,0:0:0:0:
320,192,90861,1,8,0:0:0:0:
64,192,90861,1,0,0:0:0:0:
192,192,91022,1,0,0:0:0:0:
320,192,91103,1,0,0:0:0:0:
192,192,91184,1,8,0:0:0:0:
448,192,91264,1,0,0:0:0:0:
320,192,91345,1,0,0:0:0:0:
192,192,91426,1,0,0:0:0:0:
64,192,91506,1,8,0:0:0:0:
448,192,91587,1,0,0:0:0:0:
320,192,91668,1,0,0:0:0:0:
64,192,91748,1,0,0:0:0:0:
192,192,91829,1,8,0:0:0:0:
320,192,91910,1,0,0:0:0:0:
64,192,91990,1,0,0:0:0:0:
192,192,92071,1,0,0:0:0:0:
448,192,92151,1,8,0:0:0:0:
320,192,92232,1,0,0:0:0:0:
192,192,92313,1,0,0:0:0:0:
64,192,92393,1,0,0:0:0:0:
448,192,92474,1,8,0:0:0:0:
192,192,92474,1,0,0:0:0:0:
320,192,92635,1,0,0:0:0:0:
192,192,92716,1,0,0:0:0:0:
64,192,92797,1,8,0:0:0:0:
192,192,92877,1,0,0:0:0:0:
320,192,92958,1,0,0:0:0:0:
64,192,93119,128,8,93442:0:0:0:0:
192,192,93119,1,0,0:0:0:0:
448,192,93281,1,8,0:0:0:0:
320,192,93361,1,8,0:0:0:0:
192,192,93442,1,8,0:0:0:0:
448,192,93442,1,0,0:0:0:0:
320,192,93603,1,0,0:0:0:0:
448,192,93684,1,0,0:0:0:0:
64,192,93764,1,8,0:0:0:0:
192,192,93845,1,0,0:0:0:0:
320,192,93926,1,0,0:0:0:0:
448,192,94006,1,0,0:0:0:0:
64,192,94087,1,8,0:0:0:0:
192,192,94168,1,0,0:0:0:0:
320,192,94248,1,0,0:0:0:0:
192,192,94329,1,0,0:0:0:0:
64,192,94410,1,8,0:0:0:0:
320,192,94410,1,0,0:0:0:0:
64,192,94571,1,8,0:0:0:0:
320,192,94571,1,0,0:0:0:0:
448,192,94732,1,8,0:0:0:0:
192,192,94732,1,0,0:0:0:0:
320,192,94813,1,0,0:0:0:0:
192,192,94893,1,0,0:0:0:0:
320,192,94974,1,0,0:0:0:0:
448,192,95055,1,0,0:0:0:0:
320,192,95216,1,8,0:0:0:0:
64,192,95216,1,0,0:0:0:0:
192,192,95297,1,0,0:0:0:0:
320,192,95377,1,0,0:0:0:0:
192,192,95458,1,0,0:0:0:0:
64,192,95539,1,0,0:0:0:0:
192,192,95700,1,8,0:0:0:0:
448,192,95700,128,0,96022:0:0:0:0:
320,192,95861,128,0,96022:0:0:0:0:
192,192,96022,1,8,0:0:0:0:
64,192,96022,1,0,0:0:0:0:
64,192,96184,1,8,0:0:0:0:
192,192,96345,1,8,0:0:0:0:
192,192,96506,1,8,0:0:0:0:
448,192,96668,1,8,0:0:0:0:
64,192,96668,1,0,0:0:0:0:
320,192,96748,1,8,0:0:0:0:
192,192,96829,5,8,0:0:0:0:
64,192,96910,1,8,0:0:0:0:
448,192,96990,1,8,0:0:0:0:
320,192,97071,1,8,0:0:0:0:
64,192,97151,1,8,0:0:0:0:
192,192,97232,1,8,0:0:0:0:
320,192,97313,1,8,0:0:0:0:
448,192,97313,1,4,0:0:0:0:
192,192,97474,1,8,0:0:0:0:
448,192,97635,1,4,0:0:0:0:
192,192,97716,1,8,0:0:0:0:
64,192,97877,1,4,0:0:0:0:
192,192,98039,1,0,0:0:0:0:
320,192,98119,1,0,0:0:0:0:
192,192,98200,1,0,0:0:0:0:
64,192,98280,128,8,98603:0:0:0:0:
192,192,98603,1,4,0:0:0:0:
448,192,98603,1,8,0:0:0:0:
320,192,98684,1,0,0:0:0:0:
192,192,98764,1,0,0:0:0:0:
64,192,98926,1,8,0:0:0:0:
448,192,98926,1,0,0:0:0:0:
192,192,99087,1,0,0:0:0:0:
320,192,99168,1,0,0:0:0:0:
192,192,99248,1,8,0:0:0:0:
448,192,99248,1,0,0:0:0:0:
320,192,99410,1,0,0:0:0:0:
192,192,99490,1,0,0:0:0:0:
64,192,99571,1,8,0:0:0:0:
448,192,99571,1,0,0:0:0:0:
320,192,99651,1,0,0:0:0:0:
192,192,99732,1,0,0:0:0:0:
320,192,99813,1,0,0:0:0:0:
64,192,99893,1,8,0:0:0:0:
448,192,99893,1,0,0:0:0:0:
192,192,99974,1,0,0:0:0:0:
320,192,100055,1,0,0:0:0:0:
448,192,100216,1,8,0:0:0:0:
64,192,100216,1,0,0:0:0:0:
192,192,100377,1,0,0:0:0:0:
320,192,100458,1,0,0:0:0:0:
64,192,100539,1,8,0:0:0:0:
448,192,100539,1,0,0:0:0:0:
192,192,100700,1,0,0:0:0:0:
320,192,100780,1,0,0:0:0:0:
192,192,100861,1,8,0:0:0:0:
64,192,100861,1,0,0:0:0:0:
448,192,100942,1,0,0:0:0:0:
320,192,101022,1,0,0:0:0:0:
192,192,101103,1,0,0:0:0:0:
448,192,101184,1,8,0:0:0:0:
64,192,101184,1,0,0:0:0:0:
64,192,101426,1,0,0:0:0:0:
192,192,101506,1,8,0:0:0:0:
448,192,101506,1,0,0:0:0:0:
64,192,101668,1,0,0:0:0:0:
448,192,101829,1,8,0:0:0:0:
192,192,101829,1,0,0:0:0:0:
64,192,101910,1,0,0:0:0:0:
448,192,102151,1,8,0:0:0:0:
192,192,102151,1,0,0:0:0:0:
320,192,102313,1,0,0:0:0:0:
448,192,102474,1,8,0:0:0:0:
64,192,102474,1,0,0:0:0:0:
448,192,102716,1,0,0:0:0:0:
320,192,102797,1,8,0:0:0:0:
64,192,102797,1,0,0:0:0:0:
448,192,102958,1,0,0:0:0:0:
320,192,103119,1,8,0:0:0:0:
64,192,103119,1,0,0:0:0:0:
448,192,103200,1,0,0:0:0:0:
320,192,103442,1,8,0:0:0:0:
64,192,103442,1,0,0:0:0:0:
192,192,103603,1,8,0:0:0:0:
448,192,103603,1,0,0:0:0:0:
64,192,103764,1,4,0:0:0:0:
448,192,103764,1,8,0:0:0:0:
320,192,103845,1,0,0:0:0:0:
192,192,103926,1,0,0:0:0:0:
320,192,104087,1,8,0:0:0:0:
64,192,104087,1,0,0:0:0:0:
192,192,104248,1,0,0:0:0:0:
320,192,104329,1,0,0:0:0:0:
448,192,104410,1,8,0:0:0:0:
64,192,104410,1,0,0:0:0:0:
192,192,104571,1,0,0:0:0:0:
320,192,104651,1,0,0:0:0:0:
192,192,104732,1,8,0:0:0:0:
448,192,104732,1,0,0:0:0:0:
64,192,104813,1,0,0:0:0:0:
192,192,104893,1,0,0:0:0:0:
320,192,104974,1,0,0:0:0:0:
448,192,105055,1,4,0:0:0:0:
64,192,105055,1,0,0:0:0:0:
192,192,105135,1,0,0:0:0:0:
320,192,105216,1,0,0:0:0:0:
192,192,105377,1,8,0:0:0:0:
448,192,105377,1,0,0:0:0:0:
64,192,105539,1,0,0:0:0:0:
192,192,105619,1,0,0:0:0:0:
448,192,105700,1,8,0:0:0:0:
320,192,105700,1,0,0:0:0:0:
192,192,105861,1,2,0:0:0:0:
64,192,105942,1,2,0:0:0:0:
192,192,106022,1,8,0:0:0:0:
448,192,106022,1,2,0:0:0:0:
320,192,106103,1,0,0:0:0:0:
192,192,106184,1,0,0:0:0:0:
320,192,106264,1,0,0:0:0:0:
64,192,106345,1,8,0:0:0:0:
448,192,106345,1,4,0:0:0:0:
64,192,106587,1,4,0:0:0:0:
320,192,106587,1,8,0:0:0:0:
192,192,106829,1,4,0:0:0:0:
64,192,106829,1,8,0:0:0:0:
320,192,106990,1,8,0:0:0:0:
448,192,107071,1,8,0:0:0:0:
192,192,107151,1,8,0:0:0:0:
320,192,107232,1,8,0:0:0:0:
64,192,107313,1,2,0:0:0:0:
192,192,107393,1,8,0:0:0:0:
320,192,107474,128,0,107635:0:0:0:0:
448,192,107474,128,0,107635:0:0:0:0:
320,192,107797,1,4,0:0:0:0:
448,192,107797,1,8,0:0:0:0:
192,192,108039,1,8,0:0:0:0:
64,192,108039,1,4,0:0:0:0:
448,192,108280,1,4,0:0:0:0:
64,192,108280,1,8,0:0:0:0:
192,192,108522,128,4,108932:0:0:0:0:
320,192,108522,128,8,108932:0:0:0:0:
64,192,108932,1,4,0:0:0:0:
448,192,108932,1,8,0:0:0:0:
192,192,109093,1,0,0:0:0:0:
64,192,109254,1,0,0:0:0:0:
448,192,109254,1,8,0:0:0:0:
320,192,109415,1,0,0:0:0:0:
192,192,109496,1,0,0:0:0:0:
64,192,109577,1,8,0:0:0:0:
320,192,109577,1,0,0:0:0:0:
192,192,109738,1,0,0:0:0:0:
320,192,109819,1,0,0:0:0:0:
64,192,109899,1,8,0:0:0:0:
448,192,109899,1,0,0:0:0:0:
192,192,109980,1,0,0:0:0:0:
320,192,110061,1,0,0:0:0:0:
192,192,110141,1,0,0:0:0:0:
448,192,110222,1,8,0:0:0:0:
64,192,110222,1,0,0:0:0:0:
320,192,110302,1,0,0:0:0:0:
192,192,110383,1,0,0:0:0:0:
64,192,110544,1,8,0:0:0:0:
320,192,110544,1,0,0:0:0:0:
192,192,110706,1,0,0:0:0:0:
320,192,110786,1,0,0:0:0:0:
192,192,110867,1,8,0:0:0:0:
448,192,110867,1,0,0:0:0:0:
320,192,111028,1,0,0:0:0:0:
192,192,111109,1,0,0:0:0:0:
448,192,111190,1,8,0:0:0:0:
64,192,111190,1,0,0:0:0:0:
320,192,111270,1,0,0:0:0:0:
192,192,111351,1,0,0:0:0:0:
320,192,111432,1,0,0:0:0:0:
64,192,111512,1,8,0:0:0:0:
448,192,111512,1,0,0:0:0:0:
192,192,111754,1,0,0:0:0:0:
64,192,111835,1,8,0:0:0:0:
448,192,111835,1,0,0:0:0:0:
192,192,111996,1,0,0:0:0:0:
64,192,112157,1,8,0:0:0:0:
448,192,112157,1,0,0:0:0:0:
192,192,112238,1,0,0:0:0:0:
64,192,112480,1,8,0:0:0:0:
448,192,112480,1,0,0:0:0:0:
192,192,112641,1,0,0:0:0:0:
64,192,112802,1,8,0:0:0:0:
448,192,112802,1,0,0:0:0:0:
320,192,113044,1,0,0:0:0:0:
448,192,113125,1,8,0:0:0:0:
64,192,113125,1,0,0:0:0:0:
320,192,113286,1,0,0:0:0:0:
448,192,113448,1,8,0:0:0:0:
64,192,113448,1,0,0:0:0:0:
320,192,113528,1,0,0:0:0:0:
448,192,113770,1,8,0:0:0:0:
64,192,113770,1,0,0:0:0:0:
320,192,113932,1,8,0:0:0:0:
192,192,113932,1,0,0:0:0:0:
448,192,114093,1,4,0:0:0:0:
64,192,114093,1,8,0:0:0:0:
64,192,114254,1,0,0:0:0:0:
448,192,114415,1,8,0:0:0:0:
192,192,114415,1,0,0:0:0:0:
448,192,114577,1,0,0:0:0:0:
320,192,114738,1,8,0:0:0:0:
64,192,114738,1,0,0:0:0:0:
320,192,114899,1,0,0:0:0:0:
64,192,115061,1,8,0:0:0:0:
448,192,115061,1,0,0:0:0:0:
64,192,115222,1,0,0:0:0:0:
192,192,115383,1,8,0:0:0:0:
448,192,115383,1,4,0:0:0:0:
192,192,115544,1,0,0:0:0:0:
320,192,115706,1,8,0:0:0:0:
64,192,115706,1,0,0:0:0:0:
320,192,115867,1,0,0:0:0:0:
64,192,116028,1,8,0:0:0:0:
448,192,116028,1,0,0:0:0:0:
64,192,116190,1,0,0:0:0:0:
192,192,116351,1,8,0:0:0:0:
448,192,116351,1,0,0:0:0:0:
448,192,116512,1,8,0:0:0:0:
192,192,116512,1,0,0:0:0:0:
320,192,116673,1,8,0:0:0:0:
64,192,116673,1,4,0:0:0:0:
448,192,116835,1,2,0:0:0:0:
64,192,116835,1,0,0:0:0:0:
192,192,116996,1,8,0:0:0:0:
448,192,116996,1,0,0:0:0:0:
320,192,117157,1,8,0:0:0:0:
64,192,117157,1,4,0:0:0:0:
192,192,117319,1,8,0:0:0:0:
64,192,117399,1,8,0:0:0:0:
448,192,117480,1,8,0:0:0:0:
320,192,117561,1,8,0:0:0:0:
64,192,117641,1,4,0:0:0:0:
192,192,117722,1,8,0:0:0:0:
448,192,117802,1,4,0:0:0:0:
320,192,117883,1,8,0:0:0:0:
192,192,117964,1,4,0:0:0:0:
64,192,117964,1,8,0:0:0:0:
192,192,118206,1,4,0:0:0:0:
64,192,118206,1,8,0:0:0:0:
320,192,118448,1,4,0:0:0:0:
448,192,118448,1,8,0:0:0:0:
320,192,118690,1,4,0:0:0:0:
448,192,118690,1,8,0:0:0:0:
64,192,118931,128,8,119254:0:0:0:0:
192,192,118931,1,0,0:0:0:0:
320,192,119254,1,4,0:0:0:0:
448,192,119254,1,2,0:0:0:0:
