osu file format v14

[General]
AudioFilename: audio.mp3
AudioLeadIn: 0
PreviewTime: 98058
Countdown: 0
SampleSet: None
StackLeniency: 0.3
Mode: 0
LetterboxInBreaks: 0
WidescreenStoryboard: 1

[Editor]
Bookmarks: 1929,12896,23219,32251,34832,43058,45154,57735,69025,78703,89025,99348,113783
DistanceSpacing: 0.8
BeatDivisor: 4
GridSize: 4
TimelineZoom: 2.999999

[Metadata]
Title:Gekkou Ranbu
TitleUnicode:月光乱舞
Artist:P*Light
ArtistUnicode:P*Light
Creator:Some1
Version:EXHAUST
Source:SOUND VOLTEX III GRAVITY WARS
Tags:2minute fighters innocent floor sakura reflection p*light remix the sampling paradise p*light remix 天下一音ゲ祭 全国一斉認定大会
BeatmapID:1619777
BeatmapSetID:761351

[Difficulty]
HPDrainRate:5
CircleSize:4
OverallDifficulty:7
ApproachRate:9
SliderMultiplier:2.1
SliderTickRate:1

[Events]
//Background and Video events
0,0,"BG.jpg",0,0
//Break Periods
//Storyboard Layer 0 (Background)
//Storyboard Layer 1 (Fail)
//Storyboard Layer 2 (Pass)
//Storyboard Layer 3 (Foreground)
//Storyboard Sound Samples

[TimingPoints]
1284,322.58064516129,4,1,1,75,1,0
2574,-100,4,1,0,75,0,0
3219,-100,4,1,1,75,0,0
3380,-100,4,1,1,75,0,0
3864,-100,4,1,0,75,0,0
4509,-100,4,1,1,75,0,0
5154,-100,4,1,0,75,0,0
5477,-100,4,1,1,75,0,0
5638,-100,4,1,0,75,0,0
5800,-100,4,1,1,75,0,0
6122,-100,4,1,0,75,0,0
6283,-100,4,1,1,75,0,0
6445,-100,4,1,0,75,0,0
7090,-100,4,1,1,75,0,0
7735,-100,4,1,0,75,0,0
8219,-100,4,1,1,75,0,0
9025,-100,4,1,0,75,0,0
9671,-100,4,1,1,75,0,0
11606,-100,4,1,0,75,0,0
12896,-100,4,3,0,75,0,0

[Colours]
Combo1 : 255,128,128
Combo2 : 255,128,64
Combo3 : 255,128,255
Combo4 : 155,155,206

[HitObjects]
112,92,1929,5,0,0:0:0:0:
256,116,2090,1,0,0:0:0:0:
392,92,2251,1,0,0:0:0:0:
244,208,2413,1,0,0:0:0:0:
416,348,2574,2,0,P|480:336|484:216,1,157.5
360,284,2896,2,0,P|308:300|256:280,1,105
88,336,3219,5,0,0:0:0:0:
48,160,3380,1,0,0:0:0:0:
112,240,3542,1,0,0:0:0:0:
136,64,3703,1,0,0:0:0:0:
280,204,3864,2,0,B|356:220|356:220|428:180,1,157.5
304,116,4187,2,0,P|232:120|191:164,1,105
220,344,4509,6,0,L|212:224,3,105
128,196,5154,1,0,0:0:0:0:
284,96,5316,1,0,0:0:0:0:
200,34,5477,2,0,L|206:138,1,105
392,296,5800,2,0,L|385:191,1,105
376,68,6122,1,0,0:0:0:0:
472,180,6283,1,0,0:0:0:0:
308,304,6445,6,0,P|260:332|124:296,1,157.5
112,268,6767,2,0,P|124:332|104:380,1,105
80,84,7090,5,0,0:0:0:0:
148,136,7251,1,0,0:0:0:0:
232,136,7413,1,0,0:0:0:0:
308,96,7574,1,0,0:0:0:0:
348,232,7735,2,0,L|352:12,1,210
272,208,8219,5,0,0:0:0:0:
272,208,8300,1,0,0:0:0:0:
272,208,8380,1,0,0:0:0:0:
228,280,8542,1,0,0:0:0:0:
288,340,8703,1,0,0:0:0:0:
360,296,8864,1,0,0:0:0:0:
240,128,9025,6,0,P|148:100|32:136,1,210
76,352,9509,2,0,P|140:360|188:348,1,105
228,280,9832,1,0,0:0:0:0:
308,260,9993,1,0,0:0:0:0:
376,312,10154,1,0,0:0:0:0:
192,68,10477,5,0,0:0:0:0:
160,145,10638,1,0,0:0:0:0:
76,164,10800,1,0,0:0:0:0:
184,324,10961,2,0,L|196:208,1,105
300,24,11283,2,0,L|312:140,1,105
344,340,11606,6,0,P|372:288|288:240,1,157.5
92,268,11929,2,0,P|64:320|148:368,1,157.5
212,248,12251,2,0,L|208:208,8,26.25
212,248,12896,6,0,L|200:364,1,105
108,252,13219,2,0,L|92:116,1,105
284,48,13542,1,0,0:0:0:0:
300,88,13622,1,0,0:0:0:0:
296,128,13703,1,0,0:0:0:0:
264,156,13783,1,0,0:0:0:0:
220,156,13864,1,0,0:0:0:0:
192,128,13945,1,0,0:0:0:0:
188,88,14025,1,0,0:0:0:0:
212,248,14187,6,0,L|200:364,1,105
372,168,14509,2,0,L|384:63,1,105
376,324,14832,1,0,0:0:0:0:
348,292,14913,1,0,0:0:0:0:
312,276,14993,1,0,0:0:0:0:
268,280,15074,1,0,0:0:0:0:
232,300,15154,1,0,0:0:0:0:
192,308,15235,1,0,0:0:0:0:
152,296,15316,1,0,0:0:0:0:
52,160,15477,6,0,P|104:136|180:184,1,105
244,204,15719,2,0,P|208:158|265:47,1,157.5
268,48,16042,1,0,0:0:0:0:
308,64,16122,2,0,P|388:100|460:52,2,157.5
268,48,16687,1,0,0:0:0:0:
240,80,16767,6,0,P|160:116|124:96,1,105
40,176,17009,2,0,P|117:216|124:257,1,105
136,268,17251,1,0,0:0:0:0:
172,288,17332,1,0,0:0:0:0:
216,284,17413,2,0,B|276:264|276:264|412:304,2,157.5
408,228,18058,6,0,L|520:188,1,105
312,72,18380,2,0,P|268:148|336:232,1,157.5
228,248,18703,2,0,L|120:224,1,105
24,112,19025,2,0,B|48:188|48:188|12:284,1,157.5
132,330,19348,2,0,L|124:202,1,105
184,24,19671,2,0,L|192:152,1,105
280,300,19993,2,0,L|292:204,3,52.5
312,216,20316,1,0,0:0:0:0:
352,200,20396,1,0,0:0:0:0:
392,208,20477,1,0,0:0:0:0:
432,196,20558,1,0,0:0:0:0:
448,156,20638,5,0,0:0:0:0:
436,116,20719,1,0,0:0:0:0:
112,84,20880,2,0,L|308:92,1,157.5
304,112,21203,5,0,0:0:0:0:
316,152,21283,1,0,0:0:0:0:
300,192,21364,1,0,0:0:0:0:
260,208,21445,1,0,0:0:0:0:
232,240,21525,1,0,0:0:0:0:
228,284,21606,1,0,0:0:0:0:
248,320,21687,1,0,0:0:0:0:
288,336,21767,1,0,0:0:0:0:
328,332,21848,1,0,0:0:0:0:
360,304,21929,5,0,0:0:0:0:
400,296,22009,1,0,0:0:0:0:
424,38,22171,2,0,L|432:206,1,157.5
214,334,22574,2,0,L|227:283,3,52.5
216,244,22896,5,0,0:0:0:0:
184,216,22977,1,0,0:0:0:0:
144,212,23058,1,0,0:0:0:0:
108,232,23138,1,0,0:0:0:0:
96,272,23219,5,0,0:0:0:0:
96,272,23542,1,0,0:0:0:0:
54,135,23703,2,0,L|264:152,2,210
145,272,24509,2,0,P|225:337|328:336,1,210
414,119,24993,2,0,P|334:54|232:56,2,210
424,216,25800,5,0,0:0:0:0:
328,328,25961,1,0,0:0:0:0:
228,224,26122,2,0,L|348:232,1,105
332,230,26445,1,0,0:0:0:0:
128,216,26606,2,0,L|23:209,1,105
23,209,26929,1,0,0:0:0:0:
184,336,27090,6,0,P|240:276|196:120,1,210
130,58,27574,2,0,L|340:72,2,210
360,216,28380,6,0,L|376:124,2,52.5
208,304,28703,2,0,L|224:396,2,52.5
176,276,28945,1,0,0:0:0:0:
144,248,29025,2,0,L|128:156,2,52.5
96,352,29348,1,0,0:0:0:0:
96,352,29509,1,0,0:0:0:0:
208,216,29671,5,0,0:0:0:0:
152,116,29832,1,0,0:0:0:0:
264,48,29993,2,0,L|356:52,2,52.5
328,232,30316,1,0,0:0:0:0:
332,212,30396,1,0,0:0:0:0:
336,192,30477,1,0,0:0:0:0:
340,172,30558,1,0,0:0:0:0:
344,152,30638,1,0,0:0:0:0:
368,336,30800,1,0,0:0:0:0:
248,344,30961,6,0,L|108:320,1,105
48,204,31203,1,0,0:0:0:0:
80,192,31283,2,0,L|220:216,1,105
312,84,31606,2,0,L|232:100,4,52.5
160,72,32090,1,0,0:0:0:0:
272,132,32251,1,0,0:0:0:0:
272,132,32574,6,0,L|292:12,2,105
164,196,33058,2,0,L|184:316,2,105
272,248,33542,6,0,L|384:264,1,105
452,292,33864,2,0,L|340:308,1,105
160,332,34187,1,0,0:0:0:0:
96,244,34348,2,0,L|92:184,2,52.5
268,56,34751,5,0,0:0:0:0:
268,56,34832,2,0,L|256:188,1,105
376,224,35074,2,0,L|364:92,1,105
232,268,35316,1,0,0:0:0:0:
232,268,35396,2,0,P|284:240|288:224,3,52.5
328,328,35800,2,0,L|464:336,1,105
352,152,36122,5,0,0:0:0:0:
352,152,36203,1,0,0:0:0:0:
272,240,36364,1,0,0:0:0:0:
272,240,36445,1,0,0:0:0:0:
136,156,36606,2,0,P|80:144|16:168,1,105
32,304,36848,2,0,P|88:316|152:292,1,105
84,228,37090,1,0,0:0:0:0:
80,68,37251,6,0,L|72:12,2,52.5
260,40,37574,1,0,0:0:0:0:
260,40,37654,2,0,L|128:48,1,105
196,204,37977,2,0,L|360:216,1,157.5
280,356,38380,2,0,L|276:288,4,52.5
372,312,38864,5,0,0:0:0:0:
176,336,39025,1,0,0:0:0:0:
176,336,39106,1,0,0:0:0:0:
176,336,39187,1,0,0:0:0:0:
