osu file format v14

[General]
AudioFilename: audio.mp3
AudioLeadIn: 0
PreviewTime: 89731
Countdown: 0
SampleSet: None
StackLeniency: 0.4
Mode: 0
LetterboxInBreaks: 0
WidescreenStoryboard: 0

[Editor]
Bookmarks: 2070,7231,12392,17554,22715,24973,27876,33038,38199,43360,45941,51102,56263,61425,66586,79489,84650
DistanceSpacing: 1.7
BeatDivisor: 4
GridSize: 4
TimelineZoom: 5.399997

[Metadata]
Title:Gekkou Ranbu
TitleUnicode:月光乱舞
Artist:P*Light
ArtistUnicode:P*Light
Creator:Nidasimno
Version:HMC2 #3
Source:SOUND VOLTEX III GRAVITY WARS
Tags:BEMANI KONAMI SDVX 天下一音ゲ祭 全国一斉認定大会 2015 RASIS レイシス hungarian mapping contest 2 2018 hmc2 tech fingercontrol sliderjump stream
BeatmapID:2007113
BeatmapSetID:958627

[Difficulty]
HPDrainRate:5
CircleSize:4
OverallDifficulty:8
ApproachRate:9.8
SliderMultiplier:2
SliderTickRate:1

[Events]
//Background and Video events
0,0,"nida.jpg",0,0
//Break Periods
//Storyboard Layer 0 (Background)
//Storyboard Layer 1 (Fail)
//Storyboard Layer 2 (Pass)
//Storyboard Layer 3 (Foreground)
//Storyboard Sound Samples

[TimingPoints]
780,322.58064516129,4,1,51,50,1,0
2070,-1000,4,1,51,50,0,0
7231,-66.6666666666667,4,1,51,50,0,0
7554,-40,4,1,51,50,0,0
8521,-66.6666666666667,4,1,51,50,0,0
8844,-40,4,1,51,50,0,0
10457,-100,4,1,51,50,0,0
12392,-50,4,1,51,50,0,1
12715,-80,4,1,51,50,0,1
13038,-50,4,1,51,50,0,1
14005,-80,4,1,51,50,0,1
14650,-50,4,1,51,50,0,1
14973,-50,4,1,51,50,0,1
15296,-80,4,1,51,50,0,1
16263,-50,4,1,51,50,0,1
16586,-80,4,1,51,50,0,1
17231,-44.4444444444445,4,1,51,50,0,1
17554,-47.6190476190476,4,1,51,50,0,1
17876,-80,4,1,51,50,0,1
18521,-50,4,1,51,50,0,1
18844,-45.4545454545455,4,1,51,50,0,1
19167,-80,4,1,51,50,0,1
19812,-44.4444444444445,4,1,51,50,0,1
21425,-44.4444444444445,4,1,51,50,0,1
21586,-250,4,1,51,50,0,0
21828,-125,4,1,51,50,0,0
22070,-83.3333333333333,4,1,51,50,0,0
22392,-25,4,1,51,50,0,1
22554,-25,4,1,51,50,0,0
22715,-50,4,1,51,50,0,1
24973,-50,4,1,51,50,0,1
25296,-50,4,1,51,50,0,1
27554,-44.4444444444445,4,1,51,50,0,1
27876,-47.6190476190476,4,1,51,50,0,1
28199,-80,4,1,51,50,0,1
28844,-50,4,1,51,50,0,1
29167,-45.4545454545455,4,1,51,50,0,1
29489,-80,4,1,51,50,0,1
30134,-44.4444444444445,4,1,51,50,0,1
31102,-40,4,1,51,50,0,1
31747,-100,4,1,51,5,0,0
31909,-250,4,1,51,50,0,0
32150,-125,4,1,51,50,0,0
32392,-83.3333333333333,4,1,51,50,0,0
32715,-25,4,1,51,50,0,1
32876,-25,4,1,51,50,0,0
33038,-250,4,1,51,50,0,0
34005,-125,4,1,51,50,0,0
35296,-250,4,1,51,50,0,0
36586,-125,4,1,51,50,0,0
40134,-62.5,4,1,51,50,0,0
42070,-50,4,1,51,50,0,0
42715,-44.4444444444445,4,1,51,50,0,0
45618,-25,4,1,51,50,0,1
45779,-25,4,1,51,50,0,0
45941,-50,4,1,51,50,0,1
50779,-44.4444444444445,4,1,51,50,0,1
51102,-50,4,1,51,50,0,1
56263,-50,4,1,51,50,0,1
65296,-44.4444444444445,4,1,51,50,0,1
66586,-44.4444444444445,4,1,51,50,0,0
66667,-44.4444444444445,4,1,51,5,0,0
68521,-1000,4,1,51,50,0,0
69247,-1000,4,1,51,5,0,0
69812,-1000,4,1,51,50,0,0
70538,-1000,4,1,51,5,0,0
71102,-1000,4,1,51,50,0,0
73118,-1000,4,1,51,5,0,0
73683,-1000,4,1,51,50,0,0
74409,-1000,4,1,51,5,0,0
74973,-1000,4,1,51,50,0,0
75699,-1000,4,1,51,5,0,0
76263,-1000,4,1,51,50,0,0
79489,-58.8235294117647,4,1,51,50,0,0
87231,-40,4,1,51,50,0,0
88199,-46.5116279069767,4,1,51,50,0,0
89489,-25,4,1,51,50,0,1
89650,-25,4,1,51,50,0,0
89812,-44.4444444444445,4,1,51,50,0,1
92070,-33.3333333333333,4,1,51,50,0,1
92231,-44.4444444444445,4,1,51,50,0,1
94650,-33.3333333333333,4,1,51,50,0,1
94812,-44.4444444444445,4,1,51,50,0,1
95941,-33.3333333333333,4,1,51,50,0,1
96102,-44.4444444444445,4,1,51,50,0,1
97070,-33.3333333333333,4,1,51,50,0,1
97231,-44.4444444444445,4,1,51,50,0,1
97554,-33.3333333333333,4,1,51,50,0,1
98199,-50,4,1,51,50,0,1
99005,-33.3333333333333,4,1,51,50,0,1
99086,-33.3333333333333,4,1,51,50,0,0
99247,-33.3333333333333,4,1,51,50,0,1
99328,-33.3333333333333,4,1,51,50,0,0
99489,-33.3333333333333,4,1,51,50,0,1
99570,-33.3333333333333,4,1,51,50,0,0
99812,-25,4,1,51,50,0,1
99973,-25,4,1,51,50,0,0
100134,-44.4444444444445,4,1,51,50,0,1
102392,-33.3333333333333,4,1,51,50,0,1
102554,-44.4444444444445,4,1,51,50,0,1
104973,-33.3333333333333,4,1,51,50,0,1
105134,-44.4444444444445,4,1,51,50,0,1
107876,-33.3333333333333,4,1,51,50,0,1
110134,-1000,4,1,51,50,0,1
110618,-46.5116279069767,4,1,51,5,0,0

[Colours]
Combo1 : 225,84,128
Combo2 : 255,176,255
Combo3 : 210,85,194
Combo4 : 240,60,140

[HitObjects]
78,353,1425,5,0,0:0:0:0:
15,283,1586,1,0,0:0:0:0:
61,203,1747,1,0,0:0:0:0:
151,222,1908,1,0,0:0:0:0:
78,353,2070,22,0,L|97:354,1,20,4|8,0:0|0:0,0:0:0:0:
151,222,2554,5,8,0:0:0:0:
309,379,2715,5,0,0:0:0:0:
328,290,2876,1,0,0:0:0:0:
249,244,3037,1,2,0:0:0:0:
179,308,3198,1,0,0:0:0:0:
309,379,3360,22,0,L|288:380,1,20,4|8,0:0|0:0,0:0:0:0:
179,308,3844,5,0,0:0:0:0:
221,158,4005,1,0,0:0:0:0:
309,379,4167,37,2,0:1:0:0:
297,111,4328,21,2,0:0:0:0:
264,268,4490,1,0,0:0:0:0:
447,249,4650,37,4,0:0:0:0:
358,209,4812,1,0,0:0:0:0:
368,307,4973,1,0,0:0:0:0:
468,250,5134,5,4,0:0:0:0:
387,195,5296,1,0,0:0:0:0:
380,293,5457,1,0,0:0:0:0:
480,236,5618,37,6,0:0:0:0:
399,181,5780,1,0,0:0:0:0:
264,268,5941,38,0,L|283:268,1,20,4|8,0:0|0:0,0:0:0:0:
480,236,6425,37,0,0:0:0:0:
411,149,6586,37,0,0:0:0:0:
371,252,6747,1,2,0:0:0:0:
339,53,6909,37,2,0:0:0:0:
299,156,7070,1,0,0:0:0:0:
216,351,7231,22,0,P|150:284|170:219,1,150.000005722046,12|0,0:0|0:0,0:0:0:0:
216,351,7554,2,0,B|201:343|201:343|190:342|190:342|186:335|186:335|166:340|132:279|160:230|160:230|131:179|172:107,1,250,8|0,0:0|0:0,0:0:0:0:
294,383,7876,37,8,0:0:0:0:
334,304,8037,1,0,0:0:0:0:
271,240,8199,1,10,0:0:0:0:
193,278,8360,1,0,0:0:0:0:
23,346,8521,6,0,L|215:369,1,150.000005722046,12|0,0:0|0:0,0:0:0:0:
23,346,8844,2,0,B|63:346|63:346|80:354|80:354|123:349|172:364|172:364|193:343|225:407|297:341,1,250,8|0,0:0|0:0,0:0:0:0:
376,224,9167,21,8,0:0:0:0:
356,338,9328,1,2,0:0:0:0:
242,95,9489,1,10,0:0:0:0:
260,204,9650,1,0,0:0:0:0:
398,87,9812,5,12,0:0:0:0:
152,103,9973,1,0,0:0:0:0:
349,114,10134,37,4,0:0:0:0:
114,193,10296,1,0,0:0:0:0:
397,143,10457,5,12,0:0:0:0:
444,186,10537,1,8,0:0:0:0:
457,248,10618,1,8,0:0:0:0:
430,307,10698,1,8,0:0:0:0:
375,338,10779,1,12,0:0:0:0:
311,331,10860,1,8,0:0:0:0:
264,288,10940,1,8,0:0:0:0:
251,226,11021,1,8,0:0:0:0:
303,148,11102,5,4,0:0:0:0:
313,166,11425,1,0,0:0:0:0:
324,185,11747,37,0,0:0:0:0:
309,311,11909,1,0,0:0:0:0:
220,210,12070,1,0,0:0:0:0:
238,367,12231,1,0,0:0:0:0:
179,107,12392,38,0,B|276:76|276:170|417:109,1,200,4|0,0:0|0:0,0:0:0:0:
177,123,12715,2,0,P|254:121|299:156,1,125,8|0,0:0|0:0,0:0:0:0:
327,272,13038,1,0,0:0:0:0:
156,308,13199,1,0,0:0:0:0:
220,210,13360,1,8,0:0:0:0:
49,246,13521,1,0,0:0:0:0:
116,31,13683,6,0,B|85:128|179:128|118:269,1,200,4|0,0:0|0:0,0:0:0:0:
132,29,14005,2,0,P|130:106|165:151,1,125,8|0,0:0|0:0,0:0:0:0:
258,211,14328,1,0,0:0:0:0:
217,70,14489,1,0,0:0:0:0:
31,221,14650,6,0,P|21:155|39:219,1,200,10|0,0:0|0:0,0:0:0:0:
365,195,14973,22,0,B|268:164|268:258|127:197,1,200,4|0,0:0|0:0,0:0:0:0:
367,211,15296,2,0,P|289:209|244:244,1,125,8|0,0:0|0:0,0:0:0:0:
186,321,15618,1,0,0:0:0:0:
215,124,15779,1,0,0:0:0:0:
325,297,15941,1,8,0:0:0:0:
296,100,16102,1,0,0:0:0:0:
464,321,16263,6,0,B|495:224|401:224|462:83,1,200,4|0,0:0|0:0,0:0:0:0:
447,323,16586,2,0,P|449:245|414:200,1,125,8|0,0:0|0:0,0:0:0:0:
310,198,16909,1,0,0:0:0:0:
273,368,17070,5,2,0:0:0:0:
319,0,17231,6,0,P|351:68|306:8,1,225.000008583069,10|0,0:0|0:0,0:0:0:0:
474,169,17554,22,0,B|377:200|377:106|236:167,1,209.999993591309,4|0,0:0|0:0,0:0:0:0:
476,153,17877,2,0,P|398:155|353:120,1,125,8|0,0:0|0:0,0:0:0:0:
294,43,18199,1,0,0:0:0:0:
433,68,18360,1,0,0:0:0:0:
162,221,18521,6,0,P|98:202|163:212,1,200,10|0,0:0|0:0,0:0:0:0:
330,170,18844,22,0,B|299:267|393:267|332:408,1,220.000006713867,4|0,0:0|0:0,0:0:0:0:
346,168,19167,2,0,P|344:246|379:291,1,125,8|0,0:0|0:0,0:0:0:0:
483,298,19489,1,0,0:0:0:0:
288,40,19650,21,2,0:0:0:0:
138,339,19812,6,0,P|89:280|148:328,1,225.000008583069,10|0,0:0|0:0,0:0:0:0:
417,370,20134,5,4,0:0:0:0:
394,100,20296,38,0,P|452:51|405:111,1,225.000008583069,2|0,0:0|0:0,0:0:0:0:
114,308,20618,5,6,0:0:0:0:
256,111,20779,1,4,0:0:0:0:
394,283,20941,38,0,P|452:332|405:273,1,225.000008583069,2|2,0:0|0:0,0:0:0:0:
255,18,21263,5,4,0:0:0:0:
241,32,21586,6,0,L|310:46,1,40,4|0,0:0|0:0,0:0:0:0:
301,48,21828,38,0,L|213:64,1,80,4|0,0:0|0:0,0:0:0:0:
212,71,22070,6,0,L|341:95,1,119.999996337891,4|2,0:0|0:0,0:0:0:0:
152,320,22392,22,0,B|183:386|257:360|257:360|311:336|365:347|365:347|323:326|314:323|282:250|179:310,1,400,6|0,0:0|0:0,0:0:0:0:
78,109,22715,6,0,B|127:67|127:67|309:57,1,200,4|0,0:0|0:0,0:0:0:0:
152,320,23038,1,8,0:0:0:0:
179,154,23199,1,0,0:0:0:0:
320,187,23360,1,0,0:0:0:0:
79,259,23521,1,0,0:0:0:0:
302,170,23683,1,8,0:0:0:0:
61,242,23844,1,0,0:0:0:0:
418,18,24005,6,0,B|357:39|357:39|257:192,1,200,4|0,0:0|0:0,0:0:0:0:
221,293,24328,1,8,0:0:0:0:
436,135,24489,1,0,0:0:0:0:
374,276,24650,1,0,0:0:0:0:
427,96,24812,1,0,0:0:0:0:
207,186,24973,22,0,P|143:167|208:177,1,200,10|0,0:0|0:0,0:0:0:0:
225,362,25296,6,0,B|183:313|183:313|172:130,1,200,4|0,0:0|0:0,0:0:0:0:
174,21,25618,1,8,0:0:0:0:
257,140,25779,1,0,0:0:0:0:
9,124,25941,1,0,0:0:0:0:
211,37,26102,1,0,0:0:0:0:
40,129,26263,1,8,0:0:0:0:
242,42,26424,1,0,0:0:0:0:
46,294,26586,6,0,B|109:305|109:305|273:223,1,200,4|0,0:0|0:0,0:0:0:0:
357,170,26909,1,8,0:0:0:0:
163,171,27070,1,0,0:0:0:0:
315,239,27231,1,0,0:0:0:0:
298,74,27392,5,2,0:0:0:0:
192,314,27554,6,0,P|256:356|204:301,1,225.000008583069,10|0,0:0|0:0,0:0:0:0:
73,240,27876,6,0,B|170:271|170:177|311:238,1,209.999993591309,12|0,0:0|0:0,0:0:0:0:
71,224,28199,2,0,P|148:226|193:191,1,125,8|0,0:0|0:0,0:0:0:0:
301,17,28521,1,8,0:0:0:0:
363,172,28682,1,0,0:0:0:0:
65,95,28844,22,0,P|84:30|74:96,1,200,10|0,0:0|0:0,0:0:0:0:
459,153,29167,38,0,B|490:250|396:250|457:391,1,220.000006713867,12|0,0:0|0:0,0:0:0:0:
443,150,29489,2,0,P|445:227|410:272,1,125,8|0,0:0|0:0,0:0:0:0:
276,325,29812,1,8,0:0:0:0:
355,191,29973,5,2,0:0:0:0:
88,298,30134,6,0,P|35:242|98:286,1,225.000008583069,10|0,0:0|0:0,0:0:0:0:
308,42,30457,5,12,0:0:0:0:
385,299,30618,38,0,P|440:351|396:288,1,225.000008583069,2|0,0:0|0:0,0:0:0:0:
308,42,30941,5,6,0:0:0:0:
232,272,31102,5,12,0:0:0:0:
232,272,31182,1,8,0:0:0:0:
232,272,31263,2,0,P|273:356|332:378,1,125,10|8,0:0|0:0,0:0:0:0:
197,130,31425,2,0,P|104:124|55:164,1,125,14|8,0:0|0:0,0:0:0:0:
336,171,31586,2,0,P|388:94|378:31,1,125,12|8,0:0|0:0,0:0:0:0:
271,352,31909,6,0,B|253:346|253:346|236:348|236:348|215:342,1,40,4|0,0:0|0:0,0:0:0:0:
211,336,32150,38,0,B|240:327|240:327|264:330|264:330|299:320,1,80,4|0,0:0|0:0,0:0:0:0:
300,313,32392,6,0,B|262:303|262:303|221:306|221:306|171:289,1,119.999996337891,4|2,0:0|0:0,0:0:0:0:
345,35,32715,6,0,B|428:32|451:60|451:113|510:129|510:129|449:126|433:178|380:195|323:160,1,400,6|0,0:0|0:0,0:0:0:0:
23,70,33038,6,0,L|27:111,1,40,4|0,0:0|0:0,0:0:0:0:
97,59,33279,5,0,0:0:0:0:
97,59,33360,2,0,L|101:100,1,40
171,48,33602,37,0,0:0:0:0:
171,48,33683,2,0,L|175:89,1,40
113,217,34005,6,0,L|116:256,2,40
217,239,34247,37,0,0:0:0:0:
217,239,34328,2,0,L|191:269,2,40
274,328,34569,5,0,0:0:0:0:
274,328,34650,2,0,L|234:331,2,40
458,317,34973,21,0,0:0:0:0:
445,227,35081,37,0,0:0:0:0:
358,237,35188,5,0,0:0:0:0:
369,325,35296,6,0,L|373:370,1,40
473,302,35538,5,0,0:0:0:0:
473,302,35618,2,0,L|478:262,1,40,4|0,0:0|0:0,0:0:0:0:
399,291,35860,37,0,0:0:0:0:
399,291,35941,2,0,L|402:251,1,40
325,280,36183,5,0,0:0:0:0:
325,280,36263,2,0,L|328:240,1,40
412,39,36586,38,0,L|372:36,2,40
355,128,36828,5,0,0:0:0:0:
355,128,36909,2,0,L|329:98,2,40
251,150,37150,37,0,0:0:0:0:
251,150,37231,2,0,L|254:111,2,40
243,313,37554,5,0,0:0:0:0:
304,251,37715,1,0,0:0:0:0:
58,296,37876,1,0,0:0:0:0:
60,293,37956,1,0,0:0:0:0:
63,290,38037,1,0,0:0:0:0:
66,287,38117,1,0,0:0:0:0:
68,284,38199,21,12,0:0:0:0:
11,166,38360,1,8,0:0:0:0:
129,111,38521,1,8,0:0:0:0:
185,228,38683,1,8,0:0:0:0:
53,277,38844,37,8,0:0:0:0:
18,152,39005,1,8,0:0:0:0:
143,118,39166,1,8,0:0:0:0:
178,243,39328,1,8,0:0:0:0:
459,318,39489,5,12,0:0:0:0:
494,193,39650,1,8,0:0:0:0:
369,159,39811,1,8,0:0:0:0:
334,284,39973,1,8,0:0:0:0:
440,115,40134,38,0,P|384:77|286:136,2,106.666666666667,8|8|8,0:0|0:0|0:0,0:0:0:0:
412,241,40457,1,8,0:0:0:0:
287,206,40618,1,8,0:0:0:0:
203,8,40779,37,12,0:0:0:0:
236,134,40940,1,8,0:0:0:0:
304,55,41102,37,8,0:0:0:0:
254,244,41263,1,8,0:0:0:0:
105,112,41425,5,12,0:0:0:0:
341,174,41586,1,8,0:0:0:0:
133,182,41747,37,8,0:0:0:0:
428,104,41908,1,8,0:0:0:0:
240,289,42070,5,12,0:0:0:0:
240,289,42150,1,8,0:0:0:0:
240,289,42231,2,0,L|258:165,1,100,8|8,0:0|0:0,0:0:0:0:
199,4,42392,37,12,0:0:0:0:
199,4,42472,1,8,0:0:0:0:
199,4,42553,2,0,L|184:102,1,100,8|8,0:0|0:0,0:0:0:0:
330,304,42715,6,0,P|382:322|438:316,1,112.500004291535,12|8,0:0|0:0,0:0:0:0:
181,304,42876,2,0,P|129:322|73:316,1,112.500004291535,12|8,0:0|0:0,0:0:0:0:
392,223,43038,38,0,P|434:188|457:136,1,112.500004291535,12|8,0:0|0:0,0:0:0:0:
120,224,43199,2,0,P|76:188|54:137,1,112.500004291535,12|8,0:0|0:0,0:0:0:0:
256,196,43360,37,4,0:0:0:0:
256,196,43683,21,0,0:0:0:0:
241,61,43844,1,0,0:0:0:0:
343,265,44005,37,0,0:0:0:0:
358,130,44167,1,0,0:0:0:0:
429,311,44328,5,0,0:0:0:0:
415,154,44489,1,0,0:0:0:0:
66,168,44650,5,4,0:0:0:0:
419,244,44811,1,0,0:0:0:0:
143,272,44972,5,4,0:0:0:0:
496,196,45133,1,0,0:0:0:0:
61,276,45295,37,4,0:0:0:0:
61,276,45618,6,0,B|56:232|97:175|176:192|176:192|201:214|231:214|231:214|257:320|373:333,1,400,4|0,0:0|0:0,0:0:0:0:
500,272,45941,21,12,0:0:0:0:
223,286,46102,1,0,0:0:0:0:
496,252,46263,1,8,0:0:0:0:
224,310,46424,1,0,0:0:0:0:
472,140,46586,37,8,0:0:0:0:
320,373,46747,1,0,0:0:0:0:
195,125,46909,1,8,0:0:0:0:
478,197,47070,1,0,0:0:0:0:
270,383,47231,5,8,0:0:0:0:
214,111,47393,1,0,0:0:0:0:
234,362,47554,1,8,0:0:0:0:
297,90,47716,1,0,0:0:0:0:
198,341,47876,2,0,P|285:310|396:321,1,200,8|0,0:0|0:0,0:0:0:0:
67,384,48199,37,8,0:0:0:0:
117,101,48360,1,0,0:0:0:0:
34,357,48521,1,8,0:0:0:0:
167,68,48683,2,0,P|136:155|147:266,1,200,0|8,0:0|0:0,0:0:0:0:
306,130,49005,1,0,0:0:0:0:
33,268,49167,5,8,0:0:0:0:
343,150,49328,1,0,0:0:0:0:
50,238,49489,37,8,0:0:0:0:
380,170,49650,1,0,0:0:0:0:
256,368,49812,5,8,0:0:0:0:
163,134,49973,1,0,0:0:0:0:
177,337,50134,37,8,0:0:0:0:
217,62,50295,1,0,0:0:0:0:
131,239,50457,5,8,0:0:0:0:
303,20,50618,1,0,0:0:0:0:
256,368,50779,6,0,P|238:293|270:362,1,225.000008583069
216,368,51102,37,8,0:0:0:0:
205,367,51183,1,8,0:0:0:0:
194,366,51263,1,8,0:0:0:0:
183,365,51344,1,8,0:0:0:0:
172,365,51425,37,12,0:0:0:0:
141,113,51586,1,0,0:0:0:0:
77,341,51747,5,8,0:0:0:0:
228,138,51909,1,0,0:0:0:0:
328,370,52070,1,8,0:0:0:0:
54,288,52231,1,0,0:0:0:0:
252,130,52392,37,8,0:0:0:0:
288,380,52554,1,0,0:0:0:0:
257,100,52714,1,8,0:0:0:0:
221,350,52876,1,0,0:0:0:0:
262,70,53038,2,0,P|349:39|460:50,1,200,8|0,0:0|0:0,0:0:0:0:
141,113,53360,5,8,0:0:0:0:
457,141,53521,1,0,0:0:0:0:
157,75,53683,1,8,0:0:0:0:
454,183,53844,2,0,P|485:270|474:381,1,200,0|8,0:0|0:0,0:0:0:0:
158,345,54167,1,0,0:0:0:0:
347,124,54328,37,8,0:0:0:0:
89,263,54489,1,0,0:0:0:0:
372,144,54650,5,8,0:0:0:0:
158,345,54811,1,0,0:0:0:0:
149,13,54973,38,0,P|192:48|202:114,1,100,12|0,0:0|0:0,0:0:0:0:
362,13,55134,2,0,P|319:48|309:114,1,100,8|0,0:0|0:0,0:0:0:0:
108,101,55296,6,0,P|127:152|103:215,1,100,12|0,0:0|0:0,0:0:0:0:
404,101,55457,2,0,P|384:152|408:215,1,100,8|0,0:0|0:0,0:0:0:0:
58,333,55618,38,0,L|157:344,1,100,12|8,0:0|0:0,0:0:0:0:
454,333,55779,2,0,L|354:344,1,100,12|8,0:0|0:0,0:0:0:0:
26,232,55941,6,0,L|139:245,1,100,12|8,0:0|0:0,0:0:0:0:
477,232,56102,2,0,L|363:245,1,100,12|8,0:0|0:0,0:0:0:0:
256,192,56263,37,4,0:0:0:0:
336,49,56425,1,0,0:0:0:0:
336,49,56505,1,0,0:0:0:0:
336,49,56585,1,8,0:0:0:0:
256,278,56747,1,0,0:0:0:0:
98,95,56909,1,0,0:0:0:0:
336,219,57070,2,0,P|348:313|244:378,1,200,0|8,0:0|0:0,0:0:0:0:
58,333,57392,1,0,0:0:0:0:
273,78,57554,6,0,L|256:277,1,200
177,187,57876,1,8,0:0:0:0:
401,263,58038,1,0,0:0:0:0:
341,27,58199,2,0,P|261:-4|214:14,2,133.333333333333
289,224,58521,1,8,0:0:0:0:
98,95,58683,1,0,0:0:0:0:
482,179,58844,37,4,0:0:0:0:
430,18,59005,1,0,0:0:0:0:
430,18,59086,1,0,0:0:0:0:
430,18,59167,1,8,0:0:0:0:
244,116,59328,1,0,0:0:0:0:
422,229,59489,1,0,0:0:0:0:
191,31,59650,2,0,P|152:153|222:212,1,200,0|8,0:0|0:0,0:0:0:0:
482,179,59973,1,0,0:0:0:0:
334,69,60134,6,0,L|316:268,1,200
244,116,60457,1,8,0:0:0:0:
439,281,60618,1,0,0:0:0:0:
485,30,60779,1,0,0:0:0:0:
223,99,60941,1,0,0:0:0:0:
505,48,61102,1,8,0:0:0:0:
485,52,61182,1,8,0:0:0:0:
466,57,61263,1,8,0:0:0:0:
446,62,61343,1,8,0:0:0:0:
427,67,61425,21,12,0:0:0:0:
183,108,61586,1,8,0:0:0:0:
414,87,61747,37,8,0:0:0:0:
169,127,61908,1,8,0:0:0:0:
337,259,62070,5,8,0:0:0:0:
296,14,62231,1,8,0:0:0:0:
317,245,62392,37,8,0:0:0:0:
277,0,62553,1,8,0:0:0:0:
509,87,62715,5,12,0:0:0:0:
253,193,62876,1,8,0:0:0:0:
479,169,63038,37,8,0:0:0:0:
223,63,63199,1,8,0:0:0:0:
446,252,63360,2,0,P|473:303|485:379,2,133.333333333333,8|8|8,0:0|0:0|0:0,0:0:0:0:
128,222,63683,5,8,0:0:0:0:
351,116,63844,1,8,0:0:0:0:
331,362,64005,5,12,0:0:0:0:
331,362,64086,1,8,0:0:0:0:
331,362,64167,1,8,0:0:0:0:
331,362,64248,1,8,0:0:0:0:
331,362,64328,2,0,L|319:253,1,100,8|0,0:0|0:0,0:0:0:0:
226,70,64489,2,0,L|236:169,1,100,8|0,0:0|0:0,0:0:0:0:
127,259,64650,5,12,0:0:0:0:
127,259,64731,1,8,0:0:0:0:
127,259,64812,1,8,0:0:0:0:
127,259,64892,1,8,0:0:0:0:
127,259,64973,2,0,L|236:247,1,100,8|0,0:0|0:0,0:0:0:0:
419,154,65134,2,0,L|319:164,1,100,8|0,0:0|0:0,0:0:0:0:
62,185,65296,38,0,P|48:318|71:340,1,112.500004291535,12|0,0:0|0:0,0:0:0:0:
165,159,65457,2,0,P|42:213|35:244,1,112.500004291535,8|0,0:0|0:0,0:0:0:0:
237,228,65618,6,0,P|251:95|228:73,1,112.500004291535,12|0,0:0|0:0,0:0:0:0:
134,254,65779,2,0,P|256:199|263:168,1,112.500004291535,8|0,0:0|0:0,0:0:0:0:
276,13,65941,38,0,L|262:162,1,112.500004291535,4|8,0:0|0:0,0:0:0:0:
236,371,66102,2,0,L|245:258,1,112.500004291535,12|8,0:0|0:0,0:0:0:0:
21,165,66263,6,0,L|133:175,1,112.500004291535,12|8,0:0|0:0,0:0:0:0:
490,218,66425,2,0,L|378:208,1,112.500004291535,12|8,0:0|0:0,0:0:0:0:
256,192,66586,21,12,0:0:0:0:
256,192,66667,12,0,68199,0:0:0:0:
78,31,68521,21,0,0:0:0:0:
15,101,68682,1,0,0:0:0:0:
61,181,68843,1,0,0:0:0:0:
151,162,69004,1,0,0:0:0:0:
78,31,69167,22,0,L|97:30,1,20
434,31,69812,21,0,0:0:0:0:
497,101,69973,1,0,0:0:0:0:
451,181,70134,1,0,0:0:0:0:
361,162,70295,1,0,0:0:0:0:
434,31,70457,22,0,L|415:30,1,20
256,192,71102,21,0,0:0:0:0:
244,89,71263,1,0,0:0:0:0:
339,130,71425,37,0,0:0:0:0:
354,27,71586,1,0,0:0:0:0:
423,239,71747,5,0,0:0:0:0:
369,322,71909,1,0,0:0:0:0:
324,233,72070,1,0,0:0:0:0:
427,253,72231,37,0,0:0:0:0:
353,319,72393,1,0,0:0:0:0:
332,221,72554,1,0,0:0:0:0:
428,268,72715,5,0,0:0:0:0:
340,312,72877,1,0,0:0:0:0:
339,130,73038,22,0,L|320:131,1,20
151,222,73683,21,0,0:0:0:0:
61,203,73844,1,0,0:0:0:0:
15,283,74005,1,0,0:0:0:0:
78,353,74166,1,0,0:0:0:0:
151,222,74328,22,0,L|170:223,1,20
361,222,74973,21,0,0:0:0:0:
451,203,75134,1,0,0:0:0:0:
497,283,75295,1,0,0:0:0:0:
434,353,75456,1,0,0:0:0:0:
361,222,75618,22,0,L|342:223,1,20
151,222,76263,21,0,0:0:0:0:
256,192,76425,1,0,0:0:0:0:
229,297,76586,37,0,0:0:0:0:
338,295,76748,1,0,0:0:0:0:
404,143,76909,5,0,0:0:0:0:
497,173,77071,1,0,0:0:0:0:
423,239,77232,1,0,0:0:0:0:
416,134,77392,37,0,0:0:0:0:
498,187,77554,1,0,0:0:0:0:
409,232,77715,1,0,0:0:0:0:
430,129,77876,5,0,0:0:0:0:
495,202,78038,1,0,0:0:0:0:
256,192,78199,5,0,0:0:0:0:
256,192,78360,12,8,79167,0:0:0:0:
75,64,79489,37,4,0:0:0:0:
75,64,79570,1,0,0:0:0:0:
75,64,79650,2,0,L|66:165,1,85.0000016212464,8|0,0:0|0:0,0:0:0:0:
122,282,79812,2,0,L|129:197,1,85.0000016212464,8|0,0:0|0:0,0:0:0:0:
212,97,79973,1,0,0:0:0:0:
212,97,80054,1,0,0:0:0:0:
212,97,80134,2,0,L|204:181,1,85.0000016212464,8|0,0:0|0:0,0:0:0:0:
395,283,80296,22,0,P|387:328|358:359,1,85.0000016212464,8|0,0:0|0:0,0:0:0:0:
332,213,80457,2,0,P|296:183|283:142,1,85.0000016212464,8|0,0:0|0:0,0:0:0:0:
424,193,80618,2,0,P|466:176|508:186,1,85.0000016212464
313,291,80779,21,4,0:0:0:0:
313,291,80860,1,0,0:0:0:0:
313,291,80941,2,0,L|210:299,1,85.0000016212464,8|0,0:0|0:0,0:0:0:0:
81,253,81102,2,0,L|165:245,1,85.0000016212464,8|0,0:0|0:0,0:0:0:0:
424,193,81263,1,0,0:0:0:0:
424,193,81344,1,0,0:0:0:0:
424,193,81425,2,0,L|321:201,1,85.0000016212464,8|0,0:0|0:0,0:0:0:0:
116,100,81586,6,0,B|124:55|124:55|153:24,1,85.0000016212464,8|0,0:0|0:0,0:0:0:0:
180,170,81747,2,0,B|222:205|222:205|237:254,1,85.0000016212464,8|0,0:0|0:0,0:0:0:0:
87,190,81908,2,0,B|39:209|39:209|-7:198,1,85.0000016212464
258,66,82070,38,0,L|369:75,1,85.0000016212464,12|0,0:0|0:0,0:0:0:0:
472,145,82231,1,0,0:0:0:0:
472,145,82312,2,0,L|360:154,1,85.0000016212464,8|0,0:0|0:0,0:0:0:0:
258,224,82473,1,0,0:0:0:0:
258,224,82554,2,0,L|369:233,1,85.0000016212464,8|0,0:0|0:0,0:0:0:0:
472,303,82715,1,0,0:0:0:0:
472,303,82796,2,0,L|360:312,1,85.0000016212464,8|0,0:0|0:0,0:0:0:0:
114,290,82957,21,0,0:0:0:0:
114,290,83038,2,0,P|166:308|225:299,1,85.0000016212464,8|0,0:0|0:0,0:0:0:0:
258,224,83199,2,0,P|218:208|176:206,1,85.0000016212464,8|0,0:0|0:0,0:0:0:0:
280,384,83360,22,0,L|271:273,1,85.0000016212464,12|0,0:0|0:0,0:0:0:0:
169,121,83521,1,0,0:0:0:0:
169,121,83602,2,0,L|175:205,1,85.0000016212464,8|0,0:0|0:0,0:0:0:0:
307,222,83763,1,0,0:0:0:0:
307,222,83844,2,0,L|298:111,1,85.0000016212464,8|0,0:0|0:0,0:0:0:0:
142,283,84005,1,0,0:0:0:0:
142,283,84086,2,0,L|151:394,1,85.0000016212464,8|0,0:0|0:0,0:0:0:0:
397,290,84247,21,0,0:0:0:0:
397,290,84328,2,0,P|358:305|316:308,1,85.0000016212464,8|0,0:0|0:0,0:0:0:0:
253,224,84489,2,0,P|293:208|335:206,1,85.0000016212464,8|0,0:0|0:0,0:0:0:0:
495,221,84650,21,12,0:0:0:0:
495,221,84731,1,0,0:0:0:0:
495,221,84812,1,8,0:0:0:0:
397,290,84973,1,8,0:0:0:0:
412,147,85134,1,8,0:0:0:0:
497,219,85296,37,12,0:0:0:0:
497,219,85376,1,0,0:0:0:0:
497,219,85457,1,8,0:0:0:0:
315,307,85618,1,8,0:0:0:0:
334,129,85779,1,8,0:0:0:0:
497,219,85941,37,12,0:0:0:0:
497,219,86021,1,0,0:0:0:0:
497,219,86102,1,8,0:0:0:0:
232,333,86263,1,8,0:0:0:0:
256,111,86424,1,8,0:0:0:0:
497,219,86586,37,12,0:0:0:0:
497,219,86666,1,0,0:0:0:0:
497,219,86747,1,8,0:0:0:0:
148,370,86909,1,8,0:0:0:0:
178,93,87070,1,8,0:0:0:0:
307,274,87231,38,0,B|350:242|350:242|341:312,1,125,12|0,0:0|0:0,0:0:0:0:
205,274,87392,2,0,B|162:242|162:242|170:312,1,125,8|0,0:0|0:0,0:0:0:0:
310,194,87554,38,0,B|371:189|371:189|411:238,1,125,12|0,0:0|0:0,0:0:0:0:
202,194,87715,2,0,B|141:189|141:189|100:238,1,125,8|0,0:0|0:0,0:0:0:0:
313,114,87876,6,0,B|380:102|380:102|435:114,1,125,12|0,0:0|0:0,0:0:0:0:
199,114,88038,2,0,B|132:102|132:102|76:114,1,125,8|0,0:0|0:0,0:0:0:0:
256,306,88199,6,0,P|234:335|196:350,1,53.7500008201599,12|8,0:0|0:0,0:0:0:0:
256,306,88279,6,0,P|227:284|212:246,1,53.7500008201599,8|8,0:0|0:0,0:0:0:0:
256,306,88360,6,0,P|285:328|300:366,1,53.7500008201599,8|8,0:0|0:0,0:0:0:0:
256,306,88441,6,0,P|278:277|316:262,1,53.7500008201599,8|8,0:0|0:0,0:0:0:0:
256,306,88521,37,12,0:0:0:0:
256,320,88844,1,0,0:0:0:0:
47,298,89167,5,0,0:0:0:0:
46,287,89247,5,0,0:0:0:0:
45,276,89328,5,0,0:0:0:0:
45,265,89408,5,0,0:0:0:0:
45,255,89489,38,0,P|159:269|36:205,1,400,4|0,0:0|0:0,0:0:0:0:
256,192,89812,5,4,0:0:0:0:
250,162,89892,1,0,0:0:0:0:
253,135,89973,2,0,P|266:78|353:7,1,112.500004291535
358,180,90134,2,0,P|346:234|312:279,1,112.500004291535,8|0,0:0|0:0,0:0:0:0:
99,149,90296,1,0,0:0:0:0:
129,143,90376,1,0,0:0:0:0:
156,146,90457,2,0,P|213:159|283:245,1,112.500004291535
166,261,90618,6,0,L|53:270,1,112.500004291535
346,261,90779,2,0,L|458:270,1,112.500004291535,8|0,0:0|0:0,0:0:0:0:
256,192,90941,2,0,L|256:40,1,112.500004291535
416,115,91102,37,4,0:0:0:0:
436,137,91182,1,0,0:0:0:0:
447,162,91263,2,0,P|464:217|424:322,1,112.500004291535
239,277,91425,2,0,P|292:259|347:266,1,112.500004291535,8|0,0:0|0:0,0:0:0:0:
459,337,91586,1,0,0:0:0:0:
437,358,91666,1,0,0:0:0:0:
412,369,91747,2,0,P|356:386|251:346,1,112.500004291535
357,154,91909,6,0,L|348:267,1,112.500004291535
238,92,92070,6,0,P|271:46|262:109,1,150.000005722046,10|0,0:0|0:0,0:0:0:0:
164,267,92231,38,0,L|154:154,1,112.500004291535
450,240,92392,38,0,B|398:272|398:272|315:260,1,112.500004291535,4|0,0:0|0:0,0:0:0:0:
333,360,92554,1,0,0:0:0:0:
333,360,92634,2,0,B|279:332|279:332|248:254,1,112.500004291535,0|8,0:0|0:0,0:0:0:0:
170,317,92796,1,0,0:0:0:0:
170,317,92876,2,0,B|167:256|167:256|219:190,1,112.500004291535
125,154,93038,1,0,0:0:0:0:
125,154,93118,2,0,B|176:121|176:121|259:133,1,112.500004291535
405,76,93279,5,0,0:0:0:0:
405,76,93360,2,0,B|355:202,1,112.500004291535,8|0,0:0|0:0,0:0:0:0:
227,128,93521,2,0,B|267:23,1,112.500004291535
28,219,93683,38,0,L|37:106,1,112.500004291535,4|0,0:0|0:0,0:0:0:0:
112,272,93844,1,0,0:0:0:0:
112,272,93925,2,0,L|102:384,1,112.500004291535,0|8,0:0|0:0,0:0:0:0:
218,240,94086,1,0,0:0:0:0:
218,240,94167,2,0,L|227:127,1,112.500004291535
300,267,94328,1,0,0:0:0:0:
312,296,94409,1,0,0:0:0:0:
311,331,94489,37,2,0:0:0:0:
291,360,94570,21,0,0:0:0:0:
262,377,94650,22,0,P|216:344|279:353,1,150.000005722046,10|0,0:0|0:0,0:0:0:0:
512,318,94812,22,0,L|328:368,1,112.500004291535
107,336,94973,37,4,0:0:0:0:
128,356,95053,1,0,0:0:0:0:
153,367,95134,2,0,P|208:384|313:344,1,112.500004291535
216,264,95296,2,0,P|161:247|56:287,1,112.500004291535,8|0,0:0|0:0,0:0:0:0:
291,353,95457,1,0,0:0:0:0:
311,332,95537,1,0,0:0:0:0:
323,306,95618,2,0,P|329:250|312:197,1,112.500004291535
156,128,95779,6,0,L|-2:83,1,112.500004291535
342,216,95941,6,0,P|400:212|356:174,1,150.000005722046,10|0,0:0|0:0,0:0:0:0:
156,256,96102,38,0,L|-2:301,1,112.500004291535
332,319,96263,37,4,0:0:0:0:
359,324,96343,1,0,0:0:0:0:
387,322,96424,2,0,P|438:299|475:257,1,112.500004291535
315,127,96586,2,0,P|337:178|379:215,1,112.500004291535,8|0,0:0|0:0,0:0:0:0:
359,32,96747,1,0,0:0:0:0:
332,27,96827,1,0,0:0:0:0:
303,28,96908,2,0,P|252:50|215:92,1,112.500004291535
232,277,97070,22,0,P|236:336|273:290,1,150.000005722046,2|0,0:0|0:0,0:0:0:0:
427,193,97231,38,0,L|278:152,1,112.500004291535,12|0,0:0|0:0,0:0:0:0:
85,193,97392,2,0,L|234:152,1,112.500004291535
418,89,97554,6,0,B|451:122|494:135|494:135|516:237|489:319|489:319|454:250,1,300.000011444092,4|2,0:0|0:0,0:0:0:0:
433,284,97796,6,0,B|348:294|299:276|299:276|251:300|251:300|209:273|96:293,1,300.000011444092,4|0,0:0|0:0,0:0:0:0:
153,271,98038,38,0,P|149:213|110:257,1,150.000005722046,6|0,0:0|0:0,0:0:0:0:
179,364,98199,37,12,0:0:0:0:
226,328,98279,1,8,0:0:0:0:
253,275,98360,5,14,0:0:0:0:
253,216,98440,37,8,0:0:0:0:
226,163,98521,5,14,0:0:0:0:
177,128,98602,37,8,0:0:0:0:
119,119,98683,2,0,L|106:47,1,50,12|8,0:0|0:0,0:0:0:0:
62,137,98763,2,0,L|26:60,1,50,8|8,0:0|0:0,0:0:0:0:
28,175,98844,1,12,0:0:0:0:
253,216,99005,6,0,B|178:178|110:213|110:213|164:293|253:278,1,300.000011444092,4|0,0:0|0:0,0:0:0:0:
274,286,99247,6,0,B|388:320|484:290|484:290|382:270|370:209,1,300.000011444092,4|0,0:0|0:0,0:0:0:0:
410,220,99489,6,0,P|421:117|353:219,1,300.000011444092,4|0,0:0|0:0,0:0:0:0:
365,231,99731,5,0,0:0:0:0:
365,231,99812,6,0,B|222:243|180:319|180:319|146:236|-13:224,1,400,4|0,0:0|0:0,0:0:0:0:
228,118,100134,21,4,0:0:0:0:
241,172,100215,1,0,0:0:0:0:
244,228,100296,2,0,P|221:279|180:316,1,112.500004291535
64,294,100457,2,0,P|86:243|128:206,1,112.500004291535,8|0,0:0|0:0,0:0:0:0:
343,119,100618,1,0,0:0:0:0:
369,165,100699,1,0,0:0:0:0:
385,220,100780,2,0,P|376:275|346:322,1,112.500004291535
169,119,100941,6,0,L|16:64,1,112.500004291535
343,119,101102,2,0,L|496:64,1,112.500004291535,8|0,0:0|0:0,0:0:0:0:
256,248,101263,2,0,L|256:388,1,112.500004291535
169,119,101425,37,4,0:0:0:0:
215,93,101506,1,0,0:0:0:0:
270,77,101587,2,0,P|325:85|372:115,1,112.500004291535
71,139,101747,2,0,P|79:83|109:36,1,112.500004291535,8|0,0:0|0:0,0:0:0:0:
282,196,101909,1,0,0:0:0:0:
281,248,101990,1,0,0:0:0:0:
267,304,102071,2,0,P|232:347|182:373,1,112.500004291535
378,235,102231,6,0,L|512:272,1,112.500004291535
220,78,102392,22,0,P|257:32|262:91,1,150.000005722046,10|0,0:0|0:0,0:0:0:0:
134,235,102554,22,0,L|0:272,1,112.500004291535
378,235,102715,38,0,B|385:285|385:285|353:337,1,112.500004291535,4|0,0:0|0:0,0:0:0:0:
134,235,102876,1,0,0:0:0:0:
134,235,102957,2,0,B|126:285|126:285|158:337,1,112.500004291535,0|8,0:0|0:0,0:0:0:0:
371,113,103118,1,0,0:0:0:0:
371,113,103199,2,0,B|351:163|351:163|294:193,1,112.500004291535
141,113,103360,1,0,0:0:0:0:
141,113,103441,2,0,B|160:163|160:163|217:193,1,112.500004291535
256,4,103602,5,0,0:0:0:0:
256,4,103683,2,0,L|256:125,1,112.500004291535,8|0,0:0|0:0,0:0:0:0:
256,341,103844,2,0,L|256:228,1,112.500004291535
434,228,104005,38,0,L|422:363,1,112.500004291535,4|0,0:0|0:0,0:0:0:0:
358,132,104167,1,0,0:0:0:0:
358,132,104247,2,0,L|367:19,1,112.500004291535,0|8,0:0|0:0,0:0:0:0:
258,208,104409,1,0,0:0:0:0:
258,208,104489,2,0,L|248:320,1,112.500004291535
178,108,104650,1,0,0:0:0:0:
118,81,104730,1,0,0:0:0:0:
60,110,104812,21,2,0:0:0:0:
47,174,104891,5,0,0:0:0:0:
97,220,104973,38,0,P|153:214|94:190,1,150.000005722046,10|0,0:0|0:0,0:0:0:0:
256,116,105134,38,0,L|281:-45,1,112.500004291535
434,228,105296,37,12,0:0:0:0:
434,228,105376,1,0,0:0:0:0:
434,228,105457,1,0,0:0:0:0:
256,223,105618,1,8,0:0:0:0:
349,72,105779,1,0,0:0:0:0:
316,335,105941,1,8,0:0:0:0:
302,147,106102,1,0,0:0:0:0:
67,306,106263,22,0,P|34:374|78:313,1,225.000008583069,10|0,0:0|0:0,0:0:0:0:
33,118,106586,37,12,0:0:0:0:
33,118,106667,1,0,0:0:0:0:
33,118,106747,1,0,0:0:0:0:
256,192,106909,1,8,0:0:0:0:
68,312,107070,1,0,0:0:0:0:
171,115,107231,1,8,0:0:0:0:
227,377,107392,21,0,0:0:0:0:
250,60,107554,38,0,P|293:0|260:67,1,225.000008583069,2|0,0:0|0:0,0:0:0:0:
42,229,107876,6,0,B|162:188|292:252|292:252|207:268,1,300.000011444092,4|2,0:0|0:0,0:0:0:0:
208,274,108118,6,0,B|168:287|142:316|142:316|97:147|170:145|131:64,1,300.000011444092,4|0,0:0|0:0,0:0:0:0:
124,131,108360,22,0,P|66:135|110:174,1,150.000005722046,6|0,0:0|0:0,0:0:0:0:
337,85,108521,37,12,0:0:0:0:
359,139,108601,1,8,0:0:0:0:
356,199,108682,5,14,0:0:0:0:
327,250,108762,37,8,0:0:0:0:
277,282,108844,5,14,0:0:0:0:
217,288,108924,37,8,0:0:0:0:
162,267,109005,1,12,0:0:0:0:
122,223,109086,1,8,0:0:0:0:
111,173,109167,6,0,B|174:135|201:50|201:50|217:152|301:197,1,300.000011444092,4|0,0:0|0:0,0:0:0:0:
299,188,109409,6,0,P|404:97|274:114,1,300.000011444092,4|0,0:0|0:0,0:0:0:0:
343,132,109650,6,0,B|406:243|369:344|369:344|338:292|263:229,1,300.000011444092,4|0,0:0|0:0,0:0:0:0:
292,272,109892,6,0,B|141:239|141:339|-8:294,1,300.000011444092,4|0,0:0|0:0,0:0:0:0:
14,278,110134,6,0,L|27:269,1,15,4|0,0:0|0:0,0:0:0:0:
256,192,110457,5,4,0:0:0:0:
256,192,110618,12,0,113038,0:0:0:0:
