osu file format v14

[General]
AudioFilename: audio.mp3
AudioLeadIn: 0
PreviewTime: 89761
Countdown: 0
SampleSet: Normal
StackLeniency: 0.7
Mode: 1
LetterboxInBreaks: 0
WidescreenStoryboard: 0

[Editor]
DistanceSpacing: 0.8
BeatDivisor: 8
GridSize: 32
TimelineZoom: 2

[Metadata]
Title:Gekkou Ranbu
TitleUnicode:月光乱舞
Artist:P*Light
ArtistUnicode:P*Light
Creator:Ni-Sokkususu
Version:EXH 18
Source:SOUND VOLTEX III GRAVITY WARS
Tags:SDVX 天下一音ゲ祭 2015 ブロック決勝課題曲
BeatmapID:1421125
BeatmapSetID:672276

[Difficulty]
HPDrainRate:6
CircleSize:4
OverallDifficulty:5
ApproachRate:10
SliderMultiplier:1.3999999666214
SliderTickRate:1

[Events]
//Background and Video events
0,0,"BG.jpg",0,0
//Break Periods
//Storyboard Layer 0 (Background)
//Storyboard Layer 1 (Fail)
//Storyboard Layer 2 (Pass)
//Storyboard Layer 3 (Foreground)
//Storyboard Sound Samples

[TimingPoints]
2020,322.58064516129,4,1,1,70,1,0
2020,-66.6666666666667,4,1,1,70,0,0
2100,-100,4,1,1,70,0,0
3310,-66.6666666666667,4,1,1,70,0,0
3390,-100,4,1,1,70,0,0
4600,-66.6666666666667,4,1,1,70,0,0
4681,-100,4,1,1,70,0,0
5084,-66.6666666666667,4,1,1,70,0,0
5165,-100,4,1,1,70,0,0
5568,-66.6666666666667,4,1,1,70,0,0
5649,-100,4,1,1,70,0,0
5890,-66.6666666666667,4,1,1,70,0,0
5971,-100,4,1,1,70,0,0
7181,-90.9090909090909,4,2,1,70,0,0
8471,-83.3333333333333,4,2,1,70,0,0
9761,-76.9230769230769,4,2,1,70,0,0
10407,-75.187969924812,4,2,1,70,0,0
10487,-73.5294117647059,4,2,1,70,0,0
10568,-71.9424460431655,4,2,1,70,0,0
10649,-70.4225352112676,4,2,1,70,0,0
10729,-68.9655172413793,4,2,1,70,0,0
10810,-67.5675675675676,4,2,1,70,0,0
10890,-66.2251655629139,4,2,1,70,0,0
10971,-64.9350649350649,4,2,1,70,0,0
11052,-58.8235294117647,4,2,1,70,0,0
11374,-66.6666666666667,4,1,1,70,0,0
12342,-66.6666666666667,4,1,1,70,0,1
17503,-62.5,4,1,1,70,0,1
18794,-58.8235294117647,4,1,1,70,0,1
20084,-55.5555555555556,4,1,1,70,0,1
21536,-50,4,1,1,70,0,1
22665,-66.6666666666667,4,1,1,70,0,0
27826,-62.5,4,2,1,70,0,0
29116,-58.8235294117647,4,2,1,70,0,0
30407,-55.5555555555556,4,2,1,70,0,0
31858,-50,4,2,1,70,0,0
32987,-80,4,1,1,70,0,0
38149,-76.9230769230769,4,2,1,70,0,0
39439,-71.4285714285714,4,2,1,70,0,0
40729,-66.6666666666667,4,2,1,70,0,0
41374,-62.5,4,2,1,70,0,0
42019,-58.8235294117647,4,2,1,70,0,0
42181,-58.1395348837209,4,2,1,70,0,0
42342,-57.4712643678161,4,2,1,70,0,0
42503,-56.8181818181818,4,2,1,70,0,0
42665,-56.1797752808989,4,2,1,70,0,0
42745,-55.5555555555556,4,2,1,70,0,0
42826,-54.9450549450549,4,2,1,70,0,0
42907,-54.3478260869565,4,2,1,70,0,0
42987,-53.763440860215,4,2,1,70,0,0
43068,-53.1914893617021,4,2,1,70,0,0
43149,-52.6315789473684,4,2,1,70,0,0
43229,-52.0833333333333,4,2,1,70,0,0
43632,-100,4,1,1,70,0,0
44600,-66.6666666666667,4,2,1,70,0,0
45890,-83.3333333333333,4,1,1,70,0,0
51052,-76.9230769230769,4,1,1,70,0,0
54923,-71.4285714285714,4,2,1,70,0,0
56213,-66.6666666666667,4,1,1,70,0,0
61374,-62.5,4,2,1,70,0,0
62665,-58.8235294117647,4,2,1,70,0,0
63955,-55.5555555555556,4,2,1,70,0,0
65245,-52.6315789473684,4,2,1,70,0,0
66616,-100,4,1,1,0,0,0
68471,-100,4,1,1,70,0,0
79116,-50,4,1,1,70,0,0
79439,-80,4,1,1,70,0,0
84600,-71.4285714285714,4,2,1,70,0,0
85245,-68.9655172413793,4,2,1,70,0,0
85568,-66.6666666666667,4,2,1,70,0,0
85890,-64.5161290322581,4,2,1,70,0,0
86536,-60.6060606060606,4,2,1,70,0,0
86858,-58.8235294117647,4,2,1,70,0,0
87181,-55.5555555555556,4,2,1,70,0,0
88471,-55.5555555555556,4,1,1,70,0,0
88552,-58.8235294117647,4,1,1,70,0,0
88632,-62.5,4,1,1,70,0,0
88713,-66.6666666666667,4,1,1,70,0,0
88794,-71.4285714285714,4,1,1,70,0,0
88874,-76.9230769230769,4,1,1,70,0,0
88955,-83.3333333333333,4,1,1,70,0,0
89036,-90.9090909090909,4,1,1,70,0,0
89116,-66.6666666666667,4,1,1,70,0,0
89761,-55.5555555555556,4,1,1,70,0,1
97503,-50,4,2,1,70,0,1
98955,-47.6190476190476,4,2,1,70,0,1
99197,-47.6190476190476,4,2,1,70,0,1
99439,-47.6190476190476,4,2,1,70,0,1
99681,-47.6190476190476,4,2,1,70,0,1
99923,-47.6190476190476,4,2,1,70,0,0
100084,-45.4545454545455,4,2,1,70,0,1
110245,-1,4,2,1,70,0,0

[HitObjects]
256,192,1374,5,0,0:0:0:0:
256,192,1415,1,0,0:0:0:0:
256,192,1536,1,0,0:0:0:0:
256,192,1576,1,0,0:0:0:0:
256,192,1697,1,8,0:0:0:0:
256,192,1737,1,8,0:0:0:0:
256,192,1858,1,8,0:0:0:0:
256,192,1899,1,8,0:0:0:0:
256,192,2020,1,4,0:0:0:0:
256,192,2342,1,8,0:0:0:0:
256,192,2503,1,4,0:0:0:0:
256,192,2665,1,0,0:0:0:0:
256,192,2826,1,0,0:0:0:0:
256,192,2987,1,8,0:0:0:0:
256,192,3149,1,8,0:0:0:0:
256,192,3310,1,4,0:0:0:0:
256,192,3632,1,8,0:0:0:0:
256,192,3794,1,4,0:0:0:0:
256,192,3955,1,0,0:0:0:0:
256,192,4116,1,8,0:0:0:0:
256,192,4278,1,8,0:0:0:0:
256,192,4439,1,8,0:0:0:0:
256,192,4600,1,4,0:0:0:0:
256,192,4761,1,8,0:0:0:0:
256,192,4923,1,0,0:0:0:0:
256,192,5084,1,4,0:0:0:0:
256,192,5245,1,8,0:0:0:0:
256,192,5407,1,8,0:0:0:0:
256,192,5568,1,4,0:0:0:0:
256,192,5729,1,8,0:0:0:0:
256,192,5890,1,4,0:0:0:0:
256,192,6213,1,8,0:0:0:0:
256,192,6374,1,4,0:0:0:0:
256,192,6536,1,0,0:0:0:0:
256,192,6697,1,0,0:0:0:0:
256,192,6858,1,8,0:0:0:0:
256,192,7019,1,8,0:0:0:0:
256,192,7181,1,4,0:0:0:0:
256,192,7503,1,8,0:0:0:0:
256,192,7584,1,8,0:0:0:0:
256,192,7665,1,0,0:0:0:0:
256,192,7745,1,0,0:0:0:0:
256,192,7826,1,8,0:0:0:0:
256,192,7907,1,8,0:0:0:0:
256,192,7987,1,0,0:0:0:0:
256,192,8068,1,0,0:0:0:0:
256,192,8149,1,8,0:0:0:0:
256,192,8229,1,8,0:0:0:0:
256,192,8310,1,0,0:0:0:0:
256,192,8471,1,4,0:0:0:0:
256,192,8794,1,8,0:0:0:0:
256,192,8874,1,8,0:0:0:0:
256,192,8955,1,0,0:0:0:0:
256,192,9036,1,0,0:0:0:0:
256,192,9116,1,8,0:0:0:0:
256,192,9197,1,8,0:0:0:0:
256,192,9278,1,0,0:0:0:0:
256,192,9358,1,0,0:0:0:0:
256,192,9439,1,8,0:0:0:0:
256,192,9519,1,0,0:0:0:0:
256,192,9600,1,8,0:0:0:0:
256,192,9761,1,12,0:0:0:0:
256,192,9923,1,0,0:0:0:0:
256,192,10084,1,12,0:0:0:0:
256,192,10245,1,0,0:0:0:0:
256,192,10407,1,8,0:0:0:0:
256,192,10487,1,8,0:0:0:0:
256,192,10568,1,8,0:0:0:0:
256,192,10649,1,8,0:0:0:0:
256,192,10729,1,8,0:0:0:0:
256,192,10810,1,8,0:0:0:0:
256,192,10890,1,8,0:0:0:0:
256,192,10971,1,8,0:0:0:0:
256,192,11052,1,4,0:0:0:0:
256,192,11374,1,12,0:0:0:0:
256,192,11697,1,0,0:0:0:0:
256,192,11778,1,8,0:0:0:0:
256,192,11858,1,8,0:0:0:0:
256,192,11939,1,0,0:0:0:0:
256,192,12019,1,8,0:0:0:0:
256,192,12100,1,0,0:0:0:0:
256,192,12181,1,8,0:0:0:0:
256,192,12342,1,4,0:0:0:0:
256,192,12584,1,0,0:0:0:0:
256,192,12665,1,8,0:0:0:0:
256,192,12826,1,0,0:0:0:0:
256,192,12907,1,0,0:0:0:0:
256,192,12987,1,8,0:0:0:0:
256,192,13068,1,8,0:0:0:0:
256,192,13149,1,0,0:0:0:0:
256,192,13229,1,0,0:0:0:0:
256,192,13310,1,8,0:0:0:0:
256,192,13390,1,0,0:0:0:0:
256,192,13471,1,8,0:0:0:0:
256,192,13552,1,8,0:0:0:0:
256,192,13632,1,0,0:0:0:0:
256,192,13713,1,0,0:0:0:0:
256,192,13874,1,0,0:0:0:0:
256,192,13955,1,8,0:0:0:0:
256,192,14116,1,0,0:0:0:0:
256,192,14197,1,8,0:0:0:0:
256,192,14278,1,8,0:0:0:0:
256,192,14358,1,0,0:0:0:0:
256,192,14439,1,8,0:0:0:0:
256,192,14519,1,8,0:0:0:0:
256,192,14600,1,0,0:0:0:0:
256,192,14681,1,8,0:0:0:0:
256,192,14761,1,0,0:0:0:0:
256,192,14842,1,8,0:0:0:0:
256,192,14923,1,8,0:0:0:0:
256,192,15084,1,0,0:0:0:0:
256,192,15165,1,8,0:0:0:0:
256,192,15245,1,0,0:0:0:0:
256,192,15407,1,8,0:0:0:0:
256,192,15568,1,8,0:0:0:0:
256,192,15649,1,0,0:0:0:0:
256,192,15729,1,8,0:0:0:0:
256,192,15810,1,8,0:0:0:0:
256,192,15890,1,0,0:0:0:0:
256,192,15971,1,0,0:0:0:0:
256,192,16052,1,8,0:0:0:0:
256,192,16132,1,0,0:0:0:0:
256,192,16213,1,0,0:0:0:0:
256,192,16294,1,0,0:0:0:0:
256,192,16455,1,0,0:0:0:0:
256,192,16536,1,8,0:0:0:0:
256,192,16697,1,0,0:0:0:0:
256,192,16778,1,0,0:0:0:0:
256,192,16858,1,8,0:0:0:0:
256,192,16939,1,8,0:0:0:0:
256,192,17019,1,0,0:0:0:0:
256,192,17100,1,8,0:0:0:0:
256,192,17181,1,0,0:0:0:0:
256,192,17261,1,0,0:0:0:0:
256,192,17342,1,8,0:0:0:0:
256,192,17503,1,4,0:0:0:0:
256,192,17665,1,8,0:0:0:0:
256,192,17745,1,8,0:0:0:0:
256,192,17826,1,0,0:0:0:0:
256,192,17987,1,8,0:0:0:0:
256,192,18149,1,0,0:0:0:0:
256,192,18229,1,8,0:0:0:0:
256,192,18390,1,8,0:0:0:0:
256,192,18471,1,0,0:0:0:0:
256,192,18632,1,8,0:0:0:0:
256,192,18794,1,4,0:0:0:0:
256,192,18955,1,8,0:0:0:0:
256,192,19036,1,8,0:0:0:0:
256,192,19116,1,0,0:0:0:0:
256,192,19197,1,0,0:0:0:0:
256,192,19278,1,8,0:0:0:0:
256,192,19358,1,8,0:0:0:0:
256,192,19439,1,0,0:0:0:0:
256,192,19519,1,8,0:0:0:0:
256,192,19681,1,8,0:0:0:0:
256,192,19761,1,0,0:0:0:0:
256,192,19842,1,0,0:0:0:0:
256,192,19923,1,8,0:0:0:0:
256,192,20084,1,4,0:0:0:0:
256,192,20245,1,8,0:0:0:0:
256,192,20326,1,8,0:0:0:0:
256,192,20487,1,8,0:0:0:0:
256,192,20568,1,8,0:0:0:0:
256,192,20729,1,4,0:0:0:0:
256,192,20890,1,12,0:0:0:0:
256,192,21052,1,4,0:0:0:0:
256,192,21213,1,12,0:0:0:0:
256,192,21536,1,12,0:0:0:0:
256,192,21778,1,12,0:0:0:0:
256,192,22019,1,12,0:0:0:0:
256,192,22181,1,0,0:0:0:0:
256,192,22342,1,12,0:0:0:0:
256,192,22665,1,8,0:0:0:0:
256,192,22745,1,8,0:0:0:0:
256,192,22826,1,0,0:0:0:0:
256,192,22907,1,8,0:0:0:0:
256,192,22987,1,0,0:0:0:0:
256,192,23068,1,0,0:0:0:0:
256,192,23149,1,8,0:0:0:0:
256,192,23229,1,0,0:0:0:0:
256,192,23310,1,8,0:0:0:0:
256,192,23390,1,8,0:0:0:0:
256,192,23471,1,0,0:0:0:0:
256,192,23552,1,0,0:0:0:0:
256,192,23632,1,8,0:0:0:0:
256,192,23713,1,0,0:0:0:0:
256,192,23794,1,8,0:0:0:0:
256,192,23874,1,8,0:0:0:0:
256,192,23955,1,8,0:0:0:0:
256,192,24036,1,0,0:0:0:0:
256,192,24116,1,0,0:0:0:0:
256,192,24197,1,0,0:0:0:0:
256,192,24278,1,8,0:0:0:0:
256,192,24358,1,0,0:0:0:0:
256,192,24439,1,8,0:0:0:0:
256,192,24519,1,8,0:0:0:0:
256,192,24600,1,0,0:0:0:0:
256,192,24681,1,0,0:0:0:0:
256,192,24761,1,8,0:0:0:0:
256,192,24842,1,0,0:0:0:0:
256,192,24923,1,8,0:0:0:0:
256,192,25003,1,8,0:0:0:0:
256,192,25084,1,0,0:0:0:0:
256,192,25165,1,0,0:0:0:0:
256,192,25245,1,8,0:0:0:0:
256,192,25326,1,0,0:0:0:0:
256,192,25407,1,0,0:0:0:0:
256,192,25487,1,8,0:0:0:0:
256,192,25568,1,8,0:0:0:0:
256,192,25649,1,0,0:0:0:0:
256,192,25729,1,8,0:0:0:0:
256,192,25810,1,0,0:0:0:0:
256,192,25890,1,8,0:0:0:0:
256,192,25971,1,8,0:0:0:0:
256,192,26052,1,0,0:0:0:0:
256,192,26132,1,0,0:0:0:0:
256,192,26213,1,8,0:0:0:0:
256,192,26294,1,0,0:0:0:0:
256,192,26374,1,0,0:0:0:0:
256,192,26455,1,0,0:0:0:0:
256,192,26536,1,8,0:0:0:0:
256,192,26616,1,8,0:0:0:0:
256,192,26697,1,0,0:0:0:0:
256,192,26778,1,8,0:0:0:0:
256,192,26858,1,8,0:0:0:0:
256,192,26939,1,0,0:0:0:0:
256,192,27019,1,8,0:0:0:0:
256,192,27100,1,0,0:0:0:0:
256,192,27181,1,0,0:0:0:0:
256,192,27261,1,8,0:0:0:0:
256,192,27342,1,0,0:0:0:0:
256,192,27423,1,0,0:0:0:0:
256,192,27503,1,8,0:0:0:0:
256,192,27584,1,8,0:0:0:0:
256,192,27665,1,0,0:0:0:0:
256,192,27745,1,0,0:0:0:0:
256,192,27826,1,8,0:0:0:0:
256,192,27907,1,8,0:0:0:0:
256,192,27987,1,0,0:0:0:0:
256,192,28068,1,0,0:0:0:0:
256,192,28149,1,8,0:0:0:0:
256,192,28229,1,0,0:0:0:0:
256,192,28310,1,0,0:0:0:0:
256,192,28390,1,0,0:0:0:0:
256,192,28471,1,8,0:0:0:0:
256,192,28552,1,0,0:0:0:0:
256,192,28632,1,0,0:0:0:0:
256,192,28713,1,0,0:0:0:0:
256,192,28794,1,8,0:0:0:0:
256,192,28874,1,0,0:0:0:0:
256,192,28955,1,0,0:0:0:0:
256,192,29036,1,0,0:0:0:0:
256,192,29116,1,8,0:0:0:0:
256,192,29197,1,8,0:0:0:0:
256,192,29278,1,0,0:0:0:0:
256,192,29358,1,0,0:0:0:0:
256,192,29439,1,8,0:0:0:0:
256,192,29519,1,0,0:0:0:0:
256,192,29600,1,0,0:0:0:0:
256,192,29681,1,0,0:0:0:0:
256,192,29761,1,8,0:0:0:0:
256,192,29842,1,0,0:0:0:0:
256,192,29923,1,8,0:0:0:0:
256,192,30003,1,0,0:0:0:0:
256,192,30084,1,8,0:0:0:0:
256,192,30165,1,0,0:0:0:0:
256,192,30245,1,8,0:0:0:0:
256,192,30326,1,0,0:0:0:0:
256,192,30407,1,8,0:0:0:0:
256,192,30487,1,8,0:0:0:0:
256,192,30568,1,0,0:0:0:0:
256,192,30649,1,8,0:0:0:0:
256,192,30729,1,8,0:0:0:0:
256,192,30810,1,0,0:0:0:0:
256,192,30890,1,8,0:0:0:0:
256,192,30971,1,8,0:0:0:0:
256,192,31052,1,0,0:0:0:0:
256,192,31132,1,0,0:0:0:0:
256,192,31213,1,8,0:0:0:0:
256,192,31294,1,8,0:0:0:0:
256,192,31374,1,8,0:0:0:0:
256,192,31455,1,8,0:0:0:0:
256,192,31536,1,8,0:0:0:0:
256,192,31616,1,8,0:0:0:0:
256,192,31858,1,12,0:0:0:0:
256,192,32100,1,12,0:0:0:0:
256,192,32342,1,12,0:0:0:0:
256,192,32503,1,0,0:0:0:0:
256,192,32665,1,8,0:0:0:0:
256,192,32987,1,8,0:0:0:0:
256,192,33068,1,8,0:0:0:0:
256,192,33230,1,0,0:0:0:0:
256,192,33310,1,0,0:0:0:0:
256,192,33471,1,8,0:0:0:0:
256,192,33552,1,8,0:0:0:0:
256,192,33713,1,0,0:0:0:0:
256,192,33794,1,0,0:0:0:0:
256,192,33955,1,8,0:0:0:0:
256,192,34116,1,8,0:0:0:0:
256,192,34278,1,0,0:0:0:0:
256,192,34358,1,8,0:0:0:0:
256,192,34519,1,8,0:0:0:0:
256,192,34600,1,8,0:0:0:0:
256,192,34761,1,0,0:0:0:0:
256,192,34842,1,0,0:0:0:0:
256,192,34923,1,8,0:0:0:0:
256,192,35030,1,8,0:0:0:0:
256,192,35138,1,8,0:0:0:0:
256,192,35245,1,0,0:0:0:0:
256,192,35407,1,8,0:0:0:0:
256,192,35568,1,8,0:0:0:0:
256,192,35649,1,8,0:0:0:0:
256,192,35810,1,0,0:0:0:0:
256,192,35890,1,8,0:0:0:0:
256,192,36052,1,0,0:0:0:0:
256,192,36132,1,0,0:0:0:0:
256,192,36294,1,8,0:0:0:0:
256,192,36374,1,8,0:0:0:0:
256,192,36536,1,0,0:0:0:0:
256,192,36697,1,8,0:0:0:0:
256,192,36858,1,8,0:0:0:0:
256,192,36939,1,0,0:0:0:0:
256,192,37100,1,8,0:0:0:0:
256,192,37181,1,8,0:0:0:0:
256,192,37342,1,0,0:0:0:0:
256,192,37423,1,8,0:0:0:0:
256,192,37503,1,0,0:0:0:0:
256,192,37584,1,0,0:0:0:0:
256,192,37665,1,0,0:0:0:0:
256,192,37745,1,0,0:0:0:0:
256,192,37826,1,8,0:0:0:0:
256,192,37907,1,8,0:0:0:0:
256,192,37987,1,8,0:0:0:0:
256,192,38068,1,8,0:0:0:0:
256,192,38149,1,0,0:0:0:0:
256,192,38229,1,0,0:0:0:0:
256,192,38390,1,0,0:0:0:0:
256,192,38471,1,0,0:0:0:0:
256,192,38632,1,0,0:0:0:0:
256,192,38713,1,0,0:0:0:0:
256,192,38874,1,0,0:0:0:0:
256,192,38955,1,0,0:0:0:0:
256,192,39116,1,12,0:0:0:0:
256,192,39278,1,12,0:0:0:0:
256,192,39439,1,0,0:0:0:0:
256,192,39519,1,0,0:0:0:0:
256,192,39680,1,0,0:0:0:0:
256,192,39761,1,0,0:0:0:0:
256,192,39922,1,0,0:0:0:0:
256,192,40003,1,0,0:0:0:0:
256,192,40164,1,0,0:0:0:0:
256,192,40245,1,0,0:0:0:0:
256,192,40407,1,12,0:0:0:0:
256,192,40568,1,12,0:0:0:0:
256,192,40729,1,12,0:0:0:0:
256,192,40971,1,4,0:0:0:0:
256,192,41213,1,4,0:0:0:0:
256,192,41374,1,12,0:0:0:0:
256,192,41616,1,4,0:0:0:0:
256,192,41858,1,4,0:0:0:0:
256,192,42019,1,12,0:0:0:0:
256,192,42181,1,4,0:0:0:0:
256,192,42342,1,12,0:0:0:0:
256,192,42503,1,4,0:0:0:0:
256,192,42665,1,8,0:0:0:0:
256,192,42745,1,0,0:0:0:0:
256,192,42826,1,8,0:0:0:0:
256,192,42907,1,0,0:0:0:0:
256,192,42987,1,8,0:0:0:0:
256,192,43068,1,0,0:0:0:0:
256,192,43149,1,8,0:0:0:0:
256,192,43229,1,8,0:0:0:0:
256,192,43632,1,8,0:0:0:0:
256,192,43794,1,0,0:0:0:0:
256,192,43955,1,8,0:0:0:0:
256,192,44116,1,0,0:0:0:0:
256,192,44278,1,8,0:0:0:0:
256,192,44439,1,8,0:0:0:0:
256,192,44600,1,12,0:0:0:0:
256,192,44761,1,4,0:0:0:0:
256,192,44923,1,12,0:0:0:0:
256,192,45084,1,12,0:0:0:0:
256,192,45245,1,4,0:0:0:0:
256,192,45407,1,0,0:0:0:0:
256,192,45460,1,0,0:0:0:0:
256,192,45514,1,0,0:0:0:0:
256,192,45568,1,8,0:0:0:0:
256,192,45890,1,0,0:0:0:0:
256,192,45971,1,0,0:0:0:0:
256,192,46052,1,0,0:0:0:0:
256,192,46132,1,0,0:0:0:0:
256,192,46213,1,8,0:0:0:0:
256,192,46294,1,8,0:0:0:0:
256,192,46374,1,8,0:0:0:0:
256,192,46455,1,8,0:0:0:0:
256,192,46536,1,0,0:0:0:0:
256,192,46616,1,0,0:0:0:0:
256,192,46697,1,8,0:0:0:0:
256,192,46778,1,8,0:0:0:0:
256,192,46858,1,0,0:0:0:0:
256,192,46939,1,0,0:0:0:0:
256,192,47019,1,8,0:0:0:0:
256,192,47100,1,8,0:0:0:0:
256,192,47181,1,8,0:0:0:0:
256,192,47261,1,8,0:0:0:0:
256,192,47342,1,0,0:0:0:0:
256,192,47423,1,0,0:0:0:0:
256,192,47503,1,8,0:0:0:0:
256,192,47584,1,0,0:0:0:0:
256,192,47665,1,8,0:0:0:0:
256,192,47745,1,8,0:0:0:0:
256,192,47826,1,0,0:0:0:0:
256,192,47907,1,0,0:0:0:0:
256,192,47987,1,8,0:0:0:0:
256,192,48068,1,0,0:0:0:0:
256,192,48149,1,8,0:0:0:0:
256,192,48229,1,8,0:0:0:0:
256,192,48310,1,0,0:0:0:0:
256,192,48390,1,0,0:0:0:0:
256,192,48471,1,8,0:0:0:0:
256,192,48552,1,8,0:0:0:0:
256,192,48632,1,8,0:0:0:0:
256,192,48713,1,8,0:0:0:0:
256,192,48794,1,0,0:0:0:0:
256,192,48874,1,0,0:0:0:0:
256,192,48955,1,8,0:0:0:0:
256,192,49036,1,0,0:0:0:0:
256,192,49116,1,8,0:0:0:0:
256,192,49197,1,8,0:0:0:0:
256,192,49278,1,0,0:0:0:0:
256,192,49358,1,0,0:0:0:0:
256,192,49439,1,8,0:0:0:0:
256,192,49519,1,8,0:0:0:0:
256,192,49600,1,8,0:0:0:0:
256,192,49681,1,8,0:0:0:0:
256,192,49761,1,4,0:0:0:0:
256,192,49923,1,4,0:0:0:0:
256,192,50084,1,12,0:0:0:0:
256,192,50245,1,12,0:0:0:0:
256,192,50407,1,12,0:0:0:0:
256,192,50568,1,4,0:0:0:0:
256,192,50729,1,4,0:0:0:0:
256,192,51052,1,0,0:0:0:0:
256,192,51132,1,0,0:0:0:0:
256,192,51213,1,0,0:0:0:0:
256,192,51294,1,0,0:0:0:0:
256,192,51374,1,8,0:0:0:0:
256,192,51455,1,8,0:0:0:0:
256,192,51536,1,0,0:0:0:0:
256,192,51616,1,0,0:0:0:0:
256,192,51697,1,8,0:0:0:0:
256,192,51778,1,0,0:0:0:0:
256,192,51858,1,8,0:0:0:0:
256,192,51939,1,8,0:0:0:0:
256,192,52019,1,0,0:0:0:0:
256,192,52100,1,0,0:0:0:0:
256,192,52181,1,8,0:0:0:0:
256,192,52261,1,8,0:0:0:0:
256,192,52342,1,8,0:0:0:0:
256,192,52423,1,0,0:0:0:0:
256,192,52503,1,8,0:0:0:0:
256,192,52584,1,0,0:0:0:0:
256,192,52665,1,8,0:0:0:0:
256,192,52745,1,8,0:0:0:0:
256,192,52826,1,0,0:0:0:0:
256,192,52907,1,0,0:0:0:0:
256,192,52987,1,8,0:0:0:0:
256,192,53068,1,0,0:0:0:0:
256,192,53149,1,0,0:0:0:0:
256,192,53229,1,0,0:0:0:0:
256,192,53310,1,8,0:0:0:0:
256,192,53390,1,0,0:0:0:0:
256,192,53471,1,8,0:0:0:0:
256,192,53552,1,0,0:0:0:0:
256,192,53632,1,8,0:0:0:0:
256,192,53713,1,8,0:0:0:0:
256,192,53794,1,8,0:0:0:0:
256,192,53874,1,8,0:0:0:0:
256,192,53955,1,0,0:0:0:0:
256,192,54036,1,0,0:0:0:0:
256,192,54116,1,8,0:0:0:0:
256,192,54197,1,0,0:0:0:0:
256,192,54278,1,8,0:0:0:0:
256,192,54358,1,8,0:0:0:0:
256,192,54439,1,0,0:0:0:0:
256,192,54519,1,0,0:0:0:0:
256,192,54600,1,8,0:0:0:0:
256,192,54681,1,8,0:0:0:0:
256,192,54761,1,8,0:0:0:0:
256,192,54842,1,8,0:0:0:0:
256,192,54923,1,0,0:0:0:0:
256,192,54963,1,4,0:0:0:0:
256,192,55084,1,0,0:0:0:0:
256,192,55124,1,4,0:0:0:0:
256,192,55245,1,8,0:0:0:0:
256,192,55285,1,12,0:0:0:0:
256,192,55407,1,8,0:0:0:0:
256,192,55447,1,12,0:0:0:0:
256,192,55568,1,8,0:0:0:0:
256,192,55608,1,12,0:0:0:0:
256,192,55729,1,0,0:0:0:0:
256,192,55769,1,4,0:0:0:0:
256,192,55890,1,0,0:0:0:0:
256,192,55930,1,4,0:0:0:0:
256,192,56213,1,8,0:0:0:0:
256,192,56294,1,0,0:0:0:0:
256,192,56374,1,0,0:0:0:0:
256,192,56455,1,8,0:0:0:0:
256,192,56536,1,0,0:0:0:0:
256,192,56616,1,0,0:0:0:0:
256,192,56697,1,8,0:0:0:0:
256,192,56778,1,0,0:0:0:0:
256,192,56858,1,0,0:0:0:0:
256,192,56939,1,8,0:0:0:0:
256,192,57019,1,0,0:0:0:0:
256,192,57181,1,12,0:0:0:0:
256,192,57342,1,12,0:0:0:0:
256,192,57503,1,8,0:0:0:0:
256,192,57584,1,0,0:0:0:0:
256,192,57664,1,0,0:0:0:0:
256,192,57745,1,8,0:0:0:0:
256,192,57826,1,0,0:0:0:0:
256,192,57906,1,0,0:0:0:0:
256,192,57987,1,8,0:0:0:0:
256,192,58068,1,0,0:0:0:0:
256,192,58148,1,8,0:0:0:0:
256,192,58256,1,8,0:0:0:0:
256,192,58364,1,0,0:0:0:0:
256,192,58471,1,12,0:0:0:0:
256,192,58632,1,12,0:0:0:0:
256,192,58794,1,8,0:0:0:0:
256,192,58875,1,8,0:0:0:0:
256,192,58955,1,0,0:0:0:0:
256,192,59036,1,8,0:0:0:0:
256,192,59117,1,8,0:0:0:0:
256,192,59197,1,0,0:0:0:0:
256,192,59278,1,8,0:0:0:0:
256,192,59359,1,8,0:0:0:0:
256,192,59439,1,0,0:0:0:0:
256,192,59520,1,8,0:0:0:0:
256,192,59600,1,8,0:0:0:0:
256,192,59762,1,12,0:0:0:0:
256,192,59923,1,12,0:0:0:0:
256,192,60084,1,8,0:0:0:0:
256,192,60165,1,8,0:0:0:0:
256,192,60245,1,0,0:0:0:0:
256,192,60326,1,8,0:0:0:0:
256,192,60407,1,8,0:0:0:0:
256,192,60487,1,0,0:0:0:0:
256,192,60568,1,8,0:0:0:0:
256,192,60649,1,8,0:0:0:0:
256,192,60729,1,0,0:0:0:0:
256,192,60810,1,8,0:0:0:0:
256,192,60890,1,8,0:0:0:0:
256,192,60971,1,0,0:0:0:0:
256,192,61052,1,8,0:0:0:0:
256,192,61132,1,8,0:0:0:0:
256,192,61213,1,0,0:0:0:0:
256,192,61374,1,8,0:0:0:0:
256,192,61455,1,8,0:0:0:0:
256,192,61616,1,0,0:0:0:0:
256,192,61697,1,0,0:0:0:0:
256,192,61858,1,8,0:0:0:0:
256,192,61939,1,8,0:0:0:0:
256,192,62100,1,0,0:0:0:0:
256,192,62181,1,0,0:0:0:0:
256,192,62342,1,8,0:0:0:0:
256,192,62503,1,8,0:0:0:0:
256,192,62665,1,0,0:0:0:0:
256,192,62745,1,0,0:0:0:0:
256,192,62907,1,8,0:0:0:0:
256,192,62987,1,8,0:0:0:0:
256,192,63149,1,0,0:0:0:0:
256,192,63229,1,0,0:0:0:0:
256,192,63390,1,8,0:0:0:0:
256,192,63471,1,8,0:0:0:0:
256,192,63632,1,0,0:0:0:0:
256,192,63794,1,0,0:0:0:0:
256,192,63955,1,8,0:0:0:0:
256,192,64036,1,0,0:0:0:0:
256,192,64116,1,0,0:0:0:0:
256,192,64197,1,8,0:0:0:0:
256,192,64278,1,0,0:0:0:0:
256,192,64358,1,0,0:0:0:0:
256,192,64439,1,8,0:0:0:0:
256,192,64519,1,0,0:0:0:0:
256,192,64600,1,8,0:0:0:0:
256,192,64681,1,0,0:0:0:0:
256,192,64761,1,0,0:0:0:0:
256,192,64842,1,8,0:0:0:0:
256,192,64923,1,0,0:0:0:0:
256,192,65003,1,0,0:0:0:0:
256,192,65084,1,8,0:0:0:0:
256,192,65164,1,0,0:0:0:0:
256,192,65245,1,8,0:0:0:0:
256,192,65407,1,0,0:0:0:0:
256,192,65568,1,8,0:0:0:0:
256,192,65729,1,0,0:0:0:0:
256,192,65890,1,8,0:0:0:0:
256,192,65971,1,0,0:0:0:0:
256,192,66052,1,8,0:0:0:0:
256,192,66132,1,0,0:0:0:0:
256,192,66213,1,8,0:0:0:0:
256,192,66294,1,0,0:0:0:0:
256,192,66374,1,8,0:0:0:0:
256,192,66455,1,8,0:0:0:0:
256,192,66536,12,0,68310,0:0:0:0:
256,192,68471,5,0,0:0:0:0:
256,192,68632,1,0,0:0:0:0:
256,192,68794,1,8,0:0:0:0:
256,192,68955,1,8,0:0:0:0:
256,192,69116,1,0,0:0:0:0:
256,192,69761,5,0,0:0:0:0:
256,192,69922,1,0,0:0:0:0:
256,192,70084,1,8,0:0:0:0:
256,192,70245,1,8,0:0:0:0:
256,192,70406,1,0,0:0:0:0:
256,192,71052,5,0,0:0:0:0:
256,192,71213,1,8,0:0:0:0:
256,192,71375,1,0,0:0:0:0:
256,192,71536,1,8,0:0:0:0:
256,192,71697,1,8,0:0:0:0:
256,192,71858,1,0,0:0:0:0:
256,192,72019,1,0,0:0:0:0:
256,192,72181,1,8,0:0:0:0:
256,192,72342,1,0,0:0:0:0:
256,192,72503,1,8,0:0:0:0:
256,192,72665,1,0,0:0:0:0:
256,192,72826,1,0,0:0:0:0:
256,192,72987,1,0,0:0:0:0:
256,192,73632,5,0,0:0:0:0:
256,192,73793,1,0,0:0:0:0:
256,192,73955,1,8,0:0:0:0:
256,192,74116,1,8,0:0:0:0:
256,192,74277,1,0,0:0:0:0:
256,192,74923,5,0,0:0:0:0:
256,192,75084,1,0,0:0:0:0:
256,192,75246,1,8,0:0:0:0:
256,192,75407,1,8,0:0:0:0:
256,192,75568,1,0,0:0:0:0:
256,192,76213,5,0,0:0:0:0:
256,192,76374,1,8,0:0:0:0:
256,192,76536,1,8,0:0:0:0:
256,192,76697,1,8,0:0:0:0:
256,192,76858,1,8,0:0:0:0:
256,192,77019,1,0,0:0:0:0:
256,192,77181,1,0,0:0:0:0:
256,192,77342,1,8,0:0:0:0:
256,192,77503,1,0,0:0:0:0:
256,192,77665,1,8,0:0:0:0:
256,192,77826,1,0,0:0:0:0:
256,192,77987,1,8,0:0:0:0:
256,192,78149,1,12,0:0:0:0:
256,192,79116,1,12,0:0:0:0:
256,192,79439,1,8,0:0:0:0:
256,192,79519,1,0,0:0:0:0:
256,192,79600,1,0,0:0:0:0:
256,192,79761,1,8,0:0:0:0:
256,192,79923,1,0,0:0:0:0:
256,192,80003,1,8,0:0:0:0:
256,192,80165,1,0,0:0:0:0:
256,192,80246,1,0,0:0:0:0:
256,192,80327,1,0,0:0:0:0:
256,192,80407,1,8,0:0:0:0:
256,192,80488,1,8,0:0:0:0:
256,192,80569,1,0,0:0:0:0:
256,192,80649,1,0,0:0:0:0:
256,192,80729,1,8,0:0:0:0:
256,192,80810,1,0,0:0:0:0:
256,192,80890,1,0,0:0:0:0:
256,192,81052,1,8,0:0:0:0:
256,192,81213,1,0,0:0:0:0:
256,192,81294,1,8,0:0:0:0:
256,192,81455,1,0,0:0:0:0:
256,192,81536,1,0,0:0:0:0:
256,192,81616,1,8,0:0:0:0:
256,192,81697,1,8,0:0:0:0:
256,192,81778,1,0,0:0:0:0:
256,192,81858,1,8,0:0:0:0:
256,192,81939,1,8,0:0:0:0:
256,192,82019,1,8,0:0:0:0:
256,192,82100,1,0,0:0:0:0:
256,192,82181,1,0,0:0:0:0:
256,192,82261,1,8,0:0:0:0:
256,192,82342,1,0,0:0:0:0:
256,192,82423,1,0,0:0:0:0:
256,192,82503,1,8,0:0:0:0:
256,192,82584,1,0,0:0:0:0:
256,192,82665,1,0,0:0:0:0:
256,192,82745,1,8,0:0:0:0:
256,192,82826,1,0,0:0:0:0:
256,192,82907,1,0,0:0:0:0:
256,192,82987,1,8,0:0:0:0:
256,192,83068,1,0,0:0:0:0:
256,192,83149,1,8,0:0:0:0:
256,192,83229,1,0,0:0:0:0:
256,192,83310,1,8,0:0:0:0:
256,192,83391,1,0,0:0:0:0:
256,192,83472,1,0,0:0:0:0:
256,192,83552,1,8,0:0:0:0:
256,192,83633,1,0,0:0:0:0:
256,192,83714,1,0,0:0:0:0:
256,192,83794,1,8,0:0:0:0:
256,192,83875,1,0,0:0:0:0:
256,192,83956,1,0,0:0:0:0:
256,192,84036,1,8,0:0:0:0:
256,192,84117,1,0,0:0:0:0:
256,192,84198,1,0,0:0:0:0:
256,192,84278,1,8,0:0:0:0:
256,192,84359,1,8,0:0:0:0:
256,192,84440,1,8,0:0:0:0:
256,192,84520,1,8,0:0:0:0:
256,192,84600,1,0,0:0:0:0:
256,192,84681,1,8,0:0:0:0:
256,192,84761,1,8,0:0:0:0:
256,192,84923,1,8,0:0:0:0:
256,192,85084,1,0,0:0:0:0:
256,192,85165,1,0,0:0:0:0:
256,192,85245,1,8,0:0:0:0:
256,192,85326,1,0,0:0:0:0:
256,192,85407,1,0,0:0:0:0:
256,192,85568,1,8,0:0:0:0:
256,192,85729,1,8,0:0:0:0:
256,192,85810,1,8,0:0:0:0:
256,192,85890,1,0,0:0:0:0:
256,192,85971,1,8,0:0:0:0:
256,192,86052,1,8,0:0:0:0:
256,192,86213,1,8,0:0:0:0:
256,192,86374,1,0,0:0:0:0:
256,192,86455,1,0,0:0:0:0:
256,192,86536,1,8,0:0:0:0:
256,192,86616,1,0,0:0:0:0:
256,192,86697,1,0,0:0:0:0:
256,192,86858,1,8,0:0:0:0:
256,192,86939,1,8,0:0:0:0:
256,192,87019,1,0,0:0:0:0:
256,192,87100,1,0,0:0:0:0:
256,192,87181,1,8,0:0:0:0:
256,192,87261,1,0,0:0:0:0:
256,192,87342,1,8,0:0:0:0:
256,192,87423,1,0,0:0:0:0:
256,192,87503,1,8,0:0:0:0:
256,192,87584,1,0,0:0:0:0:
256,192,87665,1,8,0:0:0:0:
256,192,87745,1,0,0:0:0:0:
256,192,87826,1,8,0:0:0:0:
256,192,87907,1,8,0:0:0:0:
256,192,87987,1,0,0:0:0:0:
256,192,88068,1,0,0:0:0:0:
256,192,88149,1,8,0:0:0:0:
256,192,88202,1,8,0:0:0:0:
256,192,88256,1,8,0:0:0:0:
256,192,88310,1,8,0:0:0:0:
256,192,88364,1,8,0:0:0:0:
256,192,88417,1,8,0:0:0:0:
256,192,88471,1,8,0:0:0:0:
256,192,88552,1,0,0:0:0:0:
256,192,88632,1,0,0:0:0:0:
256,192,88713,1,0,0:0:0:0:
256,192,88794,1,8,0:0:0:0:
256,192,88874,1,0,0:0:0:0:
256,192,88955,1,0,0:0:0:0:
256,192,89036,1,0,0:0:0:0:
256,192,89116,1,8,0:0:0:0:
256,192,89197,1,8,0:0:0:0:
256,192,89278,1,8,0:0:0:0:
256,192,89358,1,8,0:0:0:0:
256,192,89439,1,4,0:0:0:0:
256,192,89761,1,8,0:0:0:0:
256,192,89842,1,0,0:0:0:0:
256,192,89923,1,0,0:0:0:0:
256,192,90084,1,8,0:0:0:0:
256,192,90245,1,0,0:0:0:0:
256,192,90326,1,8,0:0:0:0:
256,192,90487,1,0,0:0:0:0:
256,192,90568,1,0,0:0:0:0:
256,192,90649,1,8,0:0:0:0:
256,192,90729,1,8,0:0:0:0:
256,192,90810,1,8,0:0:0:0:
256,192,90890,1,0,0:0:0:0:
256,192,90971,1,0,0:0:0:0:
256,192,91052,1,8,0:0:0:0:
256,192,91133,1,0,0:0:0:0:
256,192,91214,1,0,0:0:0:0:
256,192,91375,1,8,0:0:0:0:
256,192,91536,1,0,0:0:0:0:
256,192,91617,1,8,0:0:0:0:
256,192,91778,1,0,0:0:0:0:
256,192,91859,1,0,0:0:0:0:
256,192,91940,1,8,0:0:0:0:
256,192,92020,1,8,0:0:0:0:
256,192,92101,1,8,0:0:0:0:
256,192,92181,1,0,0:0:0:0:
256,192,92262,1,0,0:0:0:0:
256,192,92342,1,8,0:0:0:0:
256,192,92503,1,0,0:0:0:0:
256,192,92584,1,8,0:0:0:0:
256,192,92745,1,0,0:0:0:0:
256,192,92826,1,8,0:0:0:0:
256,192,92987,1,0,0:0:0:0:
256,192,93068,1,8,0:0:0:0:
256,192,93229,1,0,0:0:0:0:
256,192,93310,1,8,0:0:0:0:
256,192,93471,1,0,0:0:0:0:
256,192,93552,1,0,0:0:0:0:
256,192,93632,1,8,0:0:0:0:
256,192,93713,1,0,0:0:0:0:
256,192,93874,1,8,0:0:0:0:
256,192,93955,1,0,0:0:0:0:
256,192,94116,1,8,0:0:0:0:
256,192,94197,1,0,0:0:0:0:
256,192,94358,1,8,0:0:0:0:
256,192,94439,1,0,0:0:0:0:
256,192,94600,1,8,0:0:0:0:
256,192,94761,1,0,0:0:0:0:
256,192,94923,1,8,0:0:0:0:
256,192,95004,1,0,0:0:0:0:
256,192,95085,1,0,0:0:0:0:
256,192,95246,1,8,0:0:0:0:
256,192,95407,1,0,0:0:0:0:
256,192,95488,1,8,0:0:0:0:
256,192,95649,1,0,0:0:0:0:
256,192,95730,1,8,0:0:0:0:
256,192,95811,1,0,0:0:0:0:
256,192,95891,1,8,0:0:0:0:
256,192,95972,1,8,0:0:0:0:
256,192,96052,1,0,0:0:0:0:
256,192,96133,1,0,0:0:0:0:
256,192,96214,1,8,0:0:0:0:
256,192,96295,1,0,0:0:0:0:
256,192,96374,1,0,0:0:0:0:
256,192,96537,1,8,0:0:0:0:
256,192,96698,1,0,0:0:0:0:
256,192,96779,1,8,0:0:0:0:
256,192,96940,1,0,0:0:0:0:
256,192,97019,1,0,0:0:0:0:
256,192,97100,1,0,0:0:0:0:
256,192,97182,1,8,0:0:0:0:
256,192,97261,1,8,0:0:0:0:
256,192,97343,1,0,0:0:0:0:
256,192,97424,1,0,0:0:0:0:
256,192,97504,1,8,0:0:0:0:
256,192,97665,1,0,0:0:0:0:
256,192,97745,1,8,0:0:0:0:
256,192,97907,1,0,0:0:0:0:
256,192,97987,1,8,0:0:0:0:
256,192,98149,1,8,0:0:0:0:
256,192,98229,1,0,0:0:0:0:
256,192,98310,1,0,0:0:0:0:
256,192,98390,1,0,0:0:0:0:
256,192,98471,1,8,0:0:0:0:
256,192,98552,1,0,0:0:0:0:
256,192,98632,1,8,0:0:0:0:
256,192,98673,1,8,0:0:0:0:
256,192,98713,1,8,0:0:0:0:
256,192,98955,1,12,0:0:0:0:
256,192,99197,1,12,0:0:0:0:
256,192,99439,1,4,0:0:0:0:
256,192,99681,1,4,0:0:0:0:
256,192,100084,1,8,0:0:0:0:
256,192,100165,1,0,0:0:0:0:
256,192,100246,1,0,0:0:0:0:
256,192,100407,1,8,0:0:0:0:
256,192,100568,1,0,0:0:0:0:
256,192,100649,1,8,0:0:0:0:
256,192,100810,1,0,0:0:0:0:
256,192,100891,1,0,0:0:0:0:
256,192,100972,1,8,0:0:0:0:
256,192,101052,1,8,0:0:0:0:
256,192,101133,1,8,0:0:0:0:
256,192,101213,1,0,0:0:0:0:
256,192,101294,1,0,0:0:0:0:
256,192,101375,1,8,0:0:0:0:
256,192,101456,1,0,0:0:0:0:
256,192,101537,1,0,0:0:0:0:
256,192,101698,1,8,0:0:0:0:
256,192,101859,1,0,0:0:0:0:
256,192,101940,1,8,0:0:0:0:
256,192,102101,1,0,0:0:0:0:
256,192,102182,1,0,0:0:0:0:
256,192,102261,1,8,0:0:0:0:
256,192,102343,1,8,0:0:0:0:
256,192,102424,1,8,0:0:0:0:
256,192,102504,1,0,0:0:0:0:
256,192,102585,1,0,0:0:0:0:
256,192,102665,1,8,0:0:0:0:
256,192,102745,1,0,0:0:0:0:
256,192,102826,1,0,0:0:0:0:
256,192,102907,1,8,0:0:0:0:
256,192,102987,1,0,0:0:0:0:
256,192,103068,1,0,0:0:0:0:
256,192,103149,1,8,0:0:0:0:
256,192,103229,1,0,0:0:0:0:
256,192,103310,1,0,0:0:0:0:
256,192,103391,1,8,0:0:0:0:
256,192,103471,1,0,0:0:0:0:
256,192,103552,1,0,0:0:0:0:
256,192,103633,1,8,0:0:0:0:
256,192,103713,1,0,0:0:0:0:
256,192,103794,1,8,0:0:0:0:
256,192,103875,1,8,0:0:0:0:
256,192,103955,1,0,0:0:0:0:
256,192,104036,1,8,0:0:0:0:
256,192,104116,1,8,0:0:0:0:
256,192,104197,1,0,0:0:0:0:
256,192,104278,1,8,0:0:0:0:
256,192,104358,1,8,0:0:0:0:
256,192,104439,1,0,0:0:0:0:
256,192,104520,1,8,0:0:0:0:
256,192,104600,1,8,0:0:0:0:
256,192,104681,1,0,0:0:0:0:
256,192,104762,1,8,0:0:0:0:
256,192,104842,1,8,0:0:0:0:
256,192,104923,1,0,0:0:0:0:
256,192,105004,1,8,0:0:0:0:
256,192,105084,1,8,0:0:0:0:
256,192,105165,1,0,0:0:0:0:
256,192,105246,1,8,0:0:0:0:
256,192,105327,1,0,0:0:0:0:
256,192,105408,1,0,0:0:0:0:
256,192,105569,1,8,0:0:0:0:
256,192,105730,1,0,0:0:0:0:
256,192,105811,1,8,0:0:0:0:
256,192,105972,1,0,0:0:0:0:
256,192,106053,1,8,0:0:0:0:
256,192,106132,1,0,0:0:0:0:
256,192,106214,1,8,0:0:0:0:
256,192,106295,1,8,0:0:0:0:
256,192,106375,1,0,0:0:0:0:
256,192,106456,1,0,0:0:0:0:
256,192,106537,1,8,0:0:0:0:
256,192,106616,1,0,0:0:0:0:
256,192,106697,1,0,0:0:0:0:
256,192,106858,1,8,0:0:0:0:
256,192,107019,1,0,0:0:0:0:
256,192,107100,1,8,0:0:0:0:
256,192,107261,1,0,0:0:0:0:
256,192,107342,1,0,0:0:0:0:
256,192,107423,1,0,0:0:0:0:
256,192,107503,1,8,0:0:0:0:
256,192,107584,1,8,0:0:0:0:
256,192,107666,1,0,0:0:0:0:
256,192,107745,1,0,0:0:0:0:
256,192,107827,1,8,0:0:0:0:
256,192,107907,1,0,0:0:0:0:
256,192,107988,1,0,0:0:0:0:
256,192,108068,1,8,0:0:0:0:
256,192,108149,1,0,0:0:0:0:
256,192,108230,1,0,0:0:0:0:
256,192,108310,1,8,0:0:0:0:
256,192,108390,1,0,0:0:0:0:
256,192,108472,1,8,0:0:0:0:
256,192,108552,1,0,0:0:0:0:
256,192,108633,1,0,0:0:0:0:
256,192,108713,1,8,0:0:0:0:
256,192,108794,1,8,0:0:0:0:
256,192,108875,1,0,0:0:0:0:
256,192,108955,1,8,0:0:0:0:
256,192,109116,1,12,0:0:0:0:
256,192,109358,1,12,0:0:0:0:
256,192,109600,1,4,0:0:0:0:
256,192,109842,1,4,0:0:0:0:
256,192,110084,1,4,0:0:0:0:
288,220,110407,2,0,L|336:212,1,0.01
288,220,110427,2,0,L|336:212,1,0.01
288,220,110447,2,0,L|336:212,1,0.01
