osu file format v14

[General]
AudioFilename: light.mp3
AudioLeadIn: 0
PreviewTime: 88632
Countdown: 0
SampleSet: Soft
StackLeniency: 0.7
Mode: 3
LetterboxInBreaks: 0
SpecialStyle: 0
WidescreenStoryboard: 0

[Editor]
Bookmarks: 39439
DistanceSpacing: 0.8
BeatDivisor: 4
GridSize: 32
TimelineZoom: 2

[Metadata]
Title:Gekkou Ranbu
TitleUnicode:月光乱舞
Artist:P*Light
ArtistUnicode:P*Light
Creator:Fresh Chicken
Version:ADVANCED
Source:SOUND VOLTEX III GRAVITY WARS
Tags:leqek SDVX 天下一音ゲ祭 2015 ブロック決勝課題曲 Rasis
BeatmapID:836763
BeatmapSetID:382668

[Difficulty]
HPDrainRate:7.5
CircleSize:4
OverallDifficulty:7.5
ApproachRate:5
SliderMultiplier:1.4
SliderTickRate:1

[Events]
//Background and Video events
0,0,"ge1.png",0,0
//Break Periods
//Storyboard Layer 0 (Background)
//Storyboard Layer 1 (Fail)
//Storyboard Layer 2 (Pass)
//Storyboard Layer 3 (Foreground)
//Storyboard Sound Samples

[TimingPoints]
2020,322.58064516129,4,2,1,40,1,0
89761,-100,4,2,1,40,0,1
110407,-100,4,2,1,40,0,0

[HitObjects]
64,192,1374,5,0,0:0:0:0:
192,192,1536,1,0,0:0:0:0:
320,192,1697,1,0,0:0:0:0:
448,192,1858,1,0,0:0:0:0:
320,192,2020,1,8,0:0:0:0:
192,192,2020,1,0,0:0:0:0:
64,192,2020,128,0,2342:0:0:0:0:
192,192,2342,1,2,0:0:0:0:
320,192,2342,1,0,0:0:0:0:
448,192,2503,1,8,0:0:0:0:
64,192,2503,128,0,2987:0:0:0:0:
448,192,2665,1,0,0:0:0:0:
320,192,2826,1,0,0:0:0:0:
192,192,2987,1,0,0:0:0:0:
320,192,3149,1,0,0:0:0:0:
192,192,3310,1,8,0:0:0:0:
448,192,3310,128,0,3632:0:0:0:0:
320,192,3632,1,2,0:0:0:0:
192,192,3632,1,0,0:0:0:0:
448,192,3794,128,8,4278:0:0:0:0:
64,192,3794,1,0,0:0:0:0:
64,192,3955,1,0,0:0:0:0:
192,192,4116,1,0,0:0:0:0:
320,192,4278,1,0,0:0:0:0:
192,192,4439,1,0,0:0:0:0:
320,192,4600,1,8,0:0:0:0:
64,192,4600,128,0,4923:0:0:0:0:
448,192,4761,1,0,0:0:0:0:
320,192,4923,1,0,0:0:0:0:
448,192,5084,128,8,5407:0:0:0:0:
192,192,5084,1,0,0:0:0:0:
64,192,5245,1,0,0:0:0:0:
192,192,5407,1,0,0:0:0:0:
320,192,5568,1,8,0:0:0:0:
64,192,5568,128,0,5890:0:0:0:0:
192,192,5729,1,0,0:0:0:0:
320,192,5890,1,8,0:0:0:0:
448,192,5890,128,0,6213:0:0:0:0:
320,192,6213,1,2,0:0:0:0:
192,192,6213,1,0,0:0:0:0:
64,192,6374,1,8,0:0:0:0:
448,192,6374,1,0,0:0:0:0:
448,192,6536,1,0,0:0:0:0:
320,192,6697,1,0,0:0:0:0:
192,192,6858,1,0,0:0:0:0:
64,192,7019,1,0,0:0:0:0:
192,192,7181,1,8,0:0:0:0:
448,192,7181,1,2,0:0:0:0:
320,192,7181,1,0,0:0:0:0:
448,192,7503,1,2,0:0:0:0:
192,192,7503,1,0,0:0:0:0:
320,192,7826,1,2,0:0:0:0:
192,192,7826,1,0,0:0:0:0:
320,192,8149,1,2,0:0:0:0:
192,192,8149,1,0,0:0:0:0:
320,192,8471,1,2,0:0:0:0:
64,192,8471,1,8,0:0:0:0:
192,192,8471,1,0,0:0:0:0:
320,192,8794,1,2,0:0:0:0:
64,192,8794,1,0,0:0:0:0:
192,192,9116,1,2,0:0:0:0:
64,192,9116,1,0,0:0:0:0:
192,192,9439,1,2,0:0:0:0:
64,192,9439,1,0,0:0:0:0:
320,192,9761,1,10,0:0:0:0:
448,192,9761,1,0,0:0:0:0:
320,192,9923,1,2,0:0:0:0:
448,192,9923,1,0,0:0:0:0:
192,192,10084,1,10,0:0:0:0:
64,192,10084,1,0,0:0:0:0:
192,192,10245,1,2,0:0:0:0:
64,192,10245,1,0,0:0:0:0:
448,192,10407,1,10,0:0:0:0:
64,192,10487,1,10,0:0:0:0:
320,192,10568,1,10,0:0:0:0:
192,192,10649,1,10,0:0:0:0:
448,192,10729,1,10,0:0:0:0:
64,192,10810,1,10,0:0:0:0:
320,192,10890,1,10,0:0:0:0:
192,192,10971,1,10,0:0:0:0:
448,192,11052,1,0,0:0:0:0:
320,192,11374,1,0,0:0:0:0:
64,192,11697,1,0,0:0:0:0:
192,192,11778,1,0,0:0:0:0:
320,192,11858,1,0,0:0:0:0:
448,192,11939,1,0,0:0:0:0:
64,192,12019,1,0,0:0:0:0:
448,192,12181,1,0,0:0:0:0:
192,192,12342,1,8,0:0:0:0:
64,192,12342,1,0,0:0:0:0:
320,192,12503,1,0,0:0:0:0:
192,192,12584,1,0,0:0:0:0:
448,192,12665,1,8,0:0:0:0:
64,192,12665,1,0,0:0:0:0:
320,192,12826,1,0,0:0:0:0:
448,192,12987,1,8,0:0:0:0:
192,192,12987,1,0,0:0:0:0:
320,192,13149,1,0,0:0:0:0:
320,192,13310,1,8,0:0:0:0:
64,192,13310,1,0,0:0:0:0:
192,192,13471,1,0,0:0:0:0:
320,192,13632,1,8,0:0:0:0:
448,192,13632,1,0,0:0:0:0:
192,192,13794,1,0,0:0:0:0:
448,192,13874,1,0,0:0:0:0:
320,192,13955,1,8,0:0:0:0:
64,192,13955,1,0,0:0:0:0:
192,192,14116,1,0,0:0:0:0:
320,192,14278,1,8,0:0:0:0:
448,192,14278,1,0,0:0:0:0:
64,192,14439,1,0,0:0:0:0:
192,192,14600,1,8,0:0:0:0:
320,192,14600,1,0,0:0:0:0:
448,192,14761,1,0,0:0:0:0:
320,192,14923,1,8,0:0:0:0:
64,192,14923,1,0,0:0:0:0:
192,192,15084,1,0,0:0:0:0:
320,192,15165,1,0,0:0:0:0:
448,192,15245,1,8,0:0:0:0:
192,192,15245,1,0,0:0:0:0:
64,192,15407,1,0,0:0:0:0:
320,192,15568,1,8,0:0:0:0:
192,192,15568,1,0,0:0:0:0:
448,192,15729,1,0,0:0:0:0:
192,192,15890,1,8,0:0:0:0:
64,192,15890,1,0,0:0:0:0:
320,192,16052,1,0,0:0:0:0:
448,192,16213,1,8,0:0:0:0:
64,192,16213,1,0,0:0:0:0:
192,192,16374,1,0,0:0:0:0:
448,192,16455,1,0,0:0:0:0:
320,192,16536,1,8,0:0:0:0:
64,192,16536,1,0,0:0:0:0:
192,192,16697,1,0,0:0:0:0:
448,192,16858,1,8,0:0:0:0:
320,192,16858,1,0,0:0:0:0:
64,192,17019,1,0,0:0:0:0:
192,192,17181,1,8,0:0:0:0:
320,192,17181,1,0,0:0:0:0:
448,192,17342,1,8,0:0:0:0:
64,192,17342,1,0,0:0:0:0:
320,192,17503,1,8,0:0:0:0:
64,192,17503,1,0,0:0:0:0:
448,192,17665,1,0,0:0:0:0:
192,192,17745,1,0,0:0:0:0:
320,192,17826,1,8,0:0:0:0:
448,192,17826,1,0,0:0:0:0:
64,192,17987,1,0,0:0:0:0:
192,192,18149,1,8,0:0:0:0:
448,192,18149,1,0,0:0:0:0:
320,192,18310,1,0,0:0:0:0:
320,192,18471,1,8,0:0:0:0:
64,192,18471,1,0,0:0:0:0:
192,192,18632,1,0,0:0:0:0:
192,192,18794,1,8,0:0:0:0:
448,192,18794,1,0,0:0:0:0:
320,192,18955,1,0,0:0:0:0:
448,192,19036,1,0,0:0:0:0:
192,192,19116,1,8,0:0:0:0:
64,192,19116,1,0,0:0:0:0:
320,192,19278,1,0,0:0:0:0:
448,192,19439,1,8,0:0:0:0:
64,192,19439,1,0,0:0:0:0:
192,192,19600,1,0,0:0:0:0:
448,192,19761,1,8,0:0:0:0:
64,192,19761,1,0,0:0:0:0:
192,192,19923,1,8,0:0:0:0:
448,192,20084,1,0,0:0:0:0:
320,192,20084,1,8,0:0:0:0:
192,192,20245,1,0,0:0:0:0:
320,192,20326,1,8,0:0:0:0:
448,192,20326,1,0,0:0:0:0:
192,192,20568,1,8,0:0:0:0:
64,192,20568,1,0,0:0:0:0:
448,192,20729,1,8,0:0:0:0:
192,192,20729,1,0,0:0:0:0:
320,192,20890,1,8,0:0:0:0:
64,192,20890,1,0,0:0:0:0:
192,192,21052,1,8,0:0:0:0:
448,192,21052,1,0,0:0:0:0:
320,192,21213,1,8,0:0:0:0:
64,192,21213,1,0,0:0:0:0:
320,192,21536,1,8,0:0:0:0:
448,192,21536,1,0,0:0:0:0:
320,192,21778,1,8,0:0:0:0:
192,192,21778,1,0,0:0:0:0:
64,192,22019,1,8,0:0:0:0:
192,192,22019,1,0,0:0:0:0:
320,192,22181,1,0,0:0:0:0:
448,192,22342,128,0,22665:0:0:0:0:
64,192,22342,1,0,0:0:0:0:
320,192,22665,1,8,0:0:0:0:
64,192,22665,1,0,0:0:0:0:
192,192,22826,1,0,0:0:0:0:
320,192,22907,1,0,0:0:0:0:
448,192,22987,1,8,0:0:0:0:
64,192,22987,1,0,0:0:0:0:
192,192,23149,1,0,0:0:0:0:
320,192,23310,1,8,0:0:0:0:
448,192,23310,1,0,0:0:0:0:
64,192,23471,1,0,0:0:0:0:
192,192,23632,1,8,0:0:0:0:
320,192,23632,1,0,0:0:0:0:
448,192,23794,1,0,0:0:0:0:
192,192,23955,1,8,0:0:0:0:
64,192,23955,1,0,0:0:0:0:
320,192,24116,1,0,0:0:0:0:
192,192,24197,1,0,0:0:0:0:
448,192,24278,1,8,0:0:0:0:
64,192,24278,1,0,0:0:0:0:
320,192,24439,1,0,0:0:0:0:
192,192,24600,1,8,0:0:0:0:
64,192,24600,1,0,0:0:0:0:
448,192,24761,1,0,0:0:0:0:
320,192,24923,1,8,0:0:0:0:
192,192,24923,1,0,0:0:0:0:
64,192,25084,1,0,0:0:0:0:
320,192,25245,1,8,0:0:0:0:
448,192,25245,1,0,0:0:0:0:
192,192,25407,1,0,0:0:0:0:
320,192,25487,1,0,0:0:0:0:
448,192,25568,1,8,0:0:0:0:
64,192,25568,1,0,0:0:0:0:
192,192,25729,1,0,0:0:0:0:
448,192,25890,1,8,0:0:0:0:
64,192,25890,1,0,0:0:0:0:
320,192,26052,1,0,0:0:0:0:
192,192,26213,1,8,0:0:0:0:
64,192,26213,1,0,0:0:0:0:
448,192,26374,1,0,0:0:0:0:
320,192,26536,1,8,0:0:0:0:
64,192,26536,1,0,0:0:0:0:
192,192,26697,1,0,0:0:0:0:
320,192,26778,1,0,0:0:0:0:
448,192,26858,1,8,0:0:0:0:
64,192,26858,1,0,0:0:0:0:
192,192,27019,1,0,0:0:0:0:
320,192,27181,1,8,0:0:0:0:
448,192,27181,1,0,0:0:0:0:
192,192,27261,1,0,0:0:0:0:
64,192,27342,1,0,0:0:0:0:
192,192,27503,1,8,0:0:0:0:
320,192,27503,1,0,0:0:0:0:
448,192,27665,1,8,0:0:0:0:
64,192,27665,1,0,0:0:0:0:
192,192,27826,1,2,0:0:0:0:
64,192,27826,1,8,0:0:0:0:
320,192,27987,1,0,0:0:0:0:
448,192,28068,1,0,0:0:0:0:
192,192,28149,1,10,0:0:0:0:
64,192,28149,1,0,0:0:0:0:
320,192,28310,1,0,0:0:0:0:
192,192,28471,1,10,0:0:0:0:
64,192,28471,1,0,0:0:0:0:
448,192,28632,1,0,0:0:0:0:
192,192,28794,1,10,0:0:0:0:
64,192,28794,1,0,0:0:0:0:
320,192,28955,1,0,0:0:0:0:
448,192,29116,1,10,0:0:0:0:
320,192,29116,1,0,0:0:0:0:
64,192,29278,1,0,0:0:0:0:
192,192,29358,1,0,0:0:0:0:
448,192,29439,1,10,0:0:0:0:
320,192,29439,1,0,0:0:0:0:
64,192,29600,1,0,0:0:0:0:
448,192,29761,1,10,0:0:0:0:
320,192,29761,1,0,0:0:0:0:
192,192,29923,1,0,0:0:0:0:
448,192,30084,1,10,0:0:0:0:
320,192,30084,1,0,0:0:0:0:
64,192,30245,1,8,0:0:0:0:
320,192,30407,1,10,0:0:0:0:
192,192,30407,1,0,0:0:0:0:
448,192,30568,1,8,0:0:0:0:
64,192,30568,1,0,0:0:0:0:
320,192,30649,1,0,0:0:0:0:
448,192,30729,1,8,0:0:0:0:
64,192,30729,1,0,0:0:0:0:
320,192,30890,1,8,0:0:0:0:
192,192,30890,1,0,0:0:0:0:
448,192,31052,1,8,0:0:0:0:
64,192,31052,1,0,0:0:0:0:
192,192,31132,1,8,0:0:0:0:
448,192,31213,1,8,0:0:0:0:
64,192,31213,1,0,0:0:0:0:
320,192,31294,1,8,0:0:0:0:
448,192,31374,1,8,0:0:0:0:
64,192,31374,1,0,0:0:0:0:
192,192,31455,1,8,0:0:0:0:
448,192,31536,1,8,0:0:0:0:
64,192,31536,1,0,0:0:0:0:
320,192,31616,1,8,0:0:0:0:
192,192,31858,1,8,0:0:0:0:
64,192,31858,1,0,0:0:0:0:
192,192,32100,1,8,0:0:0:0:
320,192,32100,1,0,0:0:0:0:
320,192,32342,1,8,0:0:0:0:
448,192,32342,1,0,0:0:0:0:
192,192,32503,1,0,0:0:0:0:
64,192,32665,1,8,0:0:0:0:
448,192,32665,1,0,0:0:0:0:
320,192,32987,1,8,0:0:0:0:
192,192,32987,1,2,0:0:0:0:
64,192,33229,1,0,0:0:0:0:
192,192,33310,1,2,0:0:0:0:
448,192,33310,1,0,0:0:0:0:
64,192,33471,1,0,0:0:0:0:
192,192,33552,1,0,0:0:0:0:
320,192,33632,1,2,0:0:0:0:
448,192,33632,1,0,0:0:0:0:
192,192,33713,1,0,0:0:0:0:
64,192,33794,1,0,0:0:0:0:
448,192,33955,1,2,0:0:0:0:
192,192,33955,1,0,0:0:0:0:
192,192,34116,1,0,0:0:0:0:
448,192,34278,1,2,0:0:0:0:
64,192,34278,1,0,0:0:0:0:
192,192,34358,1,0,0:0:0:0:
192,192,34519,1,0,0:0:0:0:
448,192,34600,1,2,0:0:0:0:
64,192,34600,1,0,0:0:0:0:
192,192,34761,1,0,0:0:0:0:
320,192,34842,1,0,0:0:0:0:
448,192,34923,1,2,0:0:0:0:
192,192,34923,1,0,0:0:0:0:
64,192,35003,1,0,0:0:0:0:
192,192,35084,1,0,0:0:0:0:
320,192,35165,1,0,0:0:0:0:
448,192,35245,1,2,0:0:0:0:
192,192,35407,1,0,0:0:0:0:
64,192,35568,1,2,0:0:0:0:
448,192,35810,1,0,0:0:0:0:
64,192,35890,1,2,0:0:0:0:
448,192,36052,1,0,0:0:0:0:
320,192,36132,1,0,0:0:0:0:
64,192,36213,1,2,0:0:0:0:
192,192,36213,1,0,0:0:0:0:
320,192,36294,1,0,0:0:0:0:
448,192,36374,1,0,0:0:0:0:
64,192,36536,1,2,0:0:0:0:
320,192,36536,1,0,0:0:0:0:
448,192,36616,1,0,0:0:0:0:
320,192,36697,1,0,0:0:0:0:
192,192,36778,1,0,0:0:0:0:
64,192,36858,1,2,0:0:0:0:
448,192,37100,1,0,0:0:0:0:
64,192,37181,1,2,0:0:0:0:
320,192,37342,1,0,0:0:0:0:
192,192,37423,1,0,0:0:0:0:
64,192,37503,1,2,0:0:0:0:
320,192,37503,1,0,0:0:0:0:
448,192,37584,1,0,0:0:0:0:
320,192,37665,1,0,0:0:0:0:
64,192,37826,1,2,0:0:0:0:
448,192,37826,1,0,0:0:0:0:
320,192,37907,1,0,0:0:0:0:
192,192,37987,1,0,0:0:0:0:
64,192,38068,1,0,0:0:0:0:
320,192,38149,1,8,0:0:0:0:
448,192,38149,1,0,0:0:0:0:
448,192,38310,1,2,0:0:0:0:
192,192,38310,1,0,0:0:0:0:
320,192,38471,1,2,0:0:0:0:
192,192,38471,1,0,0:0:0:0:
320,192,38632,1,2,0:0:0:0:
64,192,38632,1,0,0:0:0:0:
192,192,38794,1,2,0:0:0:0:
64,192,38794,1,0,0:0:0:0:
64,192,38955,1,2,0:0:0:0:
320,192,38955,1,0,0:0:0:0:
192,192,39116,1,2,0:0:0:0:
320,192,39116,1,0,0:0:0:0:
192,192,39278,1,2,0:0:0:0:
448,192,39278,1,0,0:0:0:0:
320,192,39439,1,10,0:0:0:0:
448,192,39439,1,0,0:0:0:0:
448,192,39600,1,2,0:0:0:0:
320,192,39600,1,0,0:0:0:0:
64,192,39761,1,2,0:0:0:0:
192,192,39761,1,0,0:0:0:0:
192,192,39923,1,2,0:0:0:0:
64,192,39923,1,0,0:0:0:0:
448,192,40084,1,2,0:0:0:0:
320,192,40084,1,0,0:0:0:0:
448,192,40245,1,2,0:0:0:0:
320,192,40245,1,0,0:0:0:0:
192,192,40407,1,2,0:0:0:0:
64,192,40407,1,0,0:0:0:0:
192,192,40568,1,2,0:0:0:0:
64,192,40568,1,0,0:0:0:0:
192,192,40729,1,10,0:0:0:0:
448,192,40729,1,0,0:0:0:0:
320,192,40890,1,2,0:0:0:0:
64,192,40890,1,0,0:0:0:0:
192,192,41052,1,2,0:0:0:0:
448,192,41052,1,0,0:0:0:0:
320,192,41213,1,2,0:0:0:0:
64,192,41213,1,0,0:0:0:0:
64,192,41374,1,2,0:0:0:0:
448,192,41374,1,8,0:0:0:0:
192,192,41536,1,2,0:0:0:0:
448,192,41536,1,0,0:0:0:0:
320,192,41697,1,2,0:0:0:0:
192,192,41697,1,0,0:0:0:0:
320,192,41858,1,2,0:0:0:0:
64,192,41858,1,0,0:0:0:0:
192,192,42019,1,10,0:0:0:0:
448,192,42019,1,0,0:0:0:0:
320,192,42100,1,2,0:0:0:0:
192,192,42181,1,2,0:0:0:0:
64,192,42261,1,2,0:0:0:0:
448,192,42342,1,2,0:0:0:0:
64,192,42423,1,2,0:0:0:0:
192,192,42503,1,2,0:0:0:0:
320,192,42584,1,2,0:0:0:0:
448,192,42665,1,2,0:0:0:0:
320,192,42745,1,2,0:0:0:0:
192,192,42826,1,2,0:0:0:0:
320,192,42907,1,2,0:0:0:0:
192,192,42987,1,2,0:0:0:0:
320,192,43068,1,2,0:0:0:0:
192,192,43149,1,2,0:0:0:0:
320,192,43229,1,2,0:0:0:0:
64,192,43310,1,8,0:0:0:0:
192,192,43310,128,0,44600:0:0:0:0:
448,192,43632,1,0,0:0:0:0:
320,192,43794,1,0,0:0:0:0:
448,192,43955,1,0,0:0:0:0:
320,192,44116,1,0,0:0:0:0:
64,192,44278,1,0,0:0:0:0:
320,192,44439,1,0,0:0:0:0:
448,192,44600,1,8,0:0:0:0:
64,192,44600,1,0,0:0:0:0:
448,192,44761,1,8,0:0:0:0:
192,192,44761,1,0,0:0:0:0:
320,192,44923,1,8,0:0:0:0:
64,192,44923,1,0,0:0:0:0:
320,192,45084,1,8,0:0:0:0:
192,192,45084,1,0,0:0:0:0:
448,192,45245,1,8,0:0:0:0:
64,192,45245,1,0,0:0:0:0:
320,192,45568,1,0,0:0:0:0:
64,192,45890,1,8,0:0:0:0:
448,192,45890,1,0,0:0:0:0:
192,192,46213,1,8,0:0:0:0:
320,192,46294,1,0,0:0:0:0:
448,192,46374,1,0,0:0:0:0:
192,192,46455,1,0,0:0:0:0:
320,192,46536,1,8,0:0:0:0:
64,192,46616,1,0,0:0:0:0:
448,192,46697,1,0,0:0:0:0:
192,192,46778,1,0,0:0:0:0:
320,192,46858,1,8,0:0:0:0:
192,192,46939,1,0,0:0:0:0:
448,192,47019,1,0,0:0:0:0:
64,192,47100,1,0,0:0:0:0:
320,192,47181,1,8,0:0:0:0:
448,192,47261,1,0,0:0:0:0:
192,192,47342,1,0,0:0:0:0:
320,192,47423,1,0,0:0:0:0:
64,192,47503,1,8,0:0:0:0:
192,192,47584,1,0,0:0:0:0:
448,192,47665,1,0,0:0:0:0:
320,192,47745,1,0,0:0:0:0:
192,192,47826,1,8,0:0:0:0:
64,192,47907,1,0,0:0:0:0:
320,192,47987,1,0,0:0:0:0:
192,192,48068,1,0,0:0:0:0:
448,192,48149,1,8,0:0:0:0:
320,192,48229,1,0,0:0:0:0:
64,192,48310,1,8,0:0:0:0:
192,192,48390,1,0,0:0:0:0:
320,192,48471,1,8,0:0:0:0:
192,192,48552,1,0,0:0:0:0:
64,192,48632,1,0,0:0:0:0:
448,192,48713,1,0,0:0:0:0:
320,192,48794,1,8,0:0:0:0:
192,192,48874,1,0,0:0:0:0:
320,192,48955,1,0,0:0:0:0:
448,192,49036,1,0,0:0:0:0:
64,192,49116,1,8,0:0:0:0:
192,192,49197,1,0,0:0:0:0:
448,192,49278,1,0,0:0:0:0:
320,192,49358,1,0,0:0:0:0:
64,192,49439,1,8,0:0:0:0:
192,192,49519,1,0,0:0:0:0:
448,192,49600,1,0,0:0:0:0:
320,192,49681,1,0,0:0:0:0:
192,192,49761,1,8,0:0:0:0:
64,192,49842,1,0,0:0:0:0:
320,192,49923,1,0,0:0:0:0:
448,192,50003,1,0,0:0:0:0:
64,192,50084,1,8,0:0:0:0:
192,192,50165,1,0,0:0:0:0:
320,192,50245,1,0,0:0:0:0:
448,192,50326,1,0,0:0:0:0:
192,192,50407,1,8,0:0:0:0:
448,192,50487,1,0,0:0:0:0:
64,192,50568,1,8,0:0:0:0:
320,192,50649,1,0,0:0:0:0:
448,192,50729,1,8,0:0:0:0:
320,192,50810,1,0,0:0:0:0:
192,192,50890,1,0,0:0:0:0:
64,192,50971,1,0,0:0:0:0:
320,192,51052,1,8,0:0:0:0:
192,192,51132,1,8,0:0:0:0:
320,192,51213,1,8,0:0:0:0:
192,192,51294,1,8,0:0:0:0:
320,192,51374,1,8,0:0:0:0:
64,192,51455,1,0,0:0:0:0:
448,192,51536,1,0,0:0:0:0:
192,192,51616,1,0,0:0:0:0:
320,192,51697,1,8,0:0:0:0:
448,192,51778,1,0,0:0:0:0:
192,192,51858,1,0,0:0:0:0:
64,192,51939,1,0,0:0:0:0:
320,192,52019,1,8,0:0:0:0:
448,192,52100,1,0,0:0:0:0:
64,192,52181,1,0,0:0:0:0:
192,192,52261,1,0,0:0:0:0:
448,192,52342,1,8,0:0:0:0:
320,192,52423,1,0,0:0:0:0:
64,192,52503,1,0,0:0:0:0:
192,192,52584,1,0,0:0:0:0:
448,192,52665,1,8,0:0:0:0:
320,192,52745,1,0,0:0:0:0:
192,192,52826,1,0,0:0:0:0:
64,192,52907,1,0,0:0:0:0:
192,192,52987,1,8,0:0:0:0:
320,192,53068,1,0,0:0:0:0:
448,192,53149,1,0,0:0:0:0:
64,192,53229,1,0,0:0:0:0:
192,192,53310,1,8,0:0:0:0:
320,192,53390,1,0,0:0:0:0:
448,192,53471,1,8,0:0:0:0:
320,192,53552,1,0,0:0:0:0:
192,192,53632,1,8,0:0:0:0:
320,192,53713,1,0,0:0:0:0:
64,192,53794,1,0,0:0:0:0:
192,192,53874,1,0,0:0:0:0:
320,192,53955,1,8,0:0:0:0:
448,192,54036,1,0,0:0:0:0:
192,192,54116,1,0,0:0:0:0:
320,192,54197,1,0,0:0:0:0:
64,192,54278,1,8,0:0:0:0:
448,192,54358,1,0,0:0:0:0:
64,192,54439,1,0,0:0:0:0:
448,192,54519,1,0,0:0:0:0:
320,192,54600,1,8,0:0:0:0:
192,192,54681,1,0,0:0:0:0:
448,192,54761,1,0,0:0:0:0:
64,192,54842,1,0,0:0:0:0:
320,192,54923,1,8,0:0:0:0:
448,192,54923,1,0,0:0:0:0:
320,192,55084,1,8,0:0:0:0:
448,192,55084,1,0,0:0:0:0:
192,192,55245,1,8,0:0:0:0:
64,192,55245,1,0,0:0:0:0:
192,192,55407,1,8,0:0:0:0:
64,192,55407,1,0,0:0:0:0:
448,192,55568,1,0,0:0:0:0:
64,192,55649,1,0,0:0:0:0:
320,192,55729,1,0,0:0:0:0:
192,192,55810,1,0,0:0:0:0:
448,192,55890,128,0,56213:0:0:0:0:
320,192,56213,1,8,0:0:0:0:
64,192,56213,1,0,0:0:0:0:
448,192,56374,1,0,0:0:0:0:
64,192,56455,1,0,0:0:0:0:
192,192,56536,1,8,0:0:0:0:
320,192,56697,1,0,0:0:0:0:
192,192,56778,1,0,0:0:0:0:
448,192,56858,1,8,0:0:0:0:
320,192,56939,1,0,0:0:0:0:
192,192,57019,1,0,0:0:0:0:
64,192,57100,1,0,0:0:0:0:
192,192,57181,1,8,0:0:0:0:
448,192,57261,1,0,0:0:0:0:
64,192,57342,1,0,0:0:0:0:
320,192,57423,1,0,0:0:0:0:
192,192,57503,1,8,0:0:0:0:
448,192,57584,1,0,0:0:0:0:
64,192,57665,1,0,0:0:0:0:
320,192,57745,1,0,0:0:0:0:
448,192,57826,1,8,0:0:0:0:
192,192,57907,1,0,0:0:0:0:
320,192,57987,1,0,0:0:0:0:
64,192,58068,1,0,0:0:0:0:
448,192,58149,1,8,0:0:0:0:
192,192,58229,1,0,0:0:0:0:
320,192,58310,1,0,0:0:0:0:
64,192,58390,1,0,0:0:0:0:
320,192,58471,1,8,0:0:0:0:
64,192,58552,1,0,0:0:0:0:
448,192,58632,1,0,0:0:0:0:
192,192,58713,1,0,0:0:0:0:
320,192,58794,1,8,0:0:0:0:
64,192,58874,1,0,0:0:0:0:
448,192,58955,1,0,0:0:0:0:
192,192,59036,1,0,0:0:0:0:
64,192,59116,1,8,0:0:0:0:
320,192,59197,1,0,0:0:0:0:
192,192,59278,1,0,0:0:0:0:
448,192,59358,1,0,0:0:0:0:
64,192,59439,1,8,0:0:0:0:
320,192,59519,1,0,0:0:0:0:
192,192,59600,1,0,0:0:0:0:
448,192,59681,1,0,0:0:0:0:
64,192,59761,1,8,0:0:0:0:
192,192,59842,1,0,0:0:0:0:
448,192,59923,1,0,0:0:0:0:
320,192,60003,1,0,0:0:0:0:
192,192,60084,1,8,0:0:0:0:
64,192,60165,1,0,0:0:0:0:
320,192,60245,1,0,0:0:0:0:
448,192,60326,1,0,0:0:0:0:
192,192,60407,1,8,0:0:0:0:
320,192,60487,1,0,0:0:0:0:
64,192,60568,1,0,0:0:0:0:
448,192,60649,1,0,0:0:0:0:
192,192,60729,1,8,0:0:0:0:
320,192,60810,1,0,0:0:0:0:
64,192,60890,1,0,0:0:0:0:
448,192,60971,1,0,0:0:0:0:
192,192,61052,1,8,0:0:0:0:
320,192,61132,1,0,0:0:0:0:
192,192,61213,1,0,0:0:0:0:
320,192,61294,1,0,0:0:0:0:
192,192,61374,1,2,0:0:0:0:
64,192,61374,1,8,0:0:0:0:
64,192,61536,1,2,0:0:0:0:
64,192,61697,1,2,0:0:0:0:
64,192,61858,1,2,0:0:0:0:
448,192,62019,1,2,0:0:0:0:
320,192,62019,1,8,0:0:0:0:
448,192,62181,1,2,0:0:0:0:
448,192,62342,1,2,0:0:0:0:
448,192,62503,1,2,0:0:0:0:
320,192,62665,1,10,0:0:0:0:
192,192,62665,1,0,0:0:0:0:
192,192,62826,1,2,0:0:0:0:
192,192,62987,1,2,0:0:0:0:
192,192,63149,1,2,0:0:0:0:
320,192,63310,1,10,0:0:0:0:
192,192,63310,1,0,0:0:0:0:
320,192,63471,1,2,0:0:0:0:
320,192,63632,1,2,0:0:0:0:
320,192,63794,1,2,0:0:0:0:
448,192,63955,1,8,0:0:0:0:
320,192,64036,1,0,0:0:0:0:
192,192,64116,1,0,0:0:0:0:
448,192,64197,1,8,0:0:0:0:
320,192,64278,1,0,0:0:0:0:
192,192,64358,1,0,0:0:0:0:
448,192,64439,1,8,0:0:0:0:
320,192,64519,1,0,0:0:0:0:
64,192,64600,1,8,0:0:0:0:
192,192,64681,1,0,0:0:0:0:
320,192,64761,1,0,0:0:0:0:
64,192,64842,1,8,0:0:0:0:
192,192,64923,1,0,0:0:0:0:
320,192,65003,1,0,0:0:0:0:
64,192,65084,1,8,0:0:0:0:
192,192,65165,1,0,0:0:0:0:
448,192,65245,1,8,0:0:0:0:
64,192,65326,1,0,0:0:0:0:
320,192,65407,1,8,0:0:0:0:
192,192,65487,1,0,0:0:0:0:
448,192,65568,1,8,0:0:0:0:
64,192,65649,1,0,0:0:0:0:
320,192,65729,1,8,0:0:0:0:
192,192,65810,1,0,0:0:0:0:
448,192,65890,1,8,0:0:0:0:
64,192,65971,1,8,0:0:0:0:
448,192,66052,1,8,0:0:0:0:
64,192,66132,1,8,0:0:0:0:
448,192,66213,1,8,0:0:0:0:
64,192,66294,1,8,0:0:0:0:
448,192,66374,1,8,0:0:0:0:
64,192,66455,1,8,0:0:0:0:
448,192,66536,128,0,68471:0:0:0:0:
64,192,68471,1,0,0:0:0:0:
192,192,68632,1,0,0:0:0:0:
320,192,68794,1,0,0:0:0:0:
192,192,68955,1,0,0:0:0:0:
64,192,69116,128,0,70407:0:0:0:0:
448,192,69761,1,0,0:0:0:0:
320,192,69923,1,0,0:0:0:0:
192,192,70084,1,0,0:0:0:0:
320,192,70245,1,0,0:0:0:0:
448,192,70407,128,0,71697:0:0:0:0:
320,192,71052,1,0,0:0:0:0:
192,192,71213,1,0,0:0:0:0:
64,192,71374,1,0,0:0:0:0:
192,192,71536,1,0,0:0:0:0:
320,192,71697,128,0,72987:0:0:0:0:
64,192,71858,1,0,0:0:0:0:
192,192,72019,1,0,0:0:0:0:
448,192,72181,1,0,0:0:0:0:
192,192,72342,1,0,0:0:0:0:
64,192,72503,1,0,0:0:0:0:
192,192,72665,1,0,0:0:0:0:
448,192,72826,1,0,0:0:0:0:
192,192,72987,128,0,74278:0:0:0:0:
448,192,73632,1,0,0:0:0:0:
320,192,73794,1,0,0:0:0:0:
64,192,73955,1,0,0:0:0:0:
320,192,74116,1,0,0:0:0:0:
448,192,74278,128,0,75568:0:0:0:0:
64,192,74923,1,0,0:0:0:0:
192,192,75084,1,0,0:0:0:0:
320,192,75245,1,0,0:0:0:0:
192,192,75407,1,0,0:0:0:0:
64,192,75568,128,0,76858:0:0:0:0:
192,192,76213,1,0,0:0:0:0:
320,192,76374,1,0,0:0:0:0:
448,192,76536,1,0,0:0:0:0:
320,192,76697,1,0,0:0:0:0:
192,192,76858,128,0,78149:0:0:0:0:
448,192,77019,1,0,0:0:0:0:
320,192,77181,1,0,0:0:0:0:
64,192,77342,1,0,0:0:0:0:
320,192,77503,1,0,0:0:0:0:
448,192,77665,1,0,0:0:0:0:
320,192,77826,1,0,0:0:0:0:
64,192,77987,1,0,0:0:0:0:
320,192,78149,128,0,79116:0:0:0:0:
448,192,79116,1,2,0:0:0:0:
64,192,79116,1,0,0:0:0:0:
448,192,79439,1,2,0:0:0:0:
64,192,79439,1,0,0:0:0:0:
320,192,79519,1,0,0:0:0:0:
192,192,79600,1,0,0:0:0:0:
64,192,79761,1,2,0:0:0:0:
192,192,79923,1,0,0:0:0:0:
320,192,80003,1,0,0:0:0:0:
64,192,80084,1,2,0:0:0:0:
192,192,80165,1,0,0:0:0:0:
320,192,80245,1,0,0:0:0:0:
448,192,80326,1,0,0:0:0:0:
192,192,80407,1,2,0:0:0:0:
448,192,80487,1,0,0:0:0:0:
320,192,80568,1,0,0:0:0:0:
192,192,80649,1,0,0:0:0:0:
64,192,80729,1,2,0:0:0:0:
448,192,80810,1,0,0:0:0:0:
320,192,80890,1,0,0:0:0:0:
192,192,81052,1,2,0:0:0:0:
64,192,81213,1,0,0:0:0:0:
448,192,81294,1,0,0:0:0:0:
64,192,81374,1,2,0:0:0:0:
192,192,81455,1,0,0:0:0:0:
320,192,81536,1,0,0:0:0:0:
448,192,81616,1,0,0:0:0:0:
192,192,81697,1,2,0:0:0:0:
448,192,81778,1,0,0:0:0:0:
320,192,81858,1,0,0:0:0:0:
192,192,81939,1,0,0:0:0:0:
64,192,82019,1,2,0:0:0:0:
64,192,82261,1,0,0:0:0:0:
64,192,82503,1,0,0:0:0:0:
64,192,82745,1,0,0:0:0:0:
64,192,82987,1,2,0:0:0:0:
192,192,83149,1,0,0:0:0:0:
320,192,83229,1,0,0:0:0:0:
448,192,83310,1,2,0:0:0:0:
448,192,83552,1,0,0:0:0:0:
448,192,83794,1,0,0:0:0:0:
448,192,84036,1,0,0:0:0:0:
448,192,84278,1,2,0:0:0:0:
320,192,84439,1,0,0:0:0:0:
64,192,84600,1,8,0:0:0:0:
192,192,84600,1,0,0:0:0:0:
320,192,84761,1,2,0:0:0:0:
192,192,84923,1,2,0:0:0:0:
320,192,85084,1,2,0:0:0:0:
64,192,85245,1,8,0:0:0:0:
448,192,85245,1,0,0:0:0:0:
320,192,85407,1,2,0:0:0:0:
64,192,85568,1,2,0:0:0:0:
448,192,85568,1,8,0:0:0:0:
192,192,85729,1,10,0:0:0:0:
320,192,85810,1,8,0:0:0:0:
448,192,85890,1,10,0:0:0:0:
64,192,85890,1,0,0:0:0:0:
320,192,86052,1,2,0:0:0:0:
192,192,86213,1,2,0:0:0:0:
320,192,86374,1,2,0:0:0:0:
448,192,86536,1,10,0:0:0:0:
64,192,86536,1,0,0:0:0:0:
192,192,86697,1,2,0:0:0:0:
448,192,86858,1,8,0:0:0:0:
64,192,86939,1,8,0:0:0:0:
448,192,87019,1,8,0:0:0:0:
64,192,87100,1,8,0:0:0:0:
448,192,87181,1,8,0:0:0:0:
320,192,87261,1,0,0:0:0:0:
192,192,87342,1,8,0:0:0:0:
64,192,87423,1,0,0:0:0:0:
448,192,87503,1,8,0:0:0:0:
320,192,87584,1,0,0:0:0:0:
192,192,87665,1,8,0:0:0:0:
320,192,87745,1,0,0:0:0:0:
64,192,87826,1,8,0:0:0:0:
192,192,87907,1,8,0:0:0:0:
320,192,87987,1,8,0:0:0:0:
448,192,88068,1,8,0:0:0:0:
64,192,88149,1,0,0:0:0:0:
192,192,88229,1,0,0:0:0:0:
320,192,88310,1,0,0:0:0:0:
192,192,88390,1,0,0:0:0:0:
64,192,88471,1,0,0:0:0:0:
192,192,88794,1,0,0:0:0:0:
320,192,89116,1,0,0:0:0:0:
192,192,89197,1,0,0:0:0:0:
320,192,89278,1,0,0:0:0:0:
192,192,89358,1,0,0:0:0:0:
448,192,89439,1,0,0:0:0:0:
64,192,89439,1,0,0:0:0:0:
448,192,89761,1,8,0:0:0:0:
64,192,89761,1,0,0:0:0:0:
320,192,89842,1,0,0:0:0:0:
192,192,89923,1,0,0:0:0:0:
320,192,90084,1,8,0:0:0:0:
448,192,90084,1,0,0:0:0:0:
192,192,90245,1,0,0:0:0:0:
320,192,90326,1,0,0:0:0:0:
192,192,90407,1,8,0:0:0:0:
64,192,90407,1,0,0:0:0:0:
448,192,90487,1,0,0:0:0:0:
320,192,90568,1,0,0:0:0:0:
192,192,90649,1,0,0:0:0:0:
64,192,90729,1,8,0:0:0:0:
448,192,90729,1,0,0:0:0:0:
192,192,90810,1,0,0:0:0:0:
320,192,90890,1,0,0:0:0:0:
448,192,90971,1,0,0:0:0:0:
320,192,91052,1,8,0:0:0:0:
64,192,91052,1,0,0:0:0:0:
192,192,91132,1,0,0:0:0:0:
320,192,91213,1,0,0:0:0:0:
192,192,91374,1,8,0:0:0:0:
64,192,91374,1,0,0:0:0:0:
320,192,91536,1,0,0:0:0:0:
192,192,91616,1,0,0:0:0:0:
320,192,91697,1,8,0:0:0:0:
448,192,91697,1,0,0:0:0:0:
64,192,91778,1,0,0:0:0:0:
192,192,91858,1,0,0:0:0:0:
320,192,91939,1,0,0:0:0:0:
448,192,92019,1,8,0:0:0:0:
64,192,92019,1,0,0:0:0:0:
320,192,92100,1,0,0:0:0:0:
192,192,92181,1,0,0:0:0:0:
64,192,92261,1,0,0:0:0:0:
320,192,92342,1,8,0:0:0:0:
448,192,92342,1,0,0:0:0:0:
64,192,92584,1,0,0:0:0:0:
320,192,92665,1,8,0:0:0:0:
448,192,92665,1,0,0:0:0:0:
64,192,92826,1,0,0:0:0:0:
320,192,92987,1,8,0:0:0:0:
448,192,92987,1,0,0:0:0:0:
64,192,93068,1,0,0:0:0:0:
320,192,93310,1,8,0:0:0:0:
448,192,93310,1,0,0:0:0:0:
64,192,93471,1,0,0:0:0:0:
448,192,93552,1,0,0:0:0:0:
192,192,93632,1,8,0:0:0:0:
64,192,93632,1,0,0:0:0:0:
448,192,93874,1,0,0:0:0:0:
192,192,93955,1,8,0:0:0:0:
64,192,93955,1,0,0:0:0:0:
448,192,94116,1,0,0:0:0:0:
192,192,94278,1,8,0:0:0:0:
64,192,94278,1,0,0:0:0:0:
448,192,94358,1,0,0:0:0:0:
192,192,94600,1,8,0:0:0:0:
64,192,94600,1,0,0:0:0:0:
320,192,94761,1,8,0:0:0:0:
448,192,94761,1,0,0:0:0:0:
192,192,94923,1,8,0:0:0:0:
64,192,94923,1,0,0:0:0:0:
320,192,95003,1,0,0:0:0:0:
448,192,95084,1,0,0:0:0:0:
320,192,95245,1,8,0:0:0:0:
192,192,95245,1,0,0:0:0:0:
64,192,95407,1,0,0:0:0:0:
448,192,95487,1,0,0:0:0:0:
320,192,95568,1,8,0:0:0:0:
192,192,95568,1,0,0:0:0:0:
64,192,95649,1,0,0:0:0:0:
320,192,95729,1,0,0:0:0:0:
192,192,95810,1,0,0:0:0:0:
64,192,95890,1,8,0:0:0:0:
448,192,95890,1,0,0:0:0:0:
192,192,95971,1,0,0:0:0:0:
320,192,96052,1,0,0:0:0:0:
448,192,96132,1,0,0:0:0:0:
192,192,96213,1,8,0:0:0:0:
64,192,96213,1,0,0:0:0:0:
320,192,96294,1,0,0:0:0:0:
448,192,96374,1,0,0:0:0:0:
192,192,96536,1,8,0:0:0:0:
64,192,96536,1,0,0:0:0:0:
320,192,96697,1,0,0:0:0:0:
448,192,96778,1,0,0:0:0:0:
320,192,96858,1,8,0:0:0:0:
192,192,96858,1,0,0:0:0:0:
64,192,96939,1,0,0:0:0:0:
192,192,97019,1,0,0:0:0:0:
320,192,97100,1,0,0:0:0:0:
448,192,97181,1,8,0:0:0:0:
64,192,97181,1,0,0:0:0:0:
320,192,97261,1,0,0:0:0:0:
192,192,97342,1,0,0:0:0:0:
64,192,97423,1,0,0:0:0:0:
448,192,97503,1,8,0:0:0:0:
320,192,97503,1,0,0:0:0:0:
320,192,97745,1,8,0:0:0:0:
192,192,97745,1,0,0:0:0:0:
192,192,97987,1,8,0:0:0:0:
64,192,97987,1,0,0:0:0:0:
320,192,98149,1,8,0:0:0:0:
192,192,98229,1,8,0:0:0:0:
448,192,98310,1,8,0:0:0:0:
64,192,98390,1,8,0:0:0:0:
320,192,98471,1,8,0:0:0:0:
192,192,98552,1,8,0:0:0:0:
448,192,98632,1,0,0:0:0:0:
64,192,98713,1,0,0:0:0:0:
448,192,98955,1,8,0:0:0:0:
320,192,98955,1,0,0:0:0:0:
448,192,99197,1,8,0:0:0:0:
320,192,99197,1,0,0:0:0:0:
320,192,99439,1,8,0:0:0:0:
192,192,99439,1,0,0:0:0:0:
192,192,99681,1,8,0:0:0:0:
64,192,99681,1,0,0:0:0:0:
448,192,100084,1,8,0:0:0:0:
64,192,100084,1,0,0:0:0:0:
320,192,100165,1,0,0:0:0:0:
192,192,100245,1,0,0:0:0:0:
448,192,100407,1,8,0:0:0:0:
64,192,100407,1,0,0:0:0:0:
320,192,100568,1,0,0:0:0:0:
192,192,100649,1,0,0:0:0:0:
448,192,100729,1,8,0:0:0:0:
64,192,100729,1,0,0:0:0:0:
192,192,100810,1,0,0:0:0:0:
320,192,100890,1,0,0:0:0:0:
448,192,100971,1,0,0:0:0:0:
320,192,101052,1,8,0:0:0:0:
64,192,101052,1,0,0:0:0:0:
192,192,101132,1,0,0:0:0:0:
320,192,101213,1,0,0:0:0:0:
448,192,101294,1,0,0:0:0:0:
320,192,101374,1,8,0:0:0:0:
192,192,101374,1,0,0:0:0:0:
64,192,101455,1,0,0:0:0:0:
448,192,101536,1,0,0:0:0:0:
320,192,101697,1,8,0:0:0:0:
64,192,101697,1,0,0:0:0:0:
192,192,101858,1,0,0:0:0:0:
320,192,101939,1,0,0:0:0:0:
64,192,102019,1,8,0:0:0:0:
448,192,102019,1,0,0:0:0:0:
320,192,102100,1,0,0:0:0:0:
192,192,102181,1,0,0:0:0:0:
64,192,102261,1,0,0:0:0:0:
448,192,102342,1,8,0:0:0:0:
192,192,102342,1,0,0:0:0:0:
64,192,102423,1,0,0:0:0:0:
192,192,102503,1,0,0:0:0:0:
320,192,102584,1,0,0:0:0:0:
448,192,102665,1,8,0:0:0:0:
64,192,102665,1,0,0:0:0:0:
320,192,102907,1,0,0:0:0:0:
448,192,102987,1,8,0:0:0:0:
64,192,102987,1,0,0:0:0:0:
192,192,103149,1,0,0:0:0:0:
448,192,103310,1,8,0:0:0:0:
64,192,103310,1,0,0:0:0:0:
320,192,103390,1,0,0:0:0:0:
448,192,103632,1,8,0:0:0:0:
64,192,103632,1,0,0:0:0:0:
192,192,103794,1,0,0:0:0:0:
320,192,103955,1,8,0:0:0:0:
448,192,103955,1,0,0:0:0:0:
192,192,104197,1,0,0:0:0:0:
320,192,104278,1,8,0:0:0:0:
64,192,104278,1,0,0:0:0:0:
192,192,104439,1,0,0:0:0:0:
448,192,104600,1,8,0:0:0:0:
64,192,104600,1,0,0:0:0:0:
320,192,104681,1,0,0:0:0:0:
448,192,104923,1,8,0:0:0:0:
320,192,104923,1,0,0:0:0:0:
192,192,105084,1,8,0:0:0:0:
64,192,105084,1,0,0:0:0:0:
448,192,105245,1,10,0:0:0:0:
320,192,105245,1,0,0:0:0:0:
192,192,105326,1,0,0:0:0:0:
320,192,105407,1,0,0:0:0:0:
192,192,105568,1,10,0:0:0:0:
64,192,105568,1,0,0:0:0:0:
192,192,105729,1,0,0:0:0:0:
64,192,105810,1,0,0:0:0:0:
320,192,105890,1,10,0:0:0:0:
448,192,105890,1,0,0:0:0:0:
192,192,105971,1,0,0:0:0:0:
320,192,106052,1,0,0:0:0:0:
448,192,106132,1,0,0:0:0:0:
192,192,106213,1,10,0:0:0:0:
64,192,106213,1,0,0:0:0:0:
320,192,106294,1,0,0:0:0:0:
192,192,106374,1,0,0:0:0:0:
64,192,106455,1,0,0:0:0:0:
448,192,106536,1,10,0:0:0:0:
320,192,106536,1,0,0:0:0:0:
192,192,106616,1,0,0:0:0:0:
320,192,106697,1,0,0:0:0:0:
64,192,106858,1,10,0:0:0:0:
448,192,106858,1,0,0:0:0:0:
192,192,107019,1,0,0:0:0:0:
320,192,107100,1,0,0:0:0:0:
448,192,107181,1,10,0:0:0:0:
64,192,107181,1,0,0:0:0:0:
192,192,107261,1,0,0:0:0:0:
320,192,107342,1,0,0:0:0:0:
192,192,107423,1,0,0:0:0:0:
448,192,107503,1,10,0:0:0:0:
64,192,107503,1,0,0:0:0:0:
320,192,107584,1,0,0:0:0:0:
192,192,107665,1,8,0:0:0:0:
320,192,107745,1,0,0:0:0:0:
448,192,107826,1,8,0:0:0:0:
64,192,107826,1,0,0:0:0:0:
192,192,107987,1,2,0:0:0:0:
448,192,107987,1,8,0:0:0:0:
320,192,108149,1,8,0:0:0:0:
192,192,108149,1,0,0:0:0:0:
320,192,108310,1,8,0:0:0:0:
64,192,108310,1,0,0:0:0:0:
192,192,108471,1,8,0:0:0:0:
320,192,108552,1,8,0:0:0:0:
64,192,108632,1,8,0:0:0:0:
448,192,108713,1,8,0:0:0:0:
192,192,108794,1,8,0:0:0:0:
320,192,108874,1,8,0:0:0:0:
192,192,108955,1,8,0:0:0:0:
320,192,109036,1,8,0:0:0:0:
192,192,109116,1,8,0:0:0:0:
64,192,109116,1,0,0:0:0:0:
192,192,109358,1,8,0:0:0:0:
320,192,109358,1,0,0:0:0:0:
320,192,109600,1,8,0:0:0:0:
448,192,109600,1,0,0:0:0:0:
320,192,109842,1,8,0:0:0:0:
192,192,109842,1,0,0:0:0:0:
192,192,110084,128,0,110407:0:0:0:0:
64,192,110084,128,0,110407:0:0:0:0:
320,192,110407,1,0,0:0:0:0:
448,192,110407,1,0,0:0:0:0:
