osu file format v14

[General]
AudioFilename: audio.mp3
AudioLeadIn: 0
PreviewTime: 88597
Countdown: 0
SampleSet: None
StackLeniency: 0.4
Mode: 0
LetterboxInBreaks: 0
WidescreenStoryboard: 1

[Editor]
Bookmarks: 2146,12468,33114,46017,56339,66662,79565,89888,110533
DistanceSpacing: 0.8
BeatDivisor: 4
GridSize: 32
TimelineZoom: 2.599999

[Metadata]
Title:Gekkou Ranbu
TitleUnicode:Gekkou Ranbu
Artist:P*Light
ArtistUnicode:P*Light
Creator:-Famous-
Version:GRAVITY
Source:SOUND VOLTEX III GRAVITY WARS
Tags:SDVX 3
BeatmapID:1876639
BeatmapSetID:898355

[Difficulty]
HPDrainRate:5
CircleSize:4.3
OverallDifficulty:9
ApproachRate:9.6
SliderMultiplier:2.2
SliderTickRate:1

[Events]
//Background and Video events
0,0,"bg.png",0,0
//Break Periods
2,66862,68088
//Storyboard Layer 0 (Background)
//Storyboard Layer 1 (Fail)
//Storyboard Layer 2 (Pass)
//Storyboard Layer 3 (Foreground)
//Storyboard Sound Samples

[TimingPoints]
856,322.58064516129,4,2,1,30,1,0
2146,-74.0740740740741,4,2,1,40,0,0
2388,-74.0740740740741,4,2,1,5,0,0
2468,-74.0740740740741,4,2,1,40,0,0
2710,-74.0740740740741,4,2,1,5,0,0
2791,-100,4,2,1,40,0,0
3436,-74.0740740740741,4,2,1,40,0,0
3678,-74.0740740740741,4,2,1,5,0,0
3759,-74.0740740740741,4,2,1,40,0,0
4001,-74.0740740740741,4,2,1,5,0,0
4081,-100,4,2,1,40,0,0
4726,-74.0740740740741,4,2,1,40,0,0
4888,-100,4,2,1,40,0,0
5210,-74.0740740740741,4,2,1,40,0,0
5372,-100,4,2,1,40,0,0
5694,-74.0740740740741,4,2,1,40,0,0
6259,-74.0740740740741,4,2,1,5,0,0
6339,-74.0740740740741,4,2,1,45,0,0
6581,-74.0740740740741,4,2,1,5,0,0
6662,-100,4,2,1,40,0,0
8436,-83.3333333333333,4,2,1,40,0,0
8517,-83.3333333333333,4,2,1,5,0,0
8597,-100,4,2,1,40,0,0
9726,-83.3333333333333,4,2,1,40,0,0
9807,-83.3333333333333,4,2,1,5,0,0
9888,-100,4,2,1,40,0,0
11178,-100,4,3,1,40,0,0
12468,-86.9565217391304,4,1,1,40,0,0
12872,-86.9565217391304,4,1,1,5,0,0
12952,-86.9565217391304,4,1,1,40,0,0
14162,-86.9565217391304,4,1,1,5,0,0
14243,-86.9565217391304,4,1,1,40,0,0
15452,-86.9565217391304,4,1,1,5,0,0
15533,-86.9565217391304,4,1,1,40,0,0
16743,-86.9565217391304,4,1,1,5,0,0
16823,-86.9565217391304,4,1,1,40,0,0
18033,-86.9565217391304,4,1,1,5,0,0
18114,-86.9565217391304,4,1,1,40,0,0
19323,-86.9565217391304,4,1,1,5,0,0
19404,-86.9565217391304,4,1,1,40,0,0
20614,-86.9565217391304,4,1,1,5,0,0
20694,-86.9565217391304,4,1,1,40,0,0
20775,-86.9565217391304,4,1,1,5,0,0
20855,-86.9565217391304,4,1,1,40,0,0
22307,-133.333333333333,4,2,0,40,0,0
22791,-86.9565217391304,4,1,1,40,0,0
23194,-86.9565217391304,4,1,1,5,0,0
23275,-86.9565217391304,4,1,1,40,0,0
24485,-86.9565217391304,4,1,1,5,0,0
24565,-86.9565217391304,4,1,1,40,0,0
25775,-86.9565217391304,4,1,1,5,0,0
25855,-86.9565217391304,4,1,1,40,0,0
27065,-86.9565217391304,4,1,1,5,0,0
27146,-86.9565217391304,4,1,1,40,0,0
27388,-86.9565217391304,4,1,1,5,0,0
27468,-86.9565217391304,4,1,1,40,0,0
28355,-86.9565217391304,4,1,1,5,0,0
28436,-86.9565217391304,4,1,1,40,0,0
29646,-86.9565217391304,4,1,1,5,0,0
29726,-86.9565217391304,4,1,1,40,0,0
30614,-86.9565217391304,4,1,1,5,0,0
30694,-86.9565217391304,4,1,1,40,0,0
32630,-133.333333333333,4,2,1,40,0,0
33114,-100,4,3,2,40,0,0
33194,-100,4,3,2,5,0,0
33275,-100,4,3,2,40,0,0
33678,-100,4,3,2,5,0,0
33759,-100,4,3,2,40,0,0
34001,-100,4,3,2,5,0,0
34081,-100,4,3,2,40,0,0
34162,-100,4,3,2,5,0,0
34243,-100,4,3,2,40,0,0
34323,-100,4,3,2,5,0,0
34404,-100,4,3,2,40,0,0
34485,-100,4,3,2,5,0,0
34565,-100,4,3,2,40,0,0
35049,-76.9230769230769,4,3,2,40,0,0
35372,-100,4,3,2,40,0,0
36581,-100,4,3,2,5,0,0
36662,-100,4,3,2,40,0,0
36743,-100,4,3,2,5,0,0
36823,-100,4,3,2,40,0,0
36904,-100,4,3,2,5,0,0
36985,-100,4,3,2,40,0,0
37065,-100,4,3,2,5,0,0
37146,-100,4,3,2,40,0,0
37710,-100,4,3,2,5,0,0
37791,-100,4,3,2,40,0,0
38033,-100,4,3,2,5,0,0
38114,-100,4,3,2,40,0,0
38194,-100,4,3,2,5,0,0
38275,-83.3333333333333,4,1,1,40,0,0
38355,-83.3333333333333,4,1,1,5,0,0
38436,-83.3333333333333,4,1,1,40,0,0
39646,-83.3333333333333,4,1,1,5,0,0
39726,-83.3333333333333,4,1,1,40,0,0
40936,-83.3333333333333,4,1,1,5,0,0
41017,-83.3333333333333,4,1,1,40,0,0
41581,-83.3333333333333,4,1,1,5,0,0
41662,-83.3333333333333,4,1,1,40,0,0
43759,-83.3333333333333,4,2,1,40,0,0
44726,-83.3333333333333,4,1,1,40,0,0
45694,-50,4,1,1,40,0,0
45775,-50,4,1,1,5,0,0
46017,-86.9565217391304,4,1,1,40,0,0
50855,-66.6666666666667,4,1,1,40,0,0
50936,-66.6666666666667,4,1,1,5,0,0
51017,-86.9565217391304,4,1,1,40,0,0
55694,-133.333333333333,4,2,1,40,0,0
56339,-86.9565217391304,4,1,1,40,0,0
56420,-86.9565217391304,4,1,1,5,0,0
56501,-86.9565217391304,4,1,1,40,0,0
56904,-86.9565217391304,4,1,1,5,0,0
56985,-86.9565217391304,4,1,1,40,0,0
57226,-86.9565217391304,4,1,1,5,0,0
57307,-86.9565217391304,4,1,1,40,0,0
57388,-86.9565217391304,4,1,1,5,0,0
57468,-86.9565217391304,4,1,1,40,0,0
57549,-86.9565217391304,4,1,1,5,0,0
57630,-86.9565217391304,4,1,1,40,0,0
57710,-86.9565217391304,4,1,1,5,0,0
57791,-86.9565217391304,4,1,1,40,0,0
58275,-74.0740740740741,4,1,1,40,0,0
58597,-86.9565217391304,4,1,1,40,0,0
59485,-86.9565217391304,4,1,1,5,0,0
59565,-86.9565217391304,4,1,1,40,0,0
59807,-86.9565217391304,4,1,1,5,0,0
59888,-86.9565217391304,4,1,1,40,0,0
59968,-86.9565217391304,4,1,1,5,0,0
60049,-86.9565217391304,4,1,1,40,0,0
60130,-86.9565217391304,4,1,1,5,0,0
60210,-86.9565217391304,4,1,1,40,0,0
60291,-86.9565217391304,4,1,1,5,0,0
60372,-86.9565217391304,4,1,1,40,0,0
60936,-86.9565217391304,4,1,1,5,0,0
61017,-86.9565217391304,4,1,1,40,0,0
61501,-74.0740740740741,4,1,1,40,0,0
61581,-74.0740740740741,4,1,1,5,0,0
61662,-74.0740740740741,4,1,1,40,0,0
62226,-74.0740740740741,4,1,1,5,0,0
62307,-74.0740740740741,4,1,1,40,0,0
62872,-74.0740740740741,4,1,1,5,0,0
62952,-74.0740740740741,4,1,1,40,0,0
63517,-74.0740740740741,4,1,1,5,0,0
63597,-74.0740740740741,4,1,1,40,0,0
66662,-74.0740740740741,4,1,2,40,0,0
68597,-166.666666666667,4,2,1,30,0,0
69807,-166.666666666667,4,2,1,5,0,0
69888,-166.666666666667,4,2,1,30,0,0
71097,-166.666666666667,4,2,1,5,0,0
71178,-166.666666666667,4,2,1,30,0,0
73678,-166.666666666667,4,2,1,5,0,0
73759,-166.666666666667,4,2,1,30,0,0
74968,-166.666666666667,4,2,1,5,0,0
75049,-166.666666666667,4,2,1,30,0,0
76259,-166.666666666667,4,2,1,5,0,0
76339,-166.666666666667,4,2,1,30,0,0
79243,-111.111111111111,4,2,1,40,0,0
79807,-111.111111111111,4,2,1,5,0,0
79888,-111.111111111111,4,2,1,40,0,0
81097,-111.111111111111,4,2,1,5,0,0
81178,-111.111111111111,4,2,1,40,0,0
81581,-111.111111111111,4,2,1,5,0,0
81662,-111.111111111111,4,2,1,40,0,0
82307,-111.111111111111,4,2,1,5,0,0
82388,-111.111111111111,4,2,1,40,0,0
82549,-111.111111111111,4,2,1,5,0,0
82630,-111.111111111111,4,2,1,40,0,0
83033,-111.111111111111,4,2,1,5,0,0
83114,-111.111111111111,4,2,1,40,0,0
83597,-111.111111111111,4,2,1,5,0,0
83678,-111.111111111111,4,2,1,40,0,0
83839,-111.111111111111,4,2,1,5,0,0
83920,-111.111111111111,4,2,1,40,0,0
84726,-83.3333333333333,4,1,1,40,0,0
84807,-83.3333333333333,4,1,1,5,0,0
84888,-83.3333333333333,4,1,1,40,0,0
85452,-83.3333333333333,4,1,1,5,0,0
85533,-83.3333333333333,4,1,1,40,0,0
85775,-83.3333333333333,4,1,1,5,0,0
85855,-83.3333333333333,4,1,1,40,0,0
86743,-83.3333333333333,4,1,1,5,0,0
86823,-83.3333333333333,4,1,1,40,0,0
88597,-100,4,3,1,40,0,0
89888,-86.9565217391304,4,1,1,40,0,1
90130,-86.9565217391304,4,1,1,5,0,1
90210,-86.9565217391304,4,1,1,40,0,1
91420,-86.9565217391304,4,1,1,5,0,1
91501,-86.9565217391304,4,1,1,40,0,1
91904,-86.9565217391304,4,1,1,5,0,1
91985,-86.9565217391304,4,1,1,40,0,1
92630,-86.9565217391304,4,1,1,5,0,1
92710,-86.9565217391304,4,1,1,40,0,1
92872,-86.9565217391304,4,1,1,5,0,1
92952,-86.9565217391304,4,1,1,40,0,1
93355,-86.9565217391304,4,1,1,5,0,1
93436,-86.9565217391304,4,1,1,40,0,1
93920,-86.9565217391304,4,1,1,5,0,1
94001,-86.9565217391304,4,1,1,40,0,1
94162,-86.9565217391304,4,1,1,5,0,1
94243,-86.9565217391304,4,1,1,40,0,1
95291,-86.9565217391304,4,1,1,5,0,1
95372,-86.9565217391304,4,1,1,40,0,1
96581,-86.9565217391304,4,1,1,5,0,1
96662,-86.9565217391304,4,1,1,40,0,1
97065,-86.9565217391304,4,1,1,5,0,1
97146,-86.9565217391304,4,1,1,40,0,1
97630,-74.0740740740741,4,1,1,40,0,1
98033,-74.0740740740741,4,1,1,5,0,1
98114,-74.0740740740741,4,1,1,40,0,1
98194,-74.0740740740741,4,1,1,5,0,1
98275,-86.9565217391304,4,1,1,40,0,1
100130,-86.9565217391304,4,1,1,5,0,1
100210,-74.0740740740741,4,1,1,40,0,1
100452,-74.0740740740741,4,1,1,5,0,1
100533,-74.0740740740741,4,1,1,40,0,1
101501,-66.6666666666667,4,1,1,40,0,1
101662,-74.0740740740741,4,1,1,40,0,1
101743,-74.0740740740741,4,1,1,5,0,1
101823,-74.0740740740741,4,1,1,40,0,1
102146,-66.6666666666667,4,1,1,40,0,1
102226,-66.6666666666667,4,1,1,5,0,1
102307,-74.0740740740741,4,1,1,40,0,1
102952,-74.0740740740741,4,1,1,5,0,1
103033,-74.0740740740741,4,1,1,40,0,1
103194,-74.0740740740741,4,1,1,5,0,1
103275,-74.0740740740741,4,1,1,40,0,1
103678,-74.0740740740741,4,1,1,5,0,1
103759,-74.0740740740741,4,1,1,40,0,1
104243,-74.0740740740741,4,1,1,5,0,1
104323,-74.0740740740741,4,1,1,40,0,1
104485,-74.0740740740741,4,1,1,5,0,1
104565,-74.0740740740741,4,1,1,40,0,1
105614,-74.0740740740741,4,1,1,5,0,1
105694,-74.0740740740741,4,1,1,40,0,1
106904,-74.0740740740741,4,1,1,5,0,1
106985,-74.0740740740741,4,1,1,40,0,1
107388,-74.0740740740741,4,1,1,5,0,1
107468,-74.0740740740741,4,1,1,40,0,1
108517,-74.0740740740741,4,1,1,5,0,1
108597,-74.0740740740741,4,1,1,40,0,1
109404,-74.0740740740741,4,1,1,5,0,1
109485,-74.0740740740741,4,1,1,40,0,1
109646,-74.0740740740741,4,1,1,5,0,1
109726,-74.0740740740741,4,1,1,40,0,1
109888,-74.0740740740741,4,1,1,5,0,1
109968,-74.0740740740741,4,1,1,40,0,1
110130,-74.0740740740741,4,1,1,5,0,1
110210,-74.0740740740741,4,1,1,40,0,1
110533,-100,4,1,1,40,0,0

[Colours]
Combo1 : 249,206,38
Combo2 : 242,168,194
Combo3 : 170,72,109
Combo4 : 235,172,156

[HitObjects]
294,38,1501,5,2,0:0:0:0:
277,78,1662,1,2,0:0:0:0:
276,121,1823,1,2,0:0:0:0:
293,161,1985,1,2,0:0:0:0:
324,191,2146,6,0,B|473:200|473:200|417:137,1,222.750000849724,2|0,1:1|1:1,1:1:0:0:
424,145,2468,1,0,1:1:0:0:
235,285,2630,2,0,L|129:292,1,74.2500002832413,2|0,1:1|1:1,1:1:0:0:
86,356,2791,5,0,0:0:0:0:
65,317,2952,1,0,0:0:0:0:
63,272,3114,1,4,0:1:0:0:
81,231,3275,1,0,0:0:0:0:
114,203,3436,6,0,B|263:194|263:194|198:135,1,222.750000849724,2|0,1:1|1:1,1:1:0:0:
208,144,3759,1,0,1:1:0:0:
317,347,3920,2,0,L|332:239,1,74.2500002832413,2|0,1:1|1:1,1:1:0:0:
345,131,4081,5,0,0:0:0:0:
425,329,4243,1,4,0:1:0:0:
361,119,4404,1,0,0:0:0:0:
231,299,4565,1,0,0:0:0:0:
157,71,4726,6,0,P|119:130|115:242,1,148.500000566483,2|0,1:1|0:0,0:0:0:0:
263,25,5049,1,0,0:0:0:0:
193,160,5210,2,0,P|196:233|231:299,1,148.500000566483,2|0,1:1|0:0,0:0:0:0:
247,45,5533,1,0,0:0:0:0:
274,212,5694,2,0,P|319:270|384:304,1,148.500000566483,6|0,1:1|0:0,0:0:0:0:
482,166,6017,6,0,B|451:211|360:207|360:207|394:237|440:243,1,222.750000849724,2|0,1:1|1:0,1:0:0:0:
439,242,6339,1,0,1:0:0:0:
265,118,6501,2,0,P|300:129|352:133,1,74.2500002832413,2|0,1:1|1:0,1:0:0:0:
483,58,6662,5,0,0:0:0:0:
274,212,6823,1,4,0:1:0:0:
475,78,6985,1,4,0:1:0:0:
263,25,7146,1,0,0:0:0:0:
439,242,7307,5,2,1:1:0:0:
442,220,7630,1,0,1:0:0:0:
445,198,7952,5,0,1:0:0:0:
408,230,8113,1,0,0:0:0:0:
360,233,8274,1,4,1:1:0:0:
319,206,8436,2,0,P|305:168|301:128,1,65.9999979858399
182,305,8597,5,2,1:1:0:0:
179,283,8920,1,0,1:0:0:0:
176,261,9242,5,0,1:0:0:0:
212,293,9403,1,4,0:1:0:0:
260,296,9564,1,4,1:1:0:0:
301,269,9726,2,0,P|315:230|319:190,1,65.9999979858399
291,30,9888,5,2,1:1:0:0:
401,279,10049,1,4,1:1:0:0:
182,69,10210,1,2,1:1:0:0:
449,121,10371,1,4,1:1:0:0:
162,185,10533,5,2,1:1:0:0:
198,213,10613,1,0,1:1:0:0:
243,223,10694,1,4,1:1:0:0:
289,214,10774,1,0,1:1:0:0:
326,187,10855,1,2,1:1:0:0:
369,171,10936,1,0,1:1:0:0:
416,174,11016,1,4,1:1:0:0:
456,196,11097,1,0,1:1:0:0:
485,233,11177,5,2,0:3:0:0:
485,233,11501,1,2,0:3:0:0:
485,233,11823,2,8,L|495:139,1,55,10|8,0:0|0:0,0:0:0:0:
320,132,11985,2,0,L|325:186,1,55,8|8,0:0|0:0,0:0:0:0:
409,281,12146,1,4,0:0:0:0:
445,63,12307,1,4,0:0:0:0:
303,294,12468,6,0,P|239:264|157:279,1,126.500002412796,2|0,0:0|0:0,0:0:0:0:
104,318,12710,1,0,0:0:0:0:
96,300,12791,2,0,P|94:245|105:219,1,63.250001206398,10|0,0:0|0:0,0:0:0:0:
180,115,12952,1,0,0:0:0:0:
230,355,13114,1,2,0:0:0:0:
296,169,13275,1,0,0:0:0:0:
114,334,13436,1,10,0:0:0:0:
62,50,13597,1,0,0:0:0:0:
301,81,13759,6,0,P|242:105|180:115,1,126.500002412796,2|0,0:0|0:0,0:0:0:0:
135,200,14001,1,0,0:0:0:0:
153,195,14081,2,0,P|196:190|238:194,1,63.250001206398,10|0,0:0|0:0,0:0:0:0:
363,230,14243,1,0,0:0:0:0:
150,111,14404,1,2,0:0:0:0:
237,298,14565,1,0,0:0:0:0:
378,88,14726,1,14,0:0:0:0:
119,208,14888,1,0,0:0:0:0:
348,355,15049,6,0,P|359:293|363:230,1,126.500002412796,2|0,0:0|0:0,0:0:0:0:
438,172,15291,1,0,0:0:0:0:
452,183,15372,2,0,P|455:214|462:245,1,63.250001206398,10|0,0:0|0:0,0:0:0:0:
512,355,15533,1,0,0:0:0:0:
237,298,15694,2,0,P|180:303|99:325,1,126.500002412796,2|0,0:0|0:0,0:0:0:0:
232,79,16017,2,0,P|293:94|356:100,1,126.500002412796,10|0,0:0|0:0,0:0:0:0:
180,150,16339,6,0,P|141:84|83:65,1,126.500002412796,2|0,0:0|0:0,0:0:0:0:
5,168,16581,1,0,0:0:0:0:
22,174,16662,2,0,P|54:171|83:160,1,63.250001206398,10|0,0:0|0:0,0:0:0:0:
237,206,16823,1,0,0:0:0:0:
56,274,16985,1,2,0:0:0:0:
266,312,17146,1,4,0:0:0:0:
83,160,17307,1,14,0:0:0:0:
356,100,17468,1,0,0:0:0:0:
266,312,17630,6,0,P|285:236|272:183,1,126.500002412796,2|0,0:0|0:0,0:0:0:0:
219,112,17872,1,0,0:0:0:0:
209,95,17952,2,0,P|214:53|231:19,1,63.250001206398,10|0,0:0|0:0,0:0:0:0:
304,83,18114,1,0,0:0:0:0:
170,209,18275,1,2,0:0:0:0:
407,164,18436,1,0,0:0:0:0:
244,333,18597,1,14,0:0:0:0:
512,250,18759,1,0,0:0:0:0:
278,227,18920,6,0,L|262:97,1,126.500002412796,2|0,0:0|0:0,0:0:0:0:
174,145,19162,1,0,0:0:0:0:
162,130,19243,2,0,L|171:62,1,63.250001206398,10|0,0:0|0:0,0:0:0:0:
280,123,19404,1,0,0:0:0:0:
176,250,19565,1,2,0:0:0:0:
89,55,19726,1,4,0:0:0:0:
345,22,19888,1,10,0:0:0:0:
266,302,20049,1,2,0:0:0:0:
52,167,20210,6,0,P|110:143|173:144,1,126.500002412796,2|4,0:0|3:1,0:0:0:0:
302,78,20452,2,0,P|239:79|181:55,1,126.500002412796,2|0,0:0|0:0,0:0:0:0:
254,175,20694,2,0,P|291:156|336:153,1,63.250001206398,6|0,0:0|0:0,0:0:0:0:
447,159,20855,1,2,0:0:0:0:
139,196,21017,1,6,0:0:0:0:
487,244,21178,1,2,0:0:0:0:
128,285,21340,1,6,0:0:0:0:
128,285,21662,5,0,0:0:0:0:
256,32,21904,1,0,0:0:0:0:
384,285,22146,1,0,0:0:0:0:
307,187,22307,5,4,0:1:0:0:
485,213,22468,1,4,0:1:0:0:
55,309,22791,6,0,P|131:301|191:275,1,126.500002412796,2|0,0:0|0:0,0:0:0:0:
243,214,23033,1,0,0:0:0:0:
255,228,23114,2,0,P|270:263|270:299,1,63.250001206398,10|0,0:0|0:0,0:0:0:0:
155,198,23275,1,0,0:0:0:0:
358,151,23436,1,2,0:0:0:0:
217,358,23597,1,0,0:0:0:0:
443,378,23759,1,10,0:0:0:0:
241,108,23920,1,0,0:0:0:0:
155,198,24081,6,0,L|14:191,1,126.500002412796,2|0,0:0|0:0,0:0:0:0:
0,100,24323,1,0,0:0:0:0:
13,87,24404,2,0,L|96:82,1,63.250001206398,10|0,0:0|0:0,0:0:0:0:
216,75,24565,1,0,0:0:0:0:
51,177,24726,1,2,0:0:0:0:
140,12,24888,1,0,0:0:0:0:
283,180,25049,1,14,0:0:0:0:
13,87,25210,1,0,0:0:0:0:
305,98,25372,6,0,P|359:143|363:208,1,126.500002412796,2|0,0:0|0:0,0:0:0:0:
256,252,25614,1,0,0:0:0:0:
253,233,25694,2,0,P|261:203|283:179,1,63.250001206398,10|0,0:0|0:0,0:0:0:0:
441,121,25855,1,0,0:0:0:0:
311,366,26017,1,2,0:0:0:0:
216,75,26178,1,0,0:0:0:0:
459,214,26339,1,10,0:0:0:0:
219,322,26501,1,0,0:0:0:0:
305,98,26662,6,0,B|273:154|273:154|177:172,1,126.500002412796,2|0,0:0|0:0,0:0:0:0:
140,100,26904,1,0,0:0:0:0:
153,86,26985,2,0,L|216:75,1,63.250001206398,10|0,0:0|0:0,0:0:0:0:
393,118,27146,1,0,0:0:0:0:
239,240,27307,2,0,L|176:251,1,63.250001206398,2|0,0:0|0:0,0:0:0:0:
68,269,27468,1,0,0:0:0:0:
61,244,27630,1,6,0:0:0:0:
54,219,27791,1,2,0:0:0:0:
47,194,27952,6,0,L|28:340,1,126.500002412796,2|0,0:0|0:0,0:0:0:0:
111,369,28194,1,0,0:0:0:0:
125,356,28275,2,0,P|162:342|189:338,1,63.250001206398,10|0,0:0|0:0,0:0:0:0:
326,356,28436,1,0,0:0:0:0:
151,256,28597,1,2,0:0:0:0:
346,138,28759,1,0,0:0:0:0:
208,345,28920,1,14,0:0:0:0:
103,87,29081,1,0,0:0:0:0:
270,240,29243,6,0,P|336:231|398:189,1,126.500002412796,2|0,0:0|0:0,0:0:0:0:
459,261,29485,1,0,0:0:0:0:
470,246,29565,2,0,P|481:208|475:163,1,63.250001206398,10|0,0:0|0:0,0:0:0:0:
454,40,29726,1,0,0:0:0:0:
386,200,29888,1,2,0:0:0:0:
285,7,30049,1,4,0:0:0:0:
364,216,30210,1,14,0:0:0:0:
121,71,30372,1,0,0:0:0:0:
342,233,30533,6,0,L|249:250,1,63.250001206398,2|0,0:0|0:0,0:0:0:0:
187,331,30694,1,4,0:0:0:0:
161,328,30775,1,2,0:0:0:0:
136,325,30855,1,2,0:0:0:0:
5,98,31017,1,6,0:0:0:0:
180,226,31178,5,2,0:0:0:0:
226,227,31258,1,0,0:0:0:0:
263,198,31339,1,6,0:0:0:0:
275,153,31420,1,0,0:0:0:0:
256,111,31501,1,2,0:0:0:0:
215,89,31581,1,0,0:0:0:0:
169,98,31662,1,6,0:0:0:0:
139,133,31743,1,0,0:0:0:0:
139,133,31985,5,0,0:0:0:0:
416,192,32226,1,0,0:0:0:0:
139,251,32468,1,0,0:0:0:0:
186,369,32630,5,4,0:1:0:0:
257,210,32791,1,4,0:1:0:0:
38,318,33114,6,0,L|28:248,1,55,0|0,1:0|0:0,0:0:0:0:
112,50,33355,5,0,0:0:0:0:
112,50,33436,1,0,1:0:0:0:
194,282,33597,6,0,L|204:212,1,55
358,195,33759,1,0,1:0:0:0:
348,208,33839,1,0,0:0:0:0:
339,221,33920,2,0,L|271:244,1,55
152,160,34081,2,0,P|178:147|211:146,1,55,0|0,1:0|0:0,0:0:0:0:
291,328,34243,2,0,P|263:325|239:312,1,55
393,164,34404,2,0,P|410:185|418:211,1,55,0|0,1:0|0:0,0:0:0:0:
119,355,34646,5,0,0:0:0:0:
119,355,34726,1,0,1:0:0:0:
269,85,34888,5,0,0:0:0:0:
284,80,34968,1,0,0:0:0:0:
300,76,35049,2,0,P|351:84|416:125,1,95.3333289693199,0|0,1:0|0:0,0:0:0:0:
210,25,35264,2,0,P|167:45|120:52,1,95.3333289693199,0|0,1:0|0:0,0:0:0:0:
263,167,35533,5,0,0:0:0:0:
268,182,35614,1,0,0:0:0:0:
273,197,35694,1,0,1:0:0:0:
38,318,35936,5,0,0:0:0:0:
38,318,36017,1,0,1:0:0:0:
210,123,36178,6,0,P|235:134|258:151,1,55
340,292,36339,1,0,1:0:0:0:
346,276,36420,1,0,0:0:0:0:
352,260,36501,2,0,P|374:243|399:232,1,55
244,355,36662,2,0,L|189:349,1,55,0|0,1:0|0:0,0:0:0:0:
354,159,36823,2,0,L|426:152,1,55
214,263,36985,2,0,L|199:206,1,55,0|0,1:0|0:0,0:0:0:0:
325,26,37226,5,0,0:0:0:0:
325,26,37307,1,0,1:0:0:0:
105,204,37468,5,0,0:0:0:0:
108,187,37549,1,0,0:0:0:0:
113,171,37630,2,0,L|126:117,1,55,0|0,1:0|0:0,0:0:0:0:
150,17,37791,1,0,0:0:0:0:
348,162,37952,6,0,P|323:177|267:187,1,55,0|0,1:0|0:0,0:0:0:0:
76,95,38114,2,0,P|102:103|126:118,1,55
289,276,38275,2,0,P|250:260|205:254,1,65.9999979858399,2|0,0:0|0:0,0:0:0:0:
9,288,38436,5,0,0:0:0:0:
316,359,38597,1,0,0:0:0:0:
11,274,38759,5,0,0:0:0:0:
325,238,38920,1,0,0:0:0:0:
13,261,39081,5,0,0:0:0:0:
301,128,39243,1,0,0:0:0:0:
15,248,39404,5,0,0:0:0:0:
250,37,39565,2,0,P|221:62|204:102,1,65.9999979858399,2|0,0:0|0:0,0:0:0:0:
172,346,39726,5,0,0:0:0:0:
118,32,39888,1,0,0:0:0:0:
185,344,40049,5,0,0:0:0:0:
250,37,40210,1,0,0:0:0:0:
198,342,40371,5,0,0:0:0:0:
362,69,40533,1,0,0:0:0:0:
211,340,40694,5,0,0:0:0:0:
451,134,40855,6,0,P|431:156|387:178,1,65.9999979858399,2|0,0:0|0:0,0:0:0:0:
158,212,41017,1,0,0:0:0:0:
437,264,41178,1,0,0:0:0:0:
125,319,41339,1,0,0:0:0:0:
406,357,41501,6,0,P|375:340|343:284,1,65.9999979858399,2|0,0:0|0:0,0:0:0:0:
300,85,41662,1,0,0:0:0:0:
236,367,41823,1,0,0:0:0:0:
177,54,41985,1,0,0:0:0:0:
125,319,42146,6,0,P|86:310|60:290,1,65.9999979858399,2|0,0:0|0:0,0:0:0:0:
12,188,42307,1,0,0:0:0:0:
50,177,42388,1,0,0:0:0:0:
89,179,42468,1,0,0:0:0:0:
126,193,42549,1,0,0:0:0:0:
156,218,42630,1,0,0:0:0:0:
175,252,42710,1,0,0:0:0:0:
185,290,42791,5,0,0:0:0:0:
243,317,42872,1,0,0:0:0:0:
306,301,42952,1,0,0:0:0:0:
345,250,43033,1,0,0:0:0:0:
342,185,43114,1,0,0:0:0:0:
300,136,43194,1,0,0:0:0:0:
236,126,43274,1,0,0:0:0:0:
180,158,43355,1,0,0:0:0:0:
156,218,43436,1,0,0:0:0:0:
156,218,43759,5,2,0:0:0:0:
180,158,43920,1,2,0:0:0:0:
236,126,44081,1,2,0:0:0:0:
300,136,44243,1,2,0:0:0:0:
342,185,44404,1,2,0:0:0:0:
345,250,44565,1,2,0:0:0:0:
56,323,44726,5,2,0:0:0:0:
370,269,44888,1,2,0:0:0:0:
28,131,45049,5,2,0:0:0:0:
342,185,45211,1,2,0:0:0:0:
0,234,45372,5,2,0:0:0:0:
194,101,45533,1,0,0:0:0:0:
194,101,45614,1,0,0:0:0:0:
194,101,45694,2,0,B|228:120|269:113|269:113|237:132|226:152,1,110
0,234,46017,6,0,B|59:209|59:209|136:226,1,126.500002412796,2|0,0:0|0:0,0:0:0:0:
328,317,46339,1,2,0:0:0:0:
71,324,46501,1,0,0:0:0:0:
341,202,46662,1,2,0:0:0:0:
58,209,46823,1,0,0:0:0:0:
353,88,46985,1,2,0:0:0:0:
46,95,47146,1,0,0:0:0:0:
155,359,47307,5,2,0:0:0:0:
121,37,47468,1,0,0:0:0:0:
246,359,47630,1,2,0:0:0:0:
280,37,47791,1,0,0:0:0:0:
155,359,47952,2,0,L|139:203,1,126.500002412796,2|0,0:0|0:0,0:0:0:0:
280,37,48275,5,2,0:0:0:0:
328,317,48436,1,0,0:0:0:0:
72,189,48597,2,0,P|134:150|202:176,1,126.500002412796,2|0,0:0|0:0,0:0:0:0:
328,317,48920,5,2,0:0:0:0:
328,317,49081,1,0,0:0:0:0:
453,86,49243,2,0,B|436:144|436:144|429:218,1,126.500002412796,2|0,0:0|0:0,0:0:0:0:
189,59,49565,2,0,B|205:117|205:117|212:182,1,126.500002412796,2|0,0:0|0:0,0:0:0:0:
155,359,49888,5,2,0:0:0:0:
231,173,50049,1,0,0:0:0:0:
63,311,50210,1,2,0:0:0:0:
323,221,50372,1,0,0:0:0:0:
24,220,50533,1,2,0:0:0:0:
362,312,50694,1,0,0:0:0:0:
42,121,50855,6,0,P|82:138|115:180,1,82.5000031471254,2|0,0:0|0:0,0:0:0:0:
155,359,51017,1,0,0:0:0:0:
231,173,51178,5,2,3:1:0:0:
229,154,51259,1,2,3:1:0:0:
227,135,51339,1,2,3:1:0:0:
225,116,51420,1,2,3:1:0:0:
223,97,51501,5,2,3:1:0:0:
480,90,51662,1,0,0:0:0:0:
210,212,51823,1,2,0:0:0:0:
493,205,51985,1,0,0:0:0:0:
198,326,52146,1,2,0:0:0:0:
505,319,52307,1,0,0:0:0:0:
400,49,52468,5,2,0:0:0:0:
434,371,52630,1,0,0:0:0:0:
309,49,52791,1,2,0:0:0:0:
275,371,52952,1,0,0:0:0:0:
400,49,53114,6,0,P|428:122|431:197,1,126.500002412796,2|0,0:0|0:0,0:0:0:0:
275,371,53436,1,2,0:0:0:0:
223,97,53597,1,0,0:0:0:0:
463,257,53759,2,0,B|405:237|405:237|335:235,1,126.500002412796,2|0,0:0|0:0,0:0:0:0:
155,359,54082,5,2,0:0:0:0:
155,359,54243,1,0,0:0:0:0:
340,235,54405,2,0,L|361:84,1,126.500002412796,2|0,0:0|0:0,0:0:0:0:
97,281,54726,2,0,L|76:130,1,126.500002412796,2|0,0:0|0:0,0:0:0:0:
326,322,55049,5,2,0:0:0:0:
77,303,55210,1,2,0:0:0:0:
374,141,55372,1,2,0:0:0:0:
58,131,55533,1,2,0:0:0:0:
271,222,55694,6,0,L|195:213,1,41.2500015735627
129,47,55855,2,0,L|205:38,1,41.2500015735627
290,245,56017,1,0,0:0:0:0:
362,50,56178,1,0,0:0:0:0:
439,292,56339,6,0,P|403:298|345:318,1,63.250001206398,2|0,0:0|0:0,0:0:0:0:
263,351,56501,1,0,0:0:0:0:
239,342,56580,1,0,0:0:0:0:
213,338,56661,1,2,0:0:0:0:
187,340,56743,1,0,0:0:0:0:
162,344,56823,6,0,P|126:338|68:318,1,63.250001206398
29,190,56985,1,2,0:0:0:0:
37,213,57065,1,0,0:0:0:0:
39,238,57146,2,0,P|31:275|2:326,1,63.250001206398
136,163,57307,2,0,P|107:137|78:86,1,63.250001206398,2|0,0:0|0:0,0:0:0:0:
155,283,57468,2,0,P|191:271|249:271,1,63.250001206398
324,365,57630,6,0,P|292:360|262:350,1,63.250001206398,2|0,0:0|0:0,0:0:0:0:
227,178,57791,1,0,0:0:0:0:
262,190,57872,1,0,0:0:0:0:
290,214,57951,1,2,0:0:0:0:
305,249,58033,1,0,0:0:0:0:
333,224,58114,1,0,0:0:0:0:
369,213,58194,1,0,0:0:0:0:
407,214,58275,6,0,P|455:237|490:284,1,99.0000003776551,2|0,0:0|0:0,0:0:0:0:
234,333,58490,2,0,P|203:289|197:230,1,99.0000003776551,0|2,0:0|0:0,0:0:0:0:
337,107,58678,2,0,L|406:96,2,63.250001206398
272,61,58920,5,2,0:0:0:0:
226,40,59001,1,0,0:0:0:0:
176,45,59081,1,0,0:0:0:0:
137,76,59162,1,0,0:0:0:0:
118,122,59243,1,2,0:0:0:0:
125,171,59323,1,0,0:0:0:0:
157,210,59404,6,0,L|219:219,1,63.250001206398
382,352,59565,1,2,0:0:0:0:
368,348,59646,1,0,0:0:0:0:
356,344,59726,2,0,L|271:356,1,63.250001206398
89,270,59888,2,0,P|69:233|72:183,1,63.250001206398,2|0,0:0|0:0,0:0:0:0:
287,263,60049,2,0,P|264:285|235:297,1,63.250001206398
180,152,60210,6,0,P|174:182|157:209,1,63.250001206398,2|0,0:0|0:0,0:0:0:0:
86,114,60372,1,0,0:0:0:0:
106,82,60452,1,0,0:0:0:0:
137,60,60533,1,2,0:0:0:0:
173,51,60613,1,0,0:0:0:0:
211,56,60694,1,0,0:0:0:0:
243,75,60775,1,0,0:0:0:0:
267,105,60855,6,0,P|278:145|271:197,1,63.250001206398,2|0,0:0|0:0,0:0:0:0:
150,332,61016,1,0,0:0:0:0:
124,328,61097,1,0,0:0:0:0:
98,324,61178,2,0,L|160:313,1,63.250001206398,2|0,0:0|0:0,0:0:0:0:
419,222,61339,2,0,L|356:211,1,63.250001206398
34,257,61501,6,0,L|114:243,1,74.2500002832413,2|0,0:0|0:0,0:0:0:0:
340,208,61662,1,0,0:0:0:0:
133,142,61823,1,0,0:0:0:0:
365,108,61985,1,0,0:0:0:0:
158,42,62146,6,0,P|197:62|225:98,1,74.2500002832413,2|0,0:0|0:0,0:0:0:0:
315,308,62307,1,0,0:0:0:0:
225,101,62468,1,0,0:0:0:0:
307,326,62630,1,0,0:0:0:0:
233,117,62791,6,0,L|306:129,1,74.2500002832413,2|0,0:0|0:0,0:0:0:0:
126,240,62952,1,0,0:0:0:0:
330,134,63114,1,0,0:0:0:0:
219,351,63275,1,0,0:0:0:0:
118,123,63436,6,0,P|107:82|104:38,1,74.2500002832413,2|0,0:0|0:0,0:0:0:0:
222,215,63597,1,0,0:0:0:0:
0,182,63759,1,0,0:0:0:0:
255,107,63920,1,0,0:0:0:0:
89,311,64081,6,0,P|131:295|164:287,1,74.2500002832413,2|0,0:0|0:0,0:0:0:0:
377,352,64243,1,0,0:0:0:0:
355,358,64323,2,0,P|319:348|284:334,1,74.2500002832413,2|0,0:0|0:0,0:0:0:0:
246,86,64485,1,0,0:0:0:0:
255,107,64565,2,0,L|238:205,1,74.2500002832413,2|0,0:0|0:0,0:0:0:0:
471,256,64726,6,0,L|458:182,1,74.2500002832413,2|0,0:0|0:0,0:0:0:0:
315,26,64888,1,0,0:0:0:0:
334,35,64968,2,0,P|377:33|412:22,1,74.2500002832413,2|0,0:0|0:0,0:0:0:0:
172,131,65130,1,0,0:0:0:0:
153,122,65210,2,0,P|110:124|75:135,1,74.2500002832413,2|0,0:0|0:0,0:0:0:0:
276,310,65372,6,0,L|266:235,1,74.2500002832413,2|0,0:0|0:0,0:0:0:0:
169,203,65533,2,0,L|178:276,1,74.2500002832413,2|0,0:0|0:0,0:0:0:0:
373,339,65694,2,0,L|363:264,1,74.2500002832413,2|0,0:0|0:0,0:0:0:0:
74,172,65855,2,0,L|83:245,1,74.2500002832413,2|0,0:0|0:0,0:0:0:0:
473,374,66017,5,2,0:0:0:0:
466,329,66097,1,2,0:0:0:0:
460,285,66178,1,2,0:0:0:0:
454,241,66259,1,2,0:0:0:0:
446,196,66339,5,2,0:0:0:0:
407,138,66419,1,2,0:0:0:0:
337,147,66501,1,2,0:0:0:0:
314,214,66581,1,2,0:0:0:0:
363,265,66662,5,4,2:1:0:0:
105,54,68597,5,2,0:0:0:0:
135,83,68759,1,2,0:0:0:0:
150,123,68920,1,2,0:0:0:0:
148,165,69081,1,2,0:0:0:0:
128,203,69243,6,0,B|250:153|229:240|364:181,1,230.99999295044
370,175,69888,5,2,0:0:0:0:
412,180,70049,1,2,0:0:0:0:
448,202,70210,1,2,0:0:0:0:
474,236,70371,1,2,0:0:0:0:
483,278,70533,6,0,P|402:177|446:81,1,230.99999295044
452,82,71178,5,2,0:0:0:0:
409,78,71339,1,2,0:0:0:0:
366,75,71500,1,2,0:0:0:0:
323,72,71661,1,2,0:0:0:0:
280,69,71823,5,2,0:0:0:0:
95,143,71985,1,2,0:0:0:0:
272,85,72146,1,2,0:0:0:0:
87,159,72308,1,2,0:0:0:0:
144,32,72468,5,2,0:0:0:0:
218,217,72630,1,2,0:0:0:0:
160,40,72791,1,2,0:0:0:0:
234,225,72953,1,2,0:0:0:0:
272,85,73114,6,0,P|356:146|368:275,1,230.99999295044
364,286,73759,5,2,0:0:0:0:
335,317,73920,1,2,0:0:0:0:
296,333,74081,1,2,0:0:0:0:
253,331,74243,1,2,0:0:0:0:
216,311,74404,6,0,B|146:281|69:325|69:325|103:289|115:232,1,230.99999295044
112,238,75049,5,2,0:0:0:0:
116,195,75210,1,2,0:0:0:0:
113,152,75371,1,2,0:0:0:0:
102,111,75532,1,2,0:0:0:0:
84,72,75694,6,0,B|176:92|176:92|220:82|220:82|326:105,1,230.99999295044
330,108,76339,5,2,0:0:0:0:
371,98,76500,1,2,0:0:0:0:
413,89,76661,1,2,0:0:0:0:
455,80,76822,1,2,0:0:0:0:
497,70,76984,5,2,0:0:0:0:
302,34,77146,1,2,0:0:0:0:
486,50,77307,1,2,0:0:0:0:
290,13,77469,1,2,0:0:0:0:
177,136,77630,5,2,0:0:0:0:
372,99,77792,1,2,0:0:0:0:
188,115,77953,1,2,0:0:0:0:
384,78,78115,1,2,0:0:0:0:
111,27,78275,5,2,0:0:0:0:
256,192,78355,12,0,79243,0:0:0:0:
49,340,79565,5,0,1:0:0:0:
61,324,79646,1,0,0:0:0:0:
70,306,79726,2,0,P|78:266|76:231,1,49.4999984893799
49,117,79888,1,0,1:0:0:0:
167,314,80049,1,0,0:0:0:0:
186,309,80129,1,0,0:0:0:0:
205,306,80210,5,0,1:0:0:0:
234,310,80291,1,0,0:0:0:0:
258,326,80371,1,0,0:0:0:0:
286,333,80452,1,0,0:0:0:0:
314,327,80533,1,0,1:0:0:0:
337,309,80613,1,0,0:0:0:0:
347,281,80694,1,0,0:0:0:0:
345,251,80774,1,0,0:0:0:0:
330,224,80855,5,0,1:0:0:0:
314,211,80936,1,0,0:0:0:0:
297,200,81017,2,0,L|215:208,1,49.4999984893799
76,257,81178,1,0,1:0:0:0:
220,74,81339,1,0,0:0:0:0:
239,79,81420,1,0,0:0:0:0:
258,80,81501,6,0,P|293:75|344:64,1,49.4999984893799,0|0,1:0|0:0,0:0:0:0:
441,10,81662,1,0,0:0:0:0:
431,37,81742,1,0,0:0:0:0:
427,66,81823,1,0,1:0:0:0:
434,99,81903,1,0,0:0:0:0:
452,128,81984,1,0,0:0:0:0:
460,166,82065,1,0,0:0:0:0:
465,204,82145,6,0,P|452:256|425:311,1,98.9999969787599,0|0,1:0|0:0,0:0:0:0:
303,348,82387,1,0,0:0:0:0:
283,353,82468,2,0,L|210:347,1,49.4999984893799,0|0,1:0|0:0,0:0:0:0:
137,245,82630,2,0,L|239:236,1,98.9999969787599,0|0,0:0|1:0,0:0:0:0:
322,127,82872,2,0,L|220:118,1,98.9999969787599
147,108,83113,1,0,1:0:0:0:
316,228,83274,1,0,0:0:0:0:
129,121,83436,6,0,P|114:68|108:11,1,98.9999969787599,0|0,1:0|0:0,0:0:0:0:
223,118,83678,1,0,0:0:0:0:
220,137,83759,2,0,P|205:172|181:201,1,49.4999984893799,0|0,1:0|0:0,0:0:0:0:
17,214,83920,6,0,P|65:203|115:198,1,98.9999969787599,0|0,0:0|1:0,0:0:0:0:
240,250,84162,1,0,0:0:0:0:
247,268,84242,1,0,0:0:0:0:
129,121,84403,1,0,1:0:0:0:
330,212,84565,1,0,0:0:0:0:
161,344,84726,6,0,P|169:313|167:274,1,65.9999979858399,2|0,0:0|0:0,0:0:0:0:
119,105,84888,1,0,0:0:0:0:
345,201,85049,1,0,0:0:0:0:
159,261,85210,1,0,0:0:0:0:
250,43,85372,6,0,L|331:36,1,65.9999979858399,2|0,0:0|0:0,0:0:0:0:
445,28,85533,1,0,0:0:0:0:
345,201,85694,2,0,L|264:194,1,65.9999979858399,2|0,0:0|0:0,0:0:0:0:
150,186,85855,1,2,0:0:0:0:
145,159,85936,1,2,0:0:0:0:
140,132,86017,5,2,0:0:0:0:
90,362,86178,1,0,0:0:0:0:
3,92,86339,1,0,0:0:0:0:
71,346,86500,1,0,0:0:0:0:
260,222,86662,6,0,P|221:238|193:256,1,65.9999979858399,2|0,0:0|0:0,0:0:0:0:
90,362,86823,1,0,0:0:0:0:
140,132,86985,1,2,0:0:0:0:
135,105,87066,1,2,0:0:0:0:
130,78,87147,1,2,0:0:0:0:
126,52,87226,1,2,0:0:0:0:
121,25,87307,5,0,0:0:0:0:
159,51,87388,1,0,0:0:0:0:
204,57,87468,1,0,0:0:0:0:
249,48,87549,1,0,0:0:0:0:
288,23,87630,1,0,0:0:0:0:
332,12,87710,1,0,0:0:0:0:
376,25,87791,1,0,0:0:0:0:
405,60,87872,1,0,0:0:0:0:
412,104,87952,5,0,0:0:0:0:
365,167,88033,1,0,0:0:0:0:
286,161,88114,1,0,0:0:0:0:
248,92,88194,1,0,0:0:0:0:
288,23,88275,2,0,P|308:16|328:14,7,32.99999899292
330,93,88597,5,2,0:0:0:0:
330,93,88920,1,2,0:0:0:0:
330,93,89243,2,8,L|337:147,1,55,10|8,0:0|0:0,0:0:0:0:
166,204,89404,2,0,L|173:149,1,55,8|4,0:0|0:0,0:0:0:0:
351,234,89565,1,4,0:0:0:0:
351,234,89888,5,10,0:0:0:0:
318,254,89969,1,0,0:0:0:0:
296,285,90049,2,0,P|288:320|295:369,1,63.250001206398
179,221,90210,1,10,0:0:0:0:
386,327,90372,1,0,0:0:0:0:
410,330,90452,1,0,0:0:0:0:
434,324,90533,5,10,0:0:0:0:
463,300,90614,1,0,0:0:0:0:
476,265,90694,1,0,0:0:0:0:
461,216,90775,1,0,0:0:0:0:
418,187,90855,1,10,0:0:0:0:
389,146,90936,1,0,0:0:0:0:
378,109,91017,1,0,0:0:0:0:
393,74,91097,1,0,0:0:0:0:
425,54,91178,5,10,0:0:0:0:
462,48,91259,1,0,0:0:0:0:
499,40,91339,2,0,L|395:20,1,63.250001206398
225,62,91501,1,10,0:0:0:0:
418,187,91662,5,0,0:0:0:0:
455,193,91743,1,0,0:0:0:0:
492,201,91824,2,0,L|388:221,1,63.250001206398,10|0,0:0|0:0,0:0:0:0:
255,297,91985,1,0,0:0:0:0:
233,284,92065,1,0,0:0:0:0:
201,280,92146,1,14,0:0:0:0:
164,289,92226,1,0,0:0:0:0:
119,295,92307,1,0,0:0:0:0:
71,277,92388,1,0,0:0:0:0:
37,231,92468,6,0,B|38:166|38:166|55:104,1,126.500002412796,10|0,0:0|0:0,0:0:0:0:
249,40,92710,1,0,0:0:0:0:
262,62,92791,2,0,P|269:99|268:131,1,63.250001206398,10|0,0:0|0:0,0:0:0:0:
164,289,92952,2,0,P|234:252|286:243,1,126.500002412796,0|10,0:0|0:0,0:0:0:0:
433,357,93194,2,0,P|371:342|317:311,1,126.500002412796
180,103,93436,1,10,0:0:0:0:
301,299,93597,1,0,0:0:0:0:
110,145,93759,6,0,P|102:76|151:27,1,126.500002412796,10|0,0:0|0:0,0:0:0:0:
264,80,94001,1,0,0:0:0:0:
242,97,94081,2,0,L|180:103,1,63.250001206398,10|0,0:0|0:0,0:0:0:0:
337,25,94243,2,0,L|462:36,1,126.500002412796,0|10,0:0|0:0,0:0:0:0:
512,144,94485,1,0,0:0:0:0:
492,150,94565,1,4,0:0:0:0:
179,103,94726,1,14,0:0:0:0:
486,308,94888,1,0,0:0:0:0:
272,343,95049,5,10,0:0:0:0:
234,337,95130,1,0,0:0:0:0:
196,333,95210,2,0,L|110:320,1,63.250001206398
296,219,95372,1,10,0:0:0:0:
51,354,95533,1,0,0:0:0:0:
46,329,95613,1,0,0:0:0:0:
42,303,95694,5,10,0:0:0:0:
53,266,95775,1,0,0:0:0:0:
81,241,95855,1,0,0:0:0:0:
130,228,95936,1,0,0:0:0:0:
179,237,96017,1,14,0:0:0:0:
228,227,96097,1,0,0:0:0:0:
259,205,96178,1,0,0:0:0:0:
274,170,96258,1,0,0:0:0:0:
279,132,96339,5,10,0:0:0:0:
269,94,96420,1,0,0:0:0:0:
248,62,96501,2,0,P|218:43|155:38,1,63.250001206398
15,59,96662,1,10,0:0:0:0:
180,137,96823,5,0,0:0:0:0:
212,157,96904,1,0,0:0:0:0:
249,164,96985,2,0,P|286:157|326:118,1,63.250001206398,10|0,0:0|0:0,0:0:0:0:
374,22,97146,1,4,0:0:0:0:
394,36,97226,1,0,0:0:0:0:
415,59,97307,1,14,0:0:0:0:
434,91,97388,1,0,0:0:0:0:
443,133,97468,1,0,0:0:0:0:
438,183,97549,1,0,0:0:0:0:
411,233,97630,6,0,P|463:171|462:94,1,148.500000566483,2|4,0:0|3:1,0:0:0:0:
296,233,97872,2,0,P|323:309|390:346,1,148.500000566483,2|0,0:0|0:0,0:0:0:0:
355,133,98114,2,0,P|314:118|275:118,1,74.2500002832413,6|0,0:0|0:0,0:0:0:0:
117,242,98275,5,2,0:0:0:0:
114,290,98355,1,2,0:0:0:0:
150,323,98436,1,6,0:0:0:0:
198,315,98516,1,2,0:0:0:0:
223,273,98597,1,2,0:0:0:0:
205,227,98678,1,2,0:0:0:0:
158,213,98759,2,0,L|106:221,3,31.625000603199
31,349,99081,5,0,0:0:0:0:
87,29,99323,1,0,0:0:0:0:
167,269,99565,1,0,0:0:0:0:
13,84,99807,2,0,B|173:60|173:60|77:151,1,253.000004825592
0,70,100210,6,0,L|95:56,1,74.2500002832413,10|0,0:0|0:0,0:0:0:0:
205,227,100372,2,0,L|131:216,1,74.2500002832413
236,34,100533,1,10,0:0:0:0:
339,277,100694,1,0,0:0:0:0:
345,248,100775,1,0,0:0:0:0:
352,219,100855,5,10,0:0:0:0:
311,237,100936,1,0,0:0:0:0:
269,254,101017,1,0,0:0:0:0:
313,293,101097,1,0,0:0:0:0:
357,332,101178,1,10,0:0:0:0:
401,371,101259,1,0,0:0:0:0:
411,327,101339,1,0,0:0:0:0:
421,284,101420,1,0,0:0:0:0:
431,240,101501,6,0,L|452:144,1,82.5000031471254,10|0,0:0|0:0,0:0:0:0:
269,254,101662,2,0,L|249:169,1,74.2500002832413
397,22,101823,1,10,0:0:0:0:
154,146,101985,5,0,0:0:0:0:
164,188,102065,1,0,0:0:0:0:
176,236,102146,2,0,L|158:316,1,82.5000031471254,10|0,0:0|0:0,0:0:0:0:
352,219,102307,1,0,0:0:0:0:
358,189,102388,1,0,0:0:0:0:
366,153,102468,1,14,0:0:0:0:
373,108,102549,1,0,0:0:0:0:
379,56,102630,1,0,0:0:0:0:
414,102,102710,1,0,0:0:0:0:
450,158,102791,6,0,L|299:149,1,148.500000566483,10|0,0:0|0:0,0:0:0:0:
118,38,103033,1,0,0:0:0:0:
139,17,103114,2,0,L|239:10,1,74.2500002832413,10|0,0:0|0:0,0:0:0:0:
345,227,103275,2,0,L|194:218,1,148.500000566483,0|10,0:0|0:0,0:0:0:0:
318,28,103517,2,0,L|469:19,1,148.500000566483
364,252,103759,1,10,0:0:0:0:
234,33,103920,1,0,0:0:0:0:
143,282,104081,6,0,P|116:199|170:139,1,148.500000566483,10|0,0:0|0:0,0:0:0:0:
364,252,104323,1,0,0:0:0:0:
338,266,104404,2,0,P|295:263|249:235,1,74.2500002832413,10|0,0:0|0:0,0:0:0:0:
89,96,104565,2,0,P|166:75|223:130,1,148.500000566483,0|10,0:0|0:0,0:0:0:0:
164,293,104807,1,0,0:0:0:0:
156,264,104888,1,4,0:0:0:0:
299,50,105049,1,14,0:0:0:0:
173,323,105210,1,0,0:0:0:0:
75,120,105372,6,0,L|188:130,1,74.2500002832413,10|0,0:0|0:0,0:0:0:0:
257,345,105533,2,0,L|184:352,1,74.2500002832413
3,202,105694,1,10,0:0:0:0:
299,50,105855,1,0,0:0:0:0:
328,46,105936,1,0,0:0:0:0:
357,43,106016,5,10,0:0:0:0:
340,84,106097,1,0,0:0:0:0:
340,128,106178,1,0,0:0:0:0:
367,179,106258,1,0,0:0:0:0:
413,216,106339,1,10,0:0:0:0:
432,272,106420,1,0,0:0:0:0:
422,315,106500,1,0,0:0:0:0:
391,348,106581,1,0,0:0:0:0:
346,353,106662,5,10,0:0:0:0:
308,328,106743,1,0,0:0:0:0:
293,286,106823,2,0,P|299:237|321:186,1,74.2500002832413
384,51,106985,1,10,0:0:0:0:
166,265,107146,5,0,0:0:0:0:
190,226,107226,1,0,0:0:0:0:
197,181,107307,2,0,P|190:132|169:81,1,74.2500002832413,10|0,0:0|0:0,0:0:0:0:
0,241,107468,1,4,0:0:0:0:
28,231,107549,1,0,0:0:0:0:
65,230,107630,1,10,0:0:0:0:
106,244,107710,1,0,0:0:0:0:
142,281,107791,1,0,0:0:0:0:
193,310,107872,1,0,0:0:0:0:
259,305,107952,6,0,B|342:268|342:268|275:245,1,148.500000566483,2|4,0:0|3:1,0:0:0:0:
50,327,108194,1,2,0:0:0:0:
45,341,108275,1,0,0:0:0:0:
411,299,108436,2,0,L|430:189,1,74.2500002832413,6|0,0:0|0:0,0:0:0:0:
213,63,108597,5,2,0:0:0:0:
161,90,108677,1,2,0:0:0:0:
133,142,108758,1,6,0:0:0:0:
138,200,108838,1,2,0:0:0:0:
175,246,108919,1,2,0:0:0:0:
230,264,109000,1,2,0:0:0:0:
287,249,109080,1,6,0:0:0:0:
326,205,109161,1,2,0:0:0:0:
334,147,109243,6,0,L|364:333,1,148.500000566483
175,246,109485,2,0,L|198:99,1,148.500000566483
400,42,109726,2,0,L|430:228,1,148.500000566483,0|0,0:0|0:0,0:0:0:0:
83,303,109968,2,0,L|106:156,1,148.500000566483,0|0,0:0|0:0,0:0:0:0:
508,239,110210,2,0,P|377:274|334:147,1,297.000001132965,0|4,0:0|3:3,0:0:0:0:
