osu file format v14

[General]
AudioFilename: audio.mp3
AudioLeadIn: 0
PreviewTime: 83515
Countdown: 0
SampleSet: Normal
StackLeniency: 0.7
Mode: 1
LetterboxInBreaks: 0
WidescreenStoryboard: 0

[Editor]
Bookmarks: 113446
DistanceSpacing: 1
BeatDivisor: 4
GridSize: 4
TimelineZoom: 2.799999

[Metadata]
Title:Gale Rider
TitleUnicode:Gale Rider
Artist:P*Light
ArtistUnicode:P*Light
Creator:Charlotte
Version:komasy's Oni
Source:REFLEC BEAT groovin'!!
Tags:Happycore komasy iloveyou4ever Hanjamon
BeatmapID:1313624
BeatmapSetID:622356

[Difficulty]
HPDrainRate:6
CircleSize:2
OverallDifficulty:5.5
ApproachRate:5
SliderMultiplier:1.4
SliderTickRate:1

[Events]
//Background and Video events
0,0,"BG.jpg",0,100
//Break Periods
//Storyboard Layer 0 (Background)
//Storyboard Layer 1 (Fail)
//Storyboard Layer 2 (Pass)
//Storyboard Layer 3 (Foreground)
//Storyboard Sound Samples

[TimingPoints]
4008,310.880829015544,4,1,0,70,1,0
8982,-100,4,1,0,80,0,0
13956,-100,4,1,0,87,0,0
59033,-100,4,1,0,60,0,0
59344,-100,4,1,0,40,0,0
59655,-100,4,1,0,20,0,0
61132,-100,4,1,0,60,0,0
76054,-100,4,1,0,80,0,0
83593,-100,4,1,0,90,0,1
112039,-100,4,1,0,90,0,0

[HitObjects]
358,254,4008,5,4,0:0:0:0:
349,232,5251,1,4,0:0:0:0:
349,232,6028,1,4,0:0:0:0:
349,232,6339,1,4,0:0:0:0:
349,232,6495,1,4,0:0:0:0:
349,232,7738,1,4,0:0:0:0:
349,232,7894,1,4,0:0:0:0:
489,232,8204,1,4,0:0:0:0:
357,232,8515,1,4,0:0:0:0:
417,232,8671,1,4,0:0:0:0:
271,232,8982,1,4,0:0:0:0:
325,204,9137,1,8,0:0:0:0:
379,177,9292,1,8,0:0:0:0:
338,207,9448,1,8,0:0:0:0:
292,186,9526,1,8,0:0:0:0:
379,177,9603,1,8,0:0:0:0:
318,208,9759,1,8,0:0:0:0:
378,177,9914,1,8,0:0:0:0:
292,186,10070,1,8,0:0:0:0:
292,186,10147,1,8,0:0:0:0:
292,186,10225,1,0,0:0:0:0:
292,186,10381,1,8,0:0:0:0:
292,186,10458,1,0,0:0:0:0:
286,120,10614,1,8,0:0:0:0:
290,162,10691,1,0,0:0:0:0:
284,99,10847,1,8,0:0:0:0:
300,123,10925,1,8,0:0:0:0:
290,164,11002,1,0,0:0:0:0:
309,167,11080,1,0,0:0:0:0:
256,162,11158,1,8,0:0:0:0:
256,162,11313,1,0,0:0:0:0:
303,215,11469,1,4,0:0:0:0:
339,145,12712,1,8,0:0:0:0:
339,145,13023,1,8,0:0:0:0:
456,63,13334,1,8,0:0:0:0:
384,88,13489,1,0,0:0:0:0:
317,114,13645,1,12,0:0:0:0:
436,177,13956,1,4,0:0:0:0:
336,204,14189,1,8,0:0:0:0:
304,215,14267,1,0,0:0:0:0:
304,215,14422,1,8,0:0:0:0:
304,215,14577,1,0,0:0:0:0:
322,197,14655,1,8,0:0:0:0:
305,206,14888,1,0,0:0:0:0:
453,258,15199,1,0,0:0:0:0:
509,234,15432,1,8,0:0:0:0:
509,234,15510,1,0,0:0:0:0:
381,235,15666,1,8,0:0:0:0:
381,235,15821,1,0,0:0:0:0:
381,235,15899,1,8,0:0:0:0:
381,134,16132,1,0,0:0:0:0:
423,212,16287,1,8,0:0:0:0:
453,258,16443,1,0,0:0:0:0:
509,234,16676,1,8,0:0:0:0:
509,234,16754,1,0,0:0:0:0:
381,235,16910,1,8,0:0:0:0:
381,235,17065,1,0,0:0:0:0:
381,235,17143,1,8,0:0:0:0:
381,134,17376,1,0,0:0:0:0:
418,9,17687,1,0,0:0:0:0:
271,77,17842,1,8,0:0:0:0:
286,81,17997,1,0,0:0:0:0:
293,29,18153,1,8,0:0:0:0:
328,36,18230,1,8,0:0:0:0:
150,45,18308,1,0,0:0:0:0:
211,61,18463,1,0,0:0:0:0:
265,40,18619,1,8,0:0:0:0:
324,118,18774,1,0,0:0:0:0:
328,36,18852,1,8,0:0:0:0:
453,258,18930,1,0,0:0:0:0:
509,234,19163,1,8,0:0:0:0:
509,234,19241,1,0,0:0:0:0:
381,235,19397,1,8,0:0:0:0:
381,235,19552,1,0,0:0:0:0:
381,235,19630,1,8,0:0:0:0:
381,134,19863,1,0,0:0:0:0:
330,251,20173,1,0,0:0:0:0:
509,234,20406,1,8,0:0:0:0:
509,234,20484,1,0,0:0:0:0:
393,231,20640,1,8,0:0:0:0:
381,235,20795,1,0,0:0:0:0:
381,235,20873,1,8,0:0:0:0:
381,134,21106,1,0,0:0:0:0:
316,156,21261,1,8,0:0:0:0:
453,258,21417,1,0,0:0:0:0:
509,234,21650,1,8,0:0:0:0:
509,234,21728,1,0,0:0:0:0:
381,235,21884,1,8,0:0:0:0:
381,235,22039,1,0,0:0:0:0:
381,235,22117,1,8,0:0:0:0:
381,134,22350,1,0,0:0:0:0:
418,9,22661,1,0,0:0:0:0:
372,59,22816,1,8,0:0:0:0:
357,135,22971,1,0,0:0:0:0:
346,195,23127,1,8,0:0:0:0:
354,151,23204,1,8,0:0:0:0:
354,151,23282,1,0,0:0:0:0:
354,151,23438,1,0,0:0:0:0:
403,134,23593,1,0,0:0:0:0:
403,134,23748,1,8,0:0:0:0:
288,302,24215,1,4,0:0:0:0:
331,230,24370,1,8,0:0:0:0:
378,156,24526,1,0,0:0:0:0:
378,156,24603,1,8,0:0:0:0:
451,210,24837,1,8,0:0:0:0:
320,156,25147,1,8,0:0:0:0:
185,182,25458,1,4,0:0:0:0:
202,128,25614,1,8,0:0:0:0:
202,128,25769,1,0,0:0:0:0:
235,152,25847,1,8,0:0:0:0:
235,152,26080,1,8,0:0:0:0:
326,197,26391,1,8,0:0:0:0:
326,197,26702,1,4,0:0:0:0:
385,170,26857,1,8,0:0:0:0:
432,113,27013,1,0,0:0:0:0:
473,133,27090,1,8,0:0:0:0:
506,149,27324,1,8,0:0:0:0:
441,148,27479,1,8,0:0:0:0:
415,148,27557,1,8,0:0:0:0:
392,147,27634,1,0,0:0:0:0:
322,173,27790,1,0,0:0:0:0:
257,169,27945,1,8,0:0:0:0:
329,159,28101,1,0,0:0:0:0:
279,166,28256,1,0,0:0:0:0:
326,159,28334,1,8,0:0:0:0:
299,163,28412,1,0,0:0:0:0:
299,163,28567,1,8,0:0:0:0:
356,165,28723,1,8,0:0:0:0:
402,174,28878,1,0,0:0:0:0:
402,174,29111,1,0,0:0:0:0:
419,153,29189,1,8,0:0:0:0:
402,174,29344,1,0,0:0:0:0:
402,174,29500,1,0,0:0:0:0:
402,174,29733,1,0,0:0:0:0:
380,151,29811,1,8,0:0:0:0:
402,174,29966,1,0,0:0:0:0:
402,174,30121,1,0,0:0:0:0:
402,174,30355,1,0,0:0:0:0:
363,175,30432,1,8,0:0:0:0:
402,174,30588,1,0,0:0:0:0:
402,174,30743,1,0,0:0:0:0:
380,151,30821,1,8,0:0:0:0:
380,151,30899,1,8,0:0:0:0:
402,174,30976,1,0,0:0:0:0:
402,174,31132,1,0,0:0:0:0:
340,204,31210,1,8,0:0:0:0:
319,76,31520,1,0,0:0:0:0:
358,120,31676,1,0,0:0:0:0:
335,155,31754,1,8,0:0:0:0:
451,86,31909,1,0,0:0:0:0:
398,134,32064,1,8,0:0:0:0:
356,121,32142,1,0,0:0:0:0:
410,100,32298,1,0,0:0:0:0:
367,148,32453,1,8,0:0:0:0:
467,64,32609,1,0,0:0:0:0:
467,64,32764,1,0,0:0:0:0:
445,88,32842,1,8,0:0:0:0:
467,64,32919,1,0,0:0:0:0:
467,64,33075,1,8,0:0:0:0:
467,64,33230,1,0,0:0:0:0:
467,64,33308,1,0,0:0:0:0:
467,64,33386,1,0,0:0:0:0:
467,64,33463,1,0,0:0:0:0:
467,64,33541,1,8,0:0:0:0:
453,93,33619,1,8,0:0:0:0:
437,128,33697,1,8,0:0:0:0:
389,164,33852,1,4,0:0:0:0:
408,185,35096,1,4,0:0:0:0:
408,185,35873,1,4,0:0:0:0:
408,185,36184,1,4,0:0:0:0:
408,185,36339,1,4,0:0:0:0:
408,185,37583,1,4,0:0:0:0:
408,185,37738,1,4,0:0:0:0:
442,195,38049,1,4,0:0:0:0:
451,65,38360,1,4,0:0:0:0:
447,119,38515,1,4,0:0:0:0:
320,140,38826,1,4,0:0:0:0:
373,96,38982,1,8,0:0:0:0:
360,73,39292,1,8,0:0:0:0:
447,119,39448,1,0,0:0:0:0:
375,22,39603,1,8,0:0:0:0:
447,119,39681,1,0,0:0:0:0:
447,119,39759,1,0,0:0:0:0:
375,22,39914,1,8,0:0:0:0:
356,77,40070,1,4,0:0:0:0:
375,22,40225,1,8,0:0:0:0:
375,22,40536,1,8,0:0:0:0:
355,73,40691,1,0,0:0:0:0:
375,22,40847,1,8,0:0:0:0:
385,52,40925,1,0,0:0:0:0:
375,22,41002,1,8,0:0:0:0:
403,67,41158,1,8,0:0:0:0:
397,132,41313,1,4,0:0:0:0:
335,132,41469,1,8,0:0:0:0:
396,106,41624,1,0,0:0:0:0:
360,121,41702,1,0,0:0:0:0:
360,121,41780,1,8,0:0:0:0:
336,178,41935,1,4,0:0:0:0:
278,182,42090,1,8,0:0:0:0:
312,197,42168,1,8,0:0:0:0:
207,224,42246,1,0,0:0:0:0:
241,209,42324,1,0,0:0:0:0:
255,202,42401,1,8,0:0:0:0:
280,142,42557,1,4,0:0:0:0:
319,208,43489,1,8,0:0:0:0:
436,177,43800,1,4,0:0:0:0:
336,204,44033,1,8,0:0:0:0:
304,215,44111,1,0,0:0:0:0:
304,215,44266,1,8,0:0:0:0:
304,215,44421,1,0,0:0:0:0:
322,197,44499,1,8,0:0:0:0:
381,235,44733,1,0,0:0:0:0:
453,258,45043,1,0,0:0:0:0:
509,234,45276,1,8,0:0:0:0:
509,234,45354,1,0,0:0:0:0:
381,235,45510,1,8,0:0:0:0:
381,235,45665,1,0,0:0:0:0:
381,235,45743,1,8,0:0:0:0:
380,136,45976,1,0,0:0:0:0:
380,136,46132,1,8,0:0:0:0:
453,258,46287,1,0,0:0:0:0:
509,234,46520,1,8,0:0:0:0:
509,234,46598,1,0,0:0:0:0:
381,235,46754,1,8,0:0:0:0:
381,235,46909,1,0,0:0:0:0:
381,235,46987,1,8,0:0:0:0:
308,172,47220,1,0,0:0:0:0:
418,9,47531,1,0,0:0:0:0:
271,77,47686,1,8,0:0:0:0:
286,81,47841,1,0,0:0:0:0:
293,29,47997,1,8,0:0:0:0:
328,36,48074,1,8,0:0:0:0:
150,45,48152,1,0,0:0:0:0:
211,61,48307,1,0,0:0:0:0:
265,40,48463,1,8,0:0:0:0:
324,118,48618,1,0,0:0:0:0:
328,36,48696,1,8,0:0:0:0:
453,258,48774,1,0,0:0:0:0:
509,234,49007,1,8,0:0:0:0:
509,234,49085,1,0,0:0:0:0:
381,235,49241,1,8,0:0:0:0:
381,235,49396,1,0,0:0:0:0:
381,235,49474,1,8,0:0:0:0:
381,134,49707,1,0,0:0:0:0:
330,251,50017,1,0,0:0:0:0:
509,234,50250,1,8,0:0:0:0:
509,234,50328,1,0,0:0:0:0:
393,231,50484,1,8,0:0:0:0:
381,235,50639,1,0,0:0:0:0:
381,235,50717,1,8,0:0:0:0:
381,134,50950,1,0,0:0:0:0:
324,164,51106,1,8,0:0:0:0:
453,258,51261,1,0,0:0:0:0:
509,234,51494,1,8,0:0:0:0:
509,234,51572,1,0,0:0:0:0:
381,235,51728,1,8,0:0:0:0:
381,235,51883,1,0,0:0:0:0:
381,235,51961,1,8,0:0:0:0:
381,134,52194,1,0,0:0:0:0:
418,9,52505,1,0,0:0:0:0:
372,59,52660,1,8,0:0:0:0:
357,135,52815,1,0,0:0:0:0:
346,195,52971,1,8,0:0:0:0:
354,151,53048,1,8,0:0:0:0:
354,151,53126,1,0,0:0:0:0:
354,151,53282,1,0,0:0:0:0:
301,119,53438,1,8,0:0:0:0:
305,185,53593,1,8,0:0:0:0:
345,179,53748,1,4,0:0:0:0:
340,37,54059,1,0,0:0:0:0:
342,103,54215,1,8,0:0:0:0:
341,80,54292,1,8,0:0:0:0:
341,80,54370,1,0,0:0:0:0:
341,80,54526,1,0,0:0:0:0:
341,80,54681,1,8,0:0:0:0:
341,80,54837,1,8,0:0:0:0:
352,145,54992,1,4,0:0:0:0:
225,104,55303,1,0,0:0:0:0:
292,128,55458,1,8,0:0:0:0:
316,136,55536,1,8,0:0:0:0:
316,136,55614,1,0,0:0:0:0:
316,136,55769,1,0,0:0:0:0:
316,136,55925,1,8,0:0:0:0:
316,136,56080,1,8,0:0:0:0:
321,173,56235,1,4,0:0:0:0:
355,115,56391,1,0,0:0:0:0:
319,129,56469,1,8,0:0:0:0:
355,115,56546,1,0,0:0:0:0:
307,134,56702,1,8,0:0:0:0:
316,254,56857,1,4,0:0:0:0:
355,115,57013,1,0,0:0:0:0:
333,124,57090,1,8,0:0:0:0:
355,115,57168,1,0,0:0:0:0:
322,171,57324,1,8,0:0:0:0:
322,171,57479,1,0,0:0:0:0:
281,125,57634,1,8,0:0:0:0:
281,125,57712,1,8,0:0:0:0:
281,125,57790,1,0,0:0:0:0:
281,125,57945,1,8,0:0:0:0:
281,125,58023,1,8,0:0:0:0:
281,125,58101,1,0,0:0:0:0:
281,125,58256,1,8,0:0:0:0:
281,125,58334,1,8,0:0:0:0:
281,125,58412,1,0,0:0:0:0:
270,146,58489,1,0,0:0:0:0:
283,185,58567,1,8,0:0:0:0:
325,220,58723,1,12,0:0:0:0:
256,192,58878,12,0,60899,0:0:0:0:
393,197,61210,5,0,0:0:0:0:
183,155,61676,1,8,0:0:0:0:
330,302,62142,1,8,0:0:0:0:
325,162,62453,1,0,0:0:0:0:
384,191,62609,1,8,0:0:0:0:
384,191,63075,1,8,0:0:0:0:
273,15,63541,1,8,0:0:0:0:
372,261,63697,1,0,0:0:0:0:
348,132,64007,1,8,0:0:0:0:
387,331,64474,1,8,0:0:0:0:
376,124,64940,1,0,0:0:0:0:
376,124,65406,1,8,0:0:0:0:
376,124,65562,1,0,0:0:0:0:
376,124,65873,1,8,0:0:0:0:
318,361,66184,1,0,0:0:0:0:
417,189,66650,1,8,0:0:0:0:
417,189,67116,1,8,0:0:0:0:
417,189,67427,1,0,0:0:0:0:
417,189,67583,1,8,0:0:0:0:
417,189,68049,1,8,0:0:0:0:
417,189,68515,1,8,0:0:0:0:
417,189,68671,1,0,0:0:0:0:
417,189,68982,1,8,0:0:0:0:
417,189,69448,1,8,0:0:0:0:
417,189,69759,1,8,0:0:0:0:
417,189,69914,1,0,0:0:0:0:
417,189,70070,1,8,0:0:0:0:
417,189,70381,1,8,0:0:0:0:
417,189,70536,1,0,0:0:0:0:
342,156,70691,1,0,0:0:0:0:
417,189,70847,1,8,0:0:0:0:
218,240,71158,1,0,0:0:0:0:
342,156,71469,1,8,0:0:0:0:
206,174,71780,1,8,0:0:0:0:
350,155,72090,1,8,0:0:0:0:
216,172,72401,1,8,0:0:0:0:
341,156,72712,1,8,0:0:0:0:
194,175,73023,1,8,0:0:0:0:
238,169,73101,1,8,0:0:0:0:
284,163,73178,1,8,0:0:0:0:
284,163,73334,1,8,0:0:0:0:
284,163,73645,1,8,0:0:0:0:
284,163,73956,1,8,0:0:0:0:
284,163,74267,1,8,0:0:0:0:
284,163,74577,1,8,0:0:0:0:
284,163,74888,1,8,0:0:0:0:
284,163,75199,1,8,0:0:0:0:
284,163,75510,1,8,0:0:0:0:
284,163,75588,1,8,0:0:0:0:
284,163,75666,1,8,0:0:0:0:
284,163,75821,1,8,0:0:0:0:
399,240,76132,1,4,0:0:0:0:
330,220,76287,1,8,0:0:0:0:
269,202,76443,1,8,0:0:0:0:
269,202,76598,1,8,0:0:0:0:
298,207,76676,1,8,0:0:0:0:
269,202,76754,1,8,0:0:0:0:
269,202,76909,1,8,0:0:0:0:
269,202,77064,1,8,0:0:0:0:
269,202,77220,1,8,0:0:0:0:
284,204,77298,1,8,0:0:0:0:
314,209,77375,1,0,0:0:0:0:
367,197,77531,1,8,0:0:0:0:
432,182,77686,1,8,0:0:0:0:
432,182,77842,1,8,0:0:0:0:
432,182,77919,1,8,0:0:0:0:
432,182,77997,1,8,0:0:0:0:
432,182,78153,1,8,0:0:0:0:
432,182,78308,1,8,0:0:0:0:
432,182,78463,1,8,0:0:0:0:
432,182,78541,1,8,0:0:0:0:
432,182,78619,1,0,0:0:0:0:
440,254,78774,1,8,0:0:0:0:
489,259,78852,1,8,0:0:0:0:
489,259,78930,1,8,0:0:0:0:
489,259,79085,1,8,0:0:0:0:
415,245,79241,1,0,0:0:0:0:
382,237,79318,1,0,0:0:0:0:
348,229,79396,1,8,0:0:0:0:
302,218,79474,1,8,0:0:0:0:
262,209,79552,1,0,0:0:0:0:
206,198,79707,1,8,0:0:0:0:
371,184,80018,1,12,0:0:0:0:
231,244,80329,1,12,0:0:0:0:
359,189,80484,1,12,0:0:0:0:
359,189,80640,1,4,0:0:0:0:
359,189,80795,1,12,0:0:0:0:
490,189,81106,1,0,0:0:0:0:
221,235,81728,1,0,0:0:0:0:
486,189,82349,1,0,0:0:0:0:
363,211,82660,1,0,0:0:0:0:
485,189,82971,1,0,0:0:0:0:
357,213,83282,1,12,0:0:0:0:
465,142,83593,1,4,0:0:0:0:
389,133,83748,1,8,0:0:0:0:
428,108,83904,1,0,0:0:0:0:
376,101,84059,1,8,0:0:0:0:
440,110,84215,1,0,0:0:0:0:
390,103,84292,1,0,0:0:0:0:
380,107,84370,1,0,0:0:0:0:
392,169,84526,1,8,0:0:0:0:
340,173,84681,1,8,0:0:0:0:
451,153,84837,1,0,0:0:0:0:
399,167,84992,1,8,0:0:0:0:
441,155,85070,1,8,0:0:0:0:
441,155,85147,1,0,0:0:0:0:
441,155,85303,1,8,0:0:0:0:
475,162,85458,1,0,0:0:0:0:
458,196,85536,1,0,0:0:0:0:
458,196,85614,1,8,0:0:0:0:
458,196,85769,1,0,0:0:0:0:
344,266,86080,1,0,0:0:0:0:
389,133,86235,1,8,0:0:0:0:
428,108,86391,1,0,0:0:0:0:
376,101,86546,1,8,0:0:0:0:
440,110,86702,1,0,0:0:0:0:
390,103,86779,1,0,0:0:0:0:
390,103,86857,1,0,0:0:0:0:
392,169,87013,1,8,0:0:0:0:
392,169,87168,1,8,0:0:0:0:
451,153,87324,1,0,0:0:0:0:
399,167,87479,1,8,0:0:0:0:
441,155,87557,1,0,0:0:0:0:
441,155,87634,1,0,0:0:0:0:
441,155,87790,1,8,0:0:0:0:
475,162,87945,1,0,0:0:0:0:
458,196,88023,1,0,0:0:0:0:
458,196,88101,1,8,0:0:0:0:
458,196,88256,1,0,0:0:0:0:
465,142,88567,1,4,0:0:0:0:
389,133,88723,1,8,0:0:0:0:
428,108,88878,1,0,0:0:0:0:
376,101,89033,1,8,0:0:0:0:
440,110,89189,1,0,0:0:0:0:
390,103,89266,1,0,0:0:0:0:
388,104,89344,1,0,0:0:0:0:
360,152,89500,1,8,0:0:0:0:
392,169,89655,1,8,0:0:0:0:
451,153,89811,1,0,0:0:0:0:
399,167,89966,1,8,0:0:0:0:
441,155,90044,1,8,0:0:0:0:
441,155,90121,1,0,0:0:0:0:
441,155,90277,1,8,0:0:0:0:
475,162,90432,1,0,0:0:0:0:
458,196,90510,1,0,0:0:0:0:
458,196,90588,1,8,0:0:0:0:
458,196,90743,1,0,0:0:0:0:
344,266,91054,1,0,0:0:0:0:
389,133,91210,1,8,0:0:0:0:
428,108,91365,1,0,0:0:0:0:
376,101,91520,1,8,0:0:0:0:
440,110,91676,1,0,0:0:0:0:
390,103,91753,1,0,0:0:0:0:
385,113,91831,1,0,0:0:0:0:
392,169,91987,1,8,0:0:0:0:
392,169,92142,1,8,0:0:0:0:
451,153,92298,1,0,0:0:0:0:
399,167,92453,1,0,0:0:0:0:
441,155,92531,1,8,0:0:0:0:
441,155,92608,1,0,0:0:0:0:
441,155,92764,1,8,0:0:0:0:
475,162,92919,1,0,0:0:0:0:
386,175,93230,1,12,0:0:0:0:
465,142,93541,1,4,0:0:0:0:
389,133,93697,1,8,0:0:0:0:
428,108,93852,1,0,0:0:0:0:
376,101,94007,1,8,0:0:0:0:
440,110,94163,1,0,0:0:0:0:
390,103,94240,1,0,0:0:0:0:
379,115,94318,1,8,0:0:0:0:
391,169,94474,1,0,0:0:0:0:
340,173,94629,1,8,0:0:0:0:
451,153,94785,1,0,0:0:0:0:
399,167,94940,1,8,0:0:0:0:
441,155,95018,1,8,0:0:0:0:
441,155,95095,1,0,0:0:0:0:
441,155,95251,1,8,0:0:0:0:
475,162,95406,1,0,0:0:0:0:
458,196,95484,1,0,0:0:0:0:
458,196,95562,1,8,0:0:0:0:
425,182,95640,1,8,0:0:0:0:
458,196,95717,1,0,0:0:0:0:
344,266,96028,1,0,0:0:0:0:
389,133,96184,1,8,0:0:0:0:
428,108,96339,1,0,0:0:0:0:
376,101,96494,1,8,0:0:0:0:
440,110,96650,1,0,0:0:0:0:
390,103,96727,1,0,0:0:0:0:
388,109,96805,1,8,0:0:0:0:
375,158,96961,1,0,0:0:0:0:
392,169,97116,1,8,0:0:0:0:
451,153,97272,1,0,0:0:0:0:
399,167,97427,1,8,0:0:0:0:
441,155,97505,1,0,0:0:0:0:
441,155,97582,1,0,0:0:0:0:
441,155,97738,1,8,0:0:0:0:
475,162,97893,1,0,0:0:0:0:
458,196,97971,1,0,0:0:0:0:
448,196,98049,1,8,0:0:0:0:
404,180,98127,1,8,0:0:0:0:
458,196,98204,1,0,0:0:0:0:
465,142,98515,1,4,0:0:0:0:
389,133,98671,1,8,0:0:0:0:
428,108,98826,1,0,0:0:0:0:
376,101,98981,1,8,0:0:0:0:
440,110,99137,1,0,0:0:0:0:
390,103,99214,1,0,0:0:0:0:
382,132,99292,1,8,0:0:0:0:
361,161,99448,1,0,0:0:0:0:
392,169,99603,1,8,0:0:0:0:
451,153,99759,1,0,0:0:0:0:
399,167,99914,1,8,0:0:0:0:
441,155,99992,1,8,0:0:0:0:
441,155,100069,1,0,0:0:0:0:
441,155,100225,1,8,0:0:0:0:
475,162,100380,1,0,0:0:0:0:
458,196,100458,1,0,0:0:0:0:
458,196,100536,1,8,0:0:0:0:
376,101,100614,1,8,0:0:0:0:
458,196,100691,1,0,0:0:0:0:
344,266,101002,1,0,0:0:0:0:
389,133,101158,1,8,0:0:0:0:
428,108,101313,1,0,0:0:0:0:
376,101,101468,1,8,0:0:0:0:
440,110,101624,1,0,0:0:0:0:
390,103,101701,1,0,0:0:0:0:
385,113,101779,1,8,0:0:0:0:
378,177,101935,1,0,0:0:0:0:
392,169,102090,1,8,0:0:0:0:
451,153,102246,1,0,0:0:0:0:
399,167,102401,1,0,0:0:0:0:
441,155,102479,1,8,0:0:0:0:
441,155,102556,1,0,0:0:0:0:
441,155,102712,1,8,0:0:0:0:
475,162,102867,1,0,0:0:0:0:
458,196,102945,1,0,0:0:0:0:
458,196,103023,1,0,0:0:0:0:
386,175,103178,1,8,0:0:0:0:
277,239,103489,1,4,0:0:0:0:
332,196,103645,1,8,0:0:0:0:
360,180,103723,1,8,0:0:0:0:
392,164,103800,1,0,0:0:0:0:
461,196,103956,1,8,0:0:0:0:
496,196,104111,1,0,0:0:0:0:
496,196,104267,1,8,0:0:0:0:
496,196,104344,1,8,0:0:0:0:
496,196,104422,1,0,0:0:0:0:
462,151,104577,1,8,0:0:0:0:
462,151,104733,1,0,0:0:0:0:
478,180,104811,1,0,0:0:0:0:
478,180,104888,1,8,0:0:0:0:
420,199,105044,1,0,0:0:0:0:
462,151,105199,1,8,0:0:0:0:
478,180,105355,1,0,0:0:0:0:
420,199,105510,1,8,0:0:0:0:
404,174,105588,1,0,0:0:0:0:
420,199,105666,1,8,0:0:0:0:
420,199,105821,1,8,0:0:0:0:
420,199,105976,1,0,0:0:0:0:
493,156,106132,1,8,0:0:0:0:
478,180,106443,1,8,0:0:0:0:
383,117,106520,1,0,0:0:0:0:
478,180,106598,1,0,0:0:0:0:
423,156,106754,1,8,0:0:0:0:
372,204,106909,1,0,0:0:0:0:
300,99,107064,1,8,0:0:0:0:
343,108,107142,1,8,0:0:0:0:
383,117,107220,1,0,0:0:0:0:
425,142,107375,1,0,0:0:0:0:
379,115,107531,1,8,0:0:0:0:
374,182,107686,1,0,0:0:0:0:
402,132,107842,1,0,0:0:0:0:
402,132,107919,1,8,0:0:0:0:
402,132,107997,1,0,0:0:0:0:
402,132,108153,1,8,0:0:0:0:
438,154,108463,1,0,0:0:0:0:
383,174,108619,1,8,0:0:0:0:
435,155,108774,1,8,0:0:0:0:
369,179,108930,1,8,0:0:0:0:
416,162,109007,1,8,0:0:0:0:
416,162,109085,1,8,0:0:0:0:
361,128,109241,1,8,0:0:0:0:
418,163,109396,1,8,0:0:0:0:
364,106,109552,1,0,0:0:0:0:
382,123,109629,1,8,0:0:0:0:
382,123,109707,1,0,0:0:0:0:
449,94,109862,1,8,0:0:0:0:
378,125,110018,1,8,0:0:0:0:
435,100,110173,1,0,0:0:0:0:
399,116,110251,1,8,0:0:0:0:
399,116,110329,1,0,0:0:0:0:
399,116,110484,1,8,0:0:0:0:
399,116,110640,1,0,0:0:0:0:
399,116,110795,1,8,0:0:0:0:
399,116,110873,1,8,0:0:0:0:
399,116,110951,1,0,0:0:0:0:
334,112,111106,1,0,0:0:0:0:
295,155,111261,1,8,0:0:0:0:
264,107,111417,1,8,0:0:0:0:
264,107,111572,1,0,0:0:0:0:
264,107,111650,1,0,0:0:0:0:
264,107,111728,1,0,0:0:0:0:
264,107,111805,1,0,0:0:0:0:
293,116,111883,1,8,0:0:0:0:
280,147,111961,1,8,0:0:0:0:
302,162,112039,1,8,0:0:0:0:
437,174,112349,1,12,0:0:0:0:
300,177,112660,1,12,0:0:0:0:
361,175,112816,1,4,0:0:0:0:
433,174,112971,1,12,0:0:0:0:
374,175,113127,1,12,0:0:0:0:
343,298,113438,1,4,0:0:0:0:
