osu file format v14

[General]
AudioFilename: audio.mp3
AudioLeadIn: 0
PreviewTime: 83515
Countdown: 0
SampleSet: Normal
StackLeniency: 0.7
Mode: 1
LetterboxInBreaks: 0
WidescreenStoryboard: 0

[Editor]
Bookmarks: 113446
DistanceSpacing: 1
BeatDivisor: 4
GridSize: 4
TimelineZoom: 2

[Metadata]
Title:Gale Rider
TitleUnicode:Gale Rider
Artist:P*Light
ArtistUnicode:P*Light
Creator:Charlotte
Version:ily4's Muzukashii
Source:REFLEC BEAT groovin'!!
Tags:Happycore komasy iloveyou4ever Hanjamon
BeatmapID:1314651
BeatmapSetID:622356

[Difficulty]
HPDrainRate:6
CircleSize:2
OverallDifficulty:5
ApproachRate:5
SliderMultiplier:1.4
SliderTickRate:1

[Events]
//Background and Video events
0,0,"BG.jpg",0,100
//Break Periods
//Storyboard Layer 0 (Background)
//Storyboard Layer 1 (Fail)
//Storyboard Layer 2 (Pass)
//Storyboard Layer 3 (Foreground)
//Storyboard Sound Samples

[TimingPoints]
4008,310.880829015544,4,1,0,70,1,0
8982,-100,4,1,0,80,0,0
13956,-100,4,1,0,90,0,0
61210,-100,4,1,0,60,0,0
76132,-100,4,1,0,80,0,0
83593,-100,4,1,0,90,0,1
112039,-100,4,1,0,90,0,0

[HitObjects]
432,240,4008,5,4,0:0:0:0:
504,196,5251,1,4,0:0:0:0:
428,208,6028,1,4,0:0:0:0:
456,236,6339,1,4,0:0:0:0:
456,236,6495,1,4,0:0:0:0:
432,192,7738,1,0,0:0:0:0:
420,208,7894,1,0,0:0:0:0:
420,208,8204,1,8,0:0:0:0:
420,208,8515,1,8,0:0:0:0:
420,208,8671,1,8,0:0:0:0:
436,196,8982,1,4,0:0:0:0:
400,180,9215,1,8,0:0:0:0:
400,180,9448,1,8,0:0:0:0:
396,140,9759,1,0,0:0:0:0:
404,168,9914,1,8,0:0:0:0:
380,176,10070,1,8,0:0:0:0:
442,229,10225,1,4,0:0:0:0:
420,192,10458,1,4,0:0:0:0:
393,181,10691,1,4,0:0:0:0:
397,186,11002,1,12,0:0:0:0:
445,171,11313,1,8,0:0:0:0:
436,177,11469,1,4,0:0:0:0:
384,196,12712,1,8,0:0:0:0:
418,186,13023,1,8,0:0:0:0:
418,186,13334,1,8,0:0:0:0:
455,177,13489,1,0,0:0:0:0:
430,169,13645,1,8,0:0:0:0:
459,187,13956,1,4,0:0:0:0:
397,171,14189,1,8,0:0:0:0:
429,179,14422,1,0,0:0:0:0:
421,181,14655,1,0,0:0:0:0:
381,157,14888,1,8,0:0:0:0:
390,160,15199,1,0,0:0:0:0:
426,191,15432,1,8,0:0:0:0:
453,184,15666,1,0,0:0:0:0:
465,153,15899,1,0,0:0:0:0:
446,142,16132,1,8,0:0:0:0:
473,149,16443,1,0,0:0:0:0:
457,175,16676,1,8,0:0:0:0:
483,176,16909,1,0,0:0:0:0:
428,142,17142,1,0,0:0:0:0:
462,171,17375,1,8,0:0:0:0:
504,167,17686,1,0,0:0:0:0:
373,124,17997,1,0,0:0:0:0:
421,164,18308,1,8,0:0:0:0:
408,183,18463,1,0,0:0:0:0:
434,177,18619,1,8,0:0:0:0:
446,180,18930,1,4,0:0:0:0:
426,183,19163,1,8,0:0:0:0:
420,183,19396,1,8,0:0:0:0:
434,177,19629,1,0,0:0:0:0:
428,177,19862,1,8,0:0:0:0:
468,167,20173,1,0,0:0:0:0:
477,171,20406,1,8,0:0:0:0:
468,171,20640,1,8,0:0:0:0:
440,171,20873,1,0,0:0:0:0:
442,178,21106,1,8,0:0:0:0:
466,167,21417,1,0,0:0:0:0:
442,160,21650,1,8,0:0:0:0:
438,160,21883,1,8,0:0:0:0:
451,163,22116,1,0,0:0:0:0:
452,169,22349,1,8,0:0:0:0:
446,194,22660,1,0,0:0:0:0:
446,194,22971,1,0,0:0:0:0:
493,199,23282,1,8,0:0:0:0:
434,194,23438,1,0,0:0:0:0:
450,223,23593,1,8,0:0:0:0:
472,175,23748,1,8,0:0:0:0:
440,176,23904,1,0,0:0:0:0:
424,168,24215,1,12,0:0:0:0:
419,194,24603,1,0,0:0:0:0:
378,192,24837,1,8,0:0:0:0:
397,194,25147,1,0,0:0:0:0:
486,177,25458,1,12,0:0:0:0:
491,169,25847,1,8,0:0:0:0:
422,174,26080,1,8,0:0:0:0:
491,170,26391,1,0,0:0:0:0:
477,167,26702,1,12,0:0:0:0:
422,174,27090,1,0,0:0:0:0:
434,179,27324,1,8,0:0:0:0:
460,169,27634,1,0,0:0:0:0:
421,195,27945,1,0,0:0:0:0:
453,184,28256,1,0,0:0:0:0:
475,175,28412,1,0,0:0:0:0:
454,186,28567,1,8,0:0:0:0:
450,171,28723,1,8,0:0:0:0:
412,194,28878,1,4,0:0:0:0:
435,177,29111,1,8,0:0:0:0:
458,175,29344,1,0,0:0:0:0:
458,175,29500,1,0,0:0:0:0:
417,175,29733,1,8,0:0:0:0:
468,178,29966,1,0,0:0:0:0:
468,178,30121,1,0,0:0:0:0:
429,181,30355,1,8,0:0:0:0:
451,179,30588,1,0,0:0:0:0:
451,179,30743,1,0,0:0:0:0:
432,194,30976,1,0,0:0:0:0:
443,215,31210,1,8,0:0:0:0:
456,191,31365,1,0,0:0:0:0:
416,212,31443,1,0,0:0:0:0:
483,188,31520,1,0,0:0:0:0:
405,179,31676,1,8,0:0:0:0:
403,179,31909,1,8,0:0:0:0:
412,181,32142,1,8,0:0:0:0:
332,184,32298,1,0,0:0:0:0:
443,182,32453,1,8,0:0:0:0:
472,176,32609,1,8,0:0:0:0:
472,200,32764,1,0,0:0:0:0:
424,188,32919,1,0,0:0:0:0:
429,165,33075,1,8,0:0:0:0:
429,165,33153,1,8,0:0:0:0:
429,165,33230,1,8,0:0:0:0:
372,140,33386,1,0,0:0:0:0:
336,172,33541,1,12,0:0:0:0:
404,164,33852,1,4,0:0:0:0:
420,176,35096,1,4,0:0:0:0:
424,296,35873,1,4,0:0:0:0:
424,296,36184,1,4,0:0:0:0:
424,296,36339,1,4,0:0:0:0:
472,212,37583,1,0,0:0:0:0:
472,212,37738,1,0,0:0:0:0:
440,180,38049,1,8,0:0:0:0:
440,180,38360,1,8,0:0:0:0:
440,180,38515,1,8,0:0:0:0:
468,168,38826,1,4,0:0:0:0:
400,164,38982,1,8,0:0:0:0:
428,180,39292,1,8,0:0:0:0:
416,168,39603,1,8,0:0:0:0:
416,168,39914,1,8,0:0:0:0:
404,196,40070,1,4,0:0:0:0:
388,216,40225,1,8,0:0:0:0:
452,180,40536,1,8,0:0:0:0:
416,216,40847,1,8,0:0:0:0:
452,180,41002,1,8,0:0:0:0:
452,192,41158,1,8,0:0:0:0:
452,168,41313,1,4,0:0:0:0:
460,188,41469,1,8,0:0:0:0:
484,168,41780,1,8,0:0:0:0:
432,172,41935,1,4,0:0:0:0:
356,136,42090,1,8,0:0:0:0:
416,172,42401,1,8,0:0:0:0:
424,156,42557,1,4,0:0:0:0:
444,184,43800,1,4,0:0:0:0:
408,184,44033,1,8,0:0:0:0:
376,188,44267,1,0,0:0:0:0:
376,188,44500,1,0,0:0:0:0:
408,184,44733,1,8,0:0:0:0:
400,200,45044,1,0,0:0:0:0:
404,180,45277,1,8,0:0:0:0:
396,144,45510,1,8,0:0:0:0:
400,168,45743,1,0,0:0:0:0:
384,172,45976,1,8,0:0:0:0:
392,168,46287,1,0,0:0:0:0:
392,172,46520,1,8,0:0:0:0:
432,168,46754,1,0,0:0:0:0:
432,168,46987,1,0,0:0:0:0:
416,176,47220,1,8,0:0:0:0:
456,168,47531,1,0,0:0:0:0:
356,151,47842,1,0,0:0:0:0:
483,175,48153,1,0,0:0:0:0:
392,160,48308,1,0,0:0:0:0:
440,164,48463,1,8,0:0:0:0:
460,185,48619,1,8,0:0:0:0:
440,220,48774,1,4,0:0:0:0:
440,184,49007,1,8,0:0:0:0:
428,168,49241,1,8,0:0:0:0:
472,168,49474,1,0,0:0:0:0:
472,168,49707,1,8,0:0:0:0:
480,172,50018,1,0,0:0:0:0:
460,172,50251,1,8,0:0:0:0:
472,168,50484,1,0,0:0:0:0:
472,168,50717,1,0,0:0:0:0:
456,160,50951,1,8,0:0:0:0:
440,164,51261,1,0,0:0:0:0:
480,172,51495,1,8,0:0:0:0:
356,116,51728,1,8,0:0:0:0:
448,160,51961,1,0,0:0:0:0:
468,152,52194,1,8,0:0:0:0:
446,262,52505,1,0,0:0:0:0:
446,262,52816,1,0,0:0:0:0:
464,188,53127,1,8,0:0:0:0:
480,180,53282,1,0,0:0:0:0:
440,196,53438,1,8,0:0:0:0:
440,196,53593,1,8,0:0:0:0:
464,188,53748,1,4,0:0:0:0:
428,176,54059,1,8,0:0:0:0:
432,200,54370,1,0,0:0:0:0:
432,200,54526,1,0,0:0:0:0:
455,194,54681,1,8,0:0:0:0:
387,182,54837,1,8,0:0:0:0:
428,176,54992,1,4,0:0:0:0:
466,169,55303,1,8,0:0:0:0:
454,328,55614,1,0,0:0:0:0:
371,179,55769,1,0,0:0:0:0:
438,185,55925,1,8,0:0:0:0:
434,185,56235,1,0,0:0:0:0:
438,185,56391,1,0,0:0:0:0:
438,185,56546,1,0,0:0:0:0:
438,185,56624,1,0,0:0:0:0:
438,185,56702,1,0,0:0:0:0:
438,185,56857,1,0,0:0:0:0:
438,185,57013,1,0,0:0:0:0:
434,185,57168,1,0,0:0:0:0:
376,156,57246,1,0,0:0:0:0:
449,238,57324,1,0,0:0:0:0:
362,123,57479,2,0,L|460:110,7,70.000000298023
256,192,58723,12,0,60899,0:0:0:0:
464,248,61210,5,8,0:0:0:0:
480,192,61676,1,0,0:0:0:0:
400,220,62142,1,8,0:0:0:0:
331,208,62609,1,0,0:0:0:0:
418,283,63075,1,8,0:0:0:0:
476,225,63541,1,8,0:0:0:0:
324,172,63697,1,0,0:0:0:0:
428,208,64007,1,8,0:0:0:0:
452,272,64474,1,8,0:0:0:0:
376,200,64940,1,0,0:0:0:0:
344,180,65406,1,8,0:0:0:0:
424,192,65873,1,0,0:0:0:0:
416,180,66184,1,8,0:0:0:0:
360,168,66650,1,0,0:0:0:0:
440,184,67116,1,8,0:0:0:0:
348,185,67583,1,0,0:0:0:0:
288,172,68049,1,8,0:0:0:0:
420,209,68515,1,8,0:0:0:0:
390,197,68671,1,0,0:0:0:0:
407,185,68982,1,8,0:0:0:0:
473,185,69448,1,8,0:0:0:0:
423,187,69914,1,0,0:0:0:0:
366,176,70381,1,8,0:0:0:0:
442,209,70847,1,8,0:0:0:0:
474,226,71158,1,0,0:0:0:0:
500,160,71469,1,8,0:0:0:0:
468,202,71780,1,8,0:0:0:0:
468,202,72090,1,8,0:0:0:0:
445,160,72401,1,8,0:0:0:0:
445,160,72712,1,8,0:0:0:0:
468,202,73023,1,8,0:0:0:0:
468,202,73178,1,8,0:0:0:0:
444,136,73334,1,8,0:0:0:0:
373,141,73645,1,0,0:0:0:0:
407,173,73956,1,8,0:0:0:0:
444,218,74267,1,8,0:0:0:0:
469,149,74577,1,8,0:0:0:0:
407,173,74888,1,8,0:0:0:0:
403,175,75199,1,8,0:0:0:0:
467,179,75510,1,8,0:0:0:0:
467,179,75666,1,8,0:0:0:0:
384,176,75821,1,8,0:0:0:0:
410,188,76132,1,4,0:0:0:0:
440,182,76443,1,8,0:0:0:0:
401,172,76598,1,8,0:0:0:0:
411,161,76754,1,0,0:0:0:0:
411,161,76909,1,0,0:0:0:0:
432,176,77064,1,8,0:0:0:0:
476,160,77375,1,4,0:0:0:0:
448,172,77686,1,8,0:0:0:0:
468,168,77842,1,8,0:0:0:0:
440,160,77997,1,0,0:0:0:0:
468,260,78153,1,8,0:0:0:0:
392,184,78308,1,8,0:0:0:0:
374,182,78619,1,4,0:0:0:0:
464,160,78774,1,0,0:0:0:0:
360,172,78930,1,8,0:0:0:0:
472,184,79085,1,8,0:0:0:0:
432,168,79241,1,0,0:0:0:0:
331,92,79396,1,0,0:0:0:0:
427,236,79552,1,0,0:0:0:0:
427,236,79629,1,0,0:0:0:0:
427,236,79707,1,0,0:0:0:0:
433,181,80018,1,12,0:0:0:0:
433,181,80329,1,12,0:0:0:0:
444,173,80484,1,4,0:0:0:0:
444,173,80640,1,4,0:0:0:0:
451,170,80795,1,12,0:0:0:0:
458,173,81106,1,4,0:0:0:0:
458,173,81728,1,4,0:0:0:0:
481,214,82349,1,4,0:0:0:0:
391,206,82660,1,4,0:0:0:0:
456,181,82971,1,4,0:0:0:0:
420,176,83593,1,8,0:0:0:0:
287,173,83748,1,0,0:0:0:0:
322,173,83904,1,8,0:0:0:0:
456,164,84059,1,0,0:0:0:0:
456,168,84215,1,8,0:0:0:0:
456,168,84370,1,8,0:0:0:0:
436,176,84526,1,0,0:0:0:0:
376,180,84837,1,8,0:0:0:0:
428,192,84992,1,0,0:0:0:0:
408,176,85147,1,8,0:0:0:0:
440,184,85303,1,0,0:0:0:0:
464,184,85458,1,8,0:0:0:0:
464,184,85536,1,8,0:0:0:0:
464,184,85614,1,8,0:0:0:0:
504,200,85769,1,0,0:0:0:0:
496,168,86080,1,8,0:0:0:0:
472,168,86235,1,0,0:0:0:0:
484,160,86391,1,8,0:0:0:0:
476,160,86546,1,8,0:0:0:0:
480,180,86702,1,0,0:0:0:0:
480,180,86857,1,0,0:0:0:0:
440,176,87013,1,8,0:0:0:0:
468,173,87324,1,0,0:0:0:0:
393,164,87479,1,0,0:0:0:0:
455,175,87634,1,8,0:0:0:0:
455,175,87790,1,8,0:0:0:0:
425,164,87945,1,0,0:0:0:0:
425,164,88023,1,0,0:0:0:0:
425,164,88101,1,0,0:0:0:0:
336,197,88256,1,12,0:0:0:0:
452,248,88567,1,8,0:0:0:0:
462,184,88723,1,8,0:0:0:0:
468,172,88878,1,0,0:0:0:0:
429,179,89033,1,0,0:0:0:0:
481,177,89189,1,8,0:0:0:0:
469,188,89344,1,8,0:0:0:0:
432,180,89500,1,0,0:0:0:0:
424,168,89811,1,8,0:0:0:0:
497,193,89966,1,8,0:0:0:0:
448,168,90121,1,0,0:0:0:0:
350,161,90277,1,0,0:0:0:0:
491,166,90432,1,8,0:0:0:0:
488,166,90510,1,8,0:0:0:0:
488,166,90588,1,8,0:0:0:0:
488,169,90743,1,0,0:0:0:0:
474,164,91054,1,8,0:0:0:0:
429,182,91210,1,0,0:0:0:0:
474,164,91365,1,8,0:0:0:0:
488,166,91520,1,0,0:0:0:0:
453,159,91676,1,8,0:0:0:0:
482,155,91831,1,8,0:0:0:0:
462,179,91987,1,0,0:0:0:0:
346,185,92298,1,8,0:0:0:0:
460,179,92453,1,8,0:0:0:0:
423,173,92609,1,0,0:0:0:0:
423,173,92764,1,0,0:0:0:0:
460,168,92919,1,8,0:0:0:0:
414,171,93230,1,12,0:0:0:0:
391,171,93541,1,8,0:0:0:0:
503,158,93697,1,0,0:0:0:0:
434,164,93852,1,8,0:0:0:0:
409,158,94007,1,8,0:0:0:0:
409,147,94163,1,0,0:0:0:0:
425,155,94318,1,0,0:0:0:0:
386,160,94474,1,8,0:0:0:0:
463,164,94629,1,0,0:0:0:0:
443,167,94785,1,8,0:0:0:0:
427,186,94940,1,0,0:0:0:0:
419,145,95096,1,8,0:0:0:0:
459,148,95251,1,0,0:0:0:0:
402,143,95406,1,8,0:0:0:0:
402,143,95484,1,8,0:0:0:0:
402,143,95562,1,8,0:0:0:0:
420,143,95717,1,0,0:0:0:0:
466,166,96028,1,8,0:0:0:0:
453,218,96184,1,0,0:0:0:0:
449,182,96339,1,8,0:0:0:0:
447,182,96495,1,8,0:0:0:0:
422,156,96650,1,0,0:0:0:0:
458,180,96805,1,0,0:0:0:0:
404,163,96961,1,8,0:0:0:0:
482,153,97116,1,0,0:0:0:0:
382,181,97272,1,8,0:0:0:0:
368,164,97427,1,0,0:0:0:0:
404,148,97583,1,8,0:0:0:0:
404,148,97738,1,8,0:0:0:0:
395,154,97894,1,0,0:0:0:0:
395,154,97971,1,0,0:0:0:0:
395,154,98049,1,0,0:0:0:0:
401,153,98204,1,12,0:0:0:0:
424,176,98515,1,8,0:0:0:0:
445,182,98671,1,8,0:0:0:0:
448,184,98826,1,0,0:0:0:0:
438,172,98982,1,0,0:0:0:0:
449,177,99137,1,8,0:0:0:0:
447,177,99292,1,8,0:0:0:0:
428,192,99448,1,8,0:0:0:0:
440,252,99603,1,0,0:0:0:0:
464,168,99759,1,8,0:0:0:0:
437,163,99914,1,8,0:0:0:0:
404,172,100070,1,0,0:0:0:0:
502,173,100225,1,0,0:0:0:0:
440,172,100381,1,8,0:0:0:0:
440,172,100458,1,8,0:0:0:0:
440,172,100536,1,8,0:0:0:0:
427,183,100691,1,0,0:0:0:0:
437,174,101002,1,8,0:0:0:0:
481,169,101158,1,0,0:0:0:0:
472,169,101313,1,8,0:0:0:0:
481,169,101469,1,0,0:0:0:0:
481,169,101624,1,8,0:0:0:0:
481,169,101780,1,8,0:0:0:0:
468,168,101935,1,0,0:0:0:0:
468,168,102090,1,0,0:0:0:0:
472,169,102246,1,8,0:0:0:0:
481,169,102401,1,8,0:0:0:0:
500,164,102557,1,0,0:0:0:0:
500,164,102712,1,0,0:0:0:0:
476,172,102868,1,8,0:0:0:0:
468,168,103023,1,0,0:0:0:0:
492,172,103178,1,12,0:0:0:0:
415,181,103489,1,8,0:0:0:0:
432,192,103645,1,0,0:0:0:0:
415,165,103800,1,8,0:0:0:0:
480,173,103956,1,0,0:0:0:0:
394,167,104111,1,8,0:0:0:0:
477,180,104267,1,8,0:0:0:0:
477,180,104422,1,8,0:0:0:0:
503,177,104733,1,8,0:0:0:0:
480,160,104888,1,0,0:0:0:0:
486,166,105044,1,8,0:0:0:0:
486,166,105199,1,8,0:0:0:0:
451,166,105355,1,0,0:0:0:0:
395,134,105666,1,0,0:0:0:0:
371,166,105821,1,8,0:0:0:0:
460,171,105976,1,0,0:0:0:0:
452,172,106287,1,8,0:0:0:0:
442,166,106443,1,0,0:0:0:0:
442,166,106520,1,0,0:0:0:0:
442,166,106598,1,0,0:0:0:0:
424,164,106909,1,0,0:0:0:0:
408,160,107064,1,8,0:0:0:0:
408,160,107142,1,8,0:0:0:0:
408,160,107220,1,8,0:0:0:0:
442,166,107375,1,0,0:0:0:0:
456,168,107531,1,8,0:0:0:0:
452,168,107686,1,8,0:0:0:0:
440,180,107842,1,0,0:0:0:0:
476,192,107997,1,0,0:0:0:0:
428,168,108153,1,8,0:0:0:0:
432,172,108463,1,4,0:0:0:0:
452,160,108619,1,8,0:0:0:0:
468,164,108930,1,8,0:0:0:0:
468,164,109241,1,8,0:0:0:0:
392,152,109552,1,8,0:0:0:0:
432,120,109707,1,4,0:0:0:0:
408,168,109862,1,8,0:0:0:0:
408,168,110173,1,8,0:0:0:0:
408,164,110329,1,4,0:0:0:0:
432,184,110484,1,0,0:0:0:0:
376,164,110640,1,8,0:0:0:0:
484,192,110951,1,0,0:0:0:0:
484,192,111106,1,0,0:0:0:0:
376,160,111261,1,8,0:0:0:0:
376,164,111417,1,8,0:0:0:0:
452,156,111572,1,0,0:0:0:0:
452,156,111650,1,0,0:0:0:0:
452,156,111728,1,0,0:0:0:0:
444,148,111883,1,8,0:0:0:0:
444,148,111961,1,8,0:0:0:0:
444,172,112039,1,8,0:0:0:0:
464,160,112349,1,12,0:0:0:0:
464,160,112660,1,12,0:0:0:0:
440,156,112816,1,4,0:0:0:0:
440,156,112971,1,4,0:0:0:0:
380,152,113127,1,12,0:0:0:0:
404,224,113438,1,4,0:0:0:0:
