osu file format v14

[General]
AudioFilename: audio.mp3
AudioLeadIn: 0
PreviewTime: 83515
Countdown: 0
SampleSet: Normal
StackLeniency: 0.7
Mode: 1
LetterboxInBreaks: 0
WidescreenStoryboard: 0

[Editor]
DistanceSpacing: 1
BeatDivisor: 4
GridSize: 4
TimelineZoom: 1.700001

[Metadata]
Title:Gale Rider
TitleUnicode:Gale Rider
Artist:P*Light
ArtistUnicode:P*Light
Creator:Charlotte
Version:Kantan
Source:REFLEC BEAT groovin'!!
Tags:Happycore komasy iloveyou4ever Hanjamon
BeatmapID:1336028
BeatmapSetID:622356

[Difficulty]
HPDrainRate:7
CircleSize:5
OverallDifficulty:3
ApproachRate:5
SliderMultiplier:1.4
SliderTickRate:1

[Events]
//Background and Video events
0,0,"BG.jpg",0,100
//Break Periods
//Storyboard Layer 0 (Background)
//Storyboard Layer 1 (Fail)
//Storyboard Layer 2 (Pass)
//Storyboard Layer 3 (Foreground)
//Storyboard Sound Samples

[TimingPoints]
4008,310.880829015544,4,1,0,70,1,0
8982,-100,4,1,0,80,0,0
13956,-100,4,1,0,90,0,0
61210,-100,4,1,0,60,0,0
76132,-100,4,1,0,80,0,0
83593,-100,4,1,0,90,0,1
112039,-100,4,1,0,90,0,0

[HitObjects]
104,164,4008,5,4,0:0:0:0:
104,164,5251,1,4,0:0:0:0:
104,164,6495,1,4,0:0:0:0:
104,164,7738,1,4,0:0:0:0:
104,164,8204,1,12,0:0:0:0:
104,164,8671,1,12,0:0:0:0:
104,164,8982,1,4,0:0:0:0:
252,160,9292,1,8,0:0:0:0:
96,152,9914,1,8,0:0:0:0:
104,164,10225,1,4,0:0:0:0:
284,136,10691,1,4,0:0:0:0:
284,136,11469,1,4,0:0:0:0:
72,156,12712,1,8,0:0:0:0:
188,220,13023,1,8,0:0:0:0:
188,220,13334,1,8,0:0:0:0:
188,220,13956,1,4,0:0:0:0:
216,160,14577,1,8,0:0:0:0:
232,100,15199,1,0,0:0:0:0:
232,100,15821,1,8,0:0:0:0:
196,180,16443,1,0,0:0:0:0:
196,180,17064,1,8,0:0:0:0:
196,180,17686,1,0,0:0:0:0:
196,180,17997,1,0,0:0:0:0:
196,180,18308,1,8,0:0:0:0:
196,180,18930,1,4,0:0:0:0:
196,180,19552,1,8,0:0:0:0:
196,180,20173,1,0,0:0:0:0:
196,180,20795,1,8,0:0:0:0:
196,180,21417,1,0,0:0:0:0:
136,160,22039,1,8,0:0:0:0:
136,160,22660,1,0,0:0:0:0:
136,160,22971,1,0,0:0:0:0:
136,160,23282,1,8,0:0:0:0:
152,172,24215,1,4,0:0:0:0:
160,168,25458,1,4,0:0:0:0:
160,168,26702,1,4,0:0:0:0:
212,148,27634,1,0,0:0:0:0:
208,144,27945,1,0,0:0:0:0:
212,148,28256,1,8,0:0:0:0:
208,144,28878,1,0,0:0:0:0:
208,144,29500,1,8,0:0:0:0:
224,116,30121,1,0,0:0:0:0:
192,132,30743,1,8,0:0:0:0:
188,144,31676,1,0,0:0:0:0:
244,88,32298,1,8,0:0:0:0:
168,152,32609,1,0,0:0:0:0:
420,32,33230,1,0,0:0:0:0:
200,120,33541,1,8,0:0:0:0:
180,80,33852,1,4,0:0:0:0:
116,168,35096,1,4,0:0:0:0:
200,176,36339,1,4,0:0:0:0:
180,216,37583,1,4,0:0:0:0:
180,216,38049,1,12,0:0:0:0:
180,216,38515,1,12,0:0:0:0:
180,216,38826,1,4,0:0:0:0:
180,216,39137,1,8,0:0:0:0:
180,216,39759,1,8,0:0:0:0:
180,216,40381,1,8,0:0:0:0:
180,216,41002,1,8,0:0:0:0:
180,216,41313,1,0,0:0:0:0:
180,216,41624,1,8,0:0:0:0:
180,216,42246,1,8,0:0:0:0:
176,168,42557,1,4,0:0:0:0:
176,168,43800,1,4,0:0:0:0:
232,100,44422,1,8,0:0:0:0:
232,100,45044,1,0,0:0:0:0:
232,100,45666,1,8,0:0:0:0:
196,180,46287,1,0,0:0:0:0:
196,180,46909,1,8,0:0:0:0:
196,180,47531,1,0,0:0:0:0:
196,180,48774,1,4,0:0:0:0:
196,180,49396,1,8,0:0:0:0:
196,180,50018,1,0,0:0:0:0:
196,180,50640,1,8,0:0:0:0:
196,180,51261,1,0,0:0:0:0:
136,160,51883,1,8,0:0:0:0:
136,160,52505,1,0,0:0:0:0:
392,256,53748,1,0,0:0:0:0:
100,176,54370,1,8,0:0:0:0:
224,80,54992,1,4,0:0:0:0:
140,184,55303,1,0,0:0:0:0:
224,80,55614,1,8,0:0:0:0:
224,80,55925,1,8,0:0:0:0:
140,184,56235,2,0,L|184:180,12,35,2|0|2|0|2|0|0|0|0|0|0|0|0,0:0|0:0|0:0|0:0|0:0|0:0|0:0|0:0|0:0|0:0|0:0|0:0|0:0,0:0:0:0:
256,192,57479,12,0,58723,0:0:0:0:
304,160,61210,5,8,0:0:0:0:
304,144,62453,1,8,0:0:0:0:
304,144,63697,1,0,0:0:0:0:
304,144,64940,1,0,0:0:0:0:
304,144,66184,1,8,0:0:0:0:
304,144,67427,1,8,0:0:0:0:
280,168,68671,1,0,0:0:0:0:
268,168,69914,1,0,0:0:0:0:
296,160,71158,1,8,0:0:0:0:
296,160,71780,1,8,0:0:0:0:
296,160,72401,1,8,0:0:0:0:
296,160,72712,1,8,0:0:0:0:
296,160,73023,1,0,0:0:0:0:
296,160,73645,1,8,0:0:0:0:
288,136,74267,1,8,0:0:0:0:
288,136,74888,1,0,0:0:0:0:
288,136,75199,1,8,0:0:0:0:
288,136,75510,1,0,0:0:0:0:
288,136,76132,1,4,0:0:0:0:
288,136,76754,1,8,0:0:0:0:
288,136,77375,1,4,0:0:0:0:
288,136,77997,1,8,0:0:0:0:
288,136,78619,1,4,0:0:0:0:
288,136,79241,1,0,0:0:0:0:
284,140,80018,1,12,0:0:0:0:
256,128,80484,1,4,0:0:0:0:
256,128,80795,1,12,0:0:0:0:
212,140,81106,1,4,0:0:0:0:
152,132,82349,1,12,0:0:0:0:
152,132,82660,1,12,0:0:0:0:
152,132,82971,1,4,0:0:0:0:
104,140,83593,1,4,0:0:0:0:
228,152,84215,1,8,0:0:0:0:
228,152,84837,1,8,0:0:0:0:
228,152,85147,1,8,0:0:0:0:
228,152,85458,1,0,0:0:0:0:
64,148,86080,1,8,0:0:0:0:
168,72,86702,1,8,0:0:0:0:
168,72,87324,1,0,0:0:0:0:
204,208,87634,1,0,0:0:0:0:
336,260,87945,1,8,0:0:0:0:
168,72,88567,1,4,0:0:0:0:
168,72,89189,1,8,0:0:0:0:
168,72,89811,1,8,0:0:0:0:
168,72,90121,1,8,0:0:0:0:
168,72,90432,1,0,0:0:0:0:
168,72,91054,1,8,0:0:0:0:
160,76,91676,1,0,0:0:0:0:
160,104,92298,1,8,0:0:0:0:
152,128,93230,1,12,0:0:0:0:
128,120,93541,1,4,0:0:0:0:
228,152,94163,1,8,0:0:0:0:
228,152,94785,1,8,0:0:0:0:
228,152,95096,1,8,0:0:0:0:
228,152,95406,1,0,0:0:0:0:
64,148,96028,1,8,0:0:0:0:
168,72,96650,1,8,0:0:0:0:
168,72,97272,1,0,0:0:0:0:
168,72,97583,1,0,0:0:0:0:
168,72,97894,1,8,0:0:0:0:
168,72,98515,1,4,0:0:0:0:
168,72,99137,1,8,0:0:0:0:
168,72,99759,1,8,0:0:0:0:
168,72,100070,1,8,0:0:0:0:
168,72,100381,1,0,0:0:0:0:
168,72,101002,1,8,0:0:0:0:
160,76,101624,1,0,0:0:0:0:
160,104,102246,1,8,0:0:0:0:
116,128,103178,1,12,0:0:0:0:
152,192,103489,1,4,0:0:0:0:
328,196,104111,1,8,0:0:0:0:
328,196,104733,1,0,0:0:0:0:
328,196,105044,1,8,0:0:0:0:
328,196,105355,1,0,0:0:0:0:
328,196,105976,1,8,0:0:0:0:
328,196,106598,1,0,0:0:0:0:
328,196,107220,1,8,0:0:0:0:
328,196,107531,1,0,0:0:0:0:
328,196,107842,1,8,0:0:0:0:
328,196,108463,1,4,0:0:0:0:
308,204,109085,1,8,0:0:0:0:
308,204,109707,1,0,0:0:0:0:
312,200,110018,1,8,0:0:0:0:
312,200,110329,1,0,0:0:0:0:
248,184,110951,1,4,0:0:0:0:
248,184,111572,1,8,0:0:0:0:
328,244,112349,1,12,0:0:0:0:
348,176,112816,1,4,0:0:0:0:
208,188,113127,1,4,0:0:0:0:
364,212,113438,1,12,0:0:0:0:
