osu file format v14

[General]
AudioFilename: audio.mp3
AudioLeadIn: 0
PreviewTime: 83515
Countdown: 0
SampleSet: Normal
StackLeniency: 0.7
Mode: 1
LetterboxInBreaks: 0
WidescreenStoryboard: 0

[Editor]
DistanceSpacing: 1
BeatDivisor: 4
GridSize: 4
TimelineZoom: 2.4

[Metadata]
Title:Gale Rider
TitleUnicode:Gale Rider
Artist:P*Light
ArtistUnicode:P*Light
Creator:Charlotte
Version:Blast Oni
Source:REFLEC BEAT groovin'!!
Tags:Happycore komasy iloveyou4ever Hanjamon
BeatmapID:1312079
BeatmapSetID:622356

[Difficulty]
HPDrainRate:6
CircleSize:5
OverallDifficulty:6.5
ApproachRate:5
SliderMultiplier:1.4
SliderTickRate:1

[Events]
//Background and Video events
0,0,"BG.jpg",0,100
//Break Periods
//Storyboard Layer 0 (Background)
//Storyboard Layer 1 (Fail)
//Storyboard Layer 2 (Pass)
//Storyboard Layer 3 (Foreground)
//Storyboard Sound Samples

[TimingPoints]
4008,310.880829015544,4,1,0,70,1,0
8982,-100,4,1,0,80,0,0
13956,-100,4,1,0,90,0,0
61210,-100,4,1,0,60,0,0
76132,-100,4,1,0,80,0,0
83593,-100,4,1,0,90,0,1
112039,-100,4,1,0,90,0,0

[HitObjects]
256,192,4008,5,4,0:0:0:0:
256,192,4241,1,8,0:0:0:0:
256,192,4318,1,0,0:0:0:0:
256,192,4474,1,8,0:0:0:0:
256,192,4629,1,0,0:0:0:0:
256,192,4785,1,8,0:0:0:0:
256,192,4862,1,8,0:0:0:0:
256,192,4940,1,0,0:0:0:0:
256,192,5096,1,8,0:0:0:0:
256,192,5251,1,4,0:0:0:0:
256,192,5484,1,0,0:0:0:0:
256,192,5562,1,0,0:0:0:0:
256,192,5717,1,8,0:0:0:0:
256,192,6028,1,12,0:0:0:0:
256,192,6339,1,12,0:0:0:0:
256,192,6495,1,4,0:0:0:0:
256,192,6650,1,8,0:0:0:0:
256,192,6702,1,8,0:0:0:0:
256,192,6754,1,8,0:0:0:0:
256,192,6805,1,0,0:0:0:0:
256,192,6961,1,8,0:0:0:0:
256,192,7116,1,0,0:0:0:0:
256,192,7272,1,8,0:0:0:0:
256,192,7324,1,8,0:0:0:0:
256,192,7375,1,8,0:0:0:0:
256,192,7427,1,0,0:0:0:0:
256,192,7583,1,8,0:0:0:0:
256,192,7738,1,4,0:0:0:0:
256,192,7894,1,4,0:0:0:0:
256,192,8204,1,12,0:0:0:0:
256,192,8515,1,4,0:0:0:0:
256,192,8671,1,12,0:0:0:0:
256,192,8982,1,4,0:0:0:0:
256,192,9215,1,8,0:0:0:0:
256,192,9292,1,0,0:0:0:0:
256,192,9448,1,8,0:0:0:0:
256,192,9603,1,0,0:0:0:0:
256,192,9759,1,8,0:0:0:0:
256,192,9837,1,8,0:0:0:0:
256,192,9914,1,0,0:0:0:0:
256,192,10070,1,8,0:0:0:0:
256,192,10225,1,4,0:0:0:0:
256,192,10458,1,4,0:0:0:0:
256,192,10691,1,12,0:0:0:0:
256,192,11002,1,4,0:0:0:0:
256,192,11313,1,4,0:0:0:0:
256,192,11469,1,4,0:0:0:0:
256,192,11780,1,8,0:0:0:0:
256,192,11935,1,0,0:0:0:0:
256,192,12013,1,8,0:0:0:0:
256,192,12090,1,0,0:0:0:0:
256,192,12168,1,0,0:0:0:0:
256,192,12246,1,8,0:0:0:0:
256,192,12324,1,0,0:0:0:0:
256,192,12401,1,8,0:0:0:0:
256,192,12479,1,8,0:0:0:0:
256,192,12557,1,0,0:0:0:0:
256,192,12712,1,8,0:0:0:0:
256,192,12868,1,0,0:0:0:0:
256,192,12945,1,0,0:0:0:0:
256,192,13023,1,8,0:0:0:0:
256,192,13178,1,0,0:0:0:0:
256,192,13334,1,8,0:0:0:0:
256,192,13412,1,8,0:0:0:0:
256,192,13489,1,0,0:0:0:0:
256,192,13645,1,12,0:0:0:0:
256,192,13956,1,4,0:0:0:0:
256,192,14189,1,0,0:0:0:0:
256,192,14267,1,8,0:0:0:0:
256,192,14422,1,0,0:0:0:0:
256,192,14577,1,8,0:0:0:0:
256,192,14655,1,8,0:0:0:0:
256,192,14733,1,0,0:0:0:0:
256,192,14888,1,8,0:0:0:0:
256,192,15044,1,0,0:0:0:0:
256,192,15121,1,8,0:0:0:0:
256,192,15199,1,0,0:0:0:0:
256,192,15432,1,0,0:0:0:0:
256,192,15510,1,8,0:0:0:0:
256,192,15666,1,0,0:0:0:0:
256,192,15821,1,0,0:0:0:0:
256,192,15899,1,8,0:0:0:0:
256,192,15976,1,0,0:0:0:0:
256,192,16132,1,8,0:0:0:0:
256,192,16287,1,8,0:0:0:0:
256,192,16365,1,8,0:0:0:0:
256,192,16443,1,0,0:0:0:0:
256,192,16676,1,0,0:0:0:0:
256,192,16754,1,8,0:0:0:0:
256,192,16909,1,0,0:0:0:0:
256,192,17064,1,8,0:0:0:0:
256,192,17142,1,8,0:0:0:0:
256,192,17220,1,0,0:0:0:0:
256,192,17375,1,8,0:0:0:0:
256,192,17531,1,0,0:0:0:0:
256,192,17609,1,8,0:0:0:0:
256,192,17686,1,0,0:0:0:0:
256,192,17842,1,0,0:0:0:0:
256,192,17919,1,0,0:0:0:0:
256,192,17997,1,8,0:0:0:0:
256,192,18153,1,0,0:0:0:0:
256,192,18308,1,8,0:0:0:0:
256,192,18386,1,0,0:0:0:0:
256,192,18463,1,0,0:0:0:0:
256,192,18619,1,8,0:0:0:0:
256,192,18774,1,0,0:0:0:0:
256,192,18930,1,12,0:0:0:0:
256,192,19163,1,0,0:0:0:0:
256,192,19241,1,8,0:0:0:0:
256,192,19396,1,0,0:0:0:0:
256,192,19552,1,8,0:0:0:0:
256,192,19629,1,8,0:0:0:0:
256,192,19785,1,0,0:0:0:0:
256,192,19862,1,8,0:0:0:0:
256,192,20018,1,0,0:0:0:0:
256,192,20096,1,8,0:0:0:0:
256,192,20173,1,0,0:0:0:0:
256,192,20406,1,0,0:0:0:0:
256,192,20484,1,8,0:0:0:0:
256,192,20640,1,0,0:0:0:0:
256,192,20795,1,0,0:0:0:0:
256,192,20873,1,8,0:0:0:0:
256,192,21028,1,0,0:0:0:0:
256,192,21106,1,8,0:0:0:0:
256,192,21261,1,8,0:0:0:0:
256,192,21339,1,8,0:0:0:0:
256,192,21417,1,0,0:0:0:0:
256,192,21650,1,0,0:0:0:0:
256,192,21728,1,8,0:0:0:0:
256,192,21883,1,0,0:0:0:0:
256,192,22039,1,8,0:0:0:0:
256,192,22116,1,8,0:0:0:0:
256,192,22272,1,0,0:0:0:0:
256,192,22349,1,8,0:0:0:0:
256,192,22505,1,0,0:0:0:0:
256,192,22583,1,8,0:0:0:0:
256,192,22660,1,0,0:0:0:0:
256,192,22816,1,0,0:0:0:0:
256,192,22894,1,0,0:0:0:0:
256,192,22971,1,8,0:0:0:0:
256,192,23127,1,0,0:0:0:0:
256,192,23282,1,8,0:0:0:0:
256,192,23360,1,8,0:0:0:0:
256,192,23438,1,0,0:0:0:0:
256,192,23593,1,8,0:0:0:0:
256,192,23748,1,8,0:0:0:0:
256,192,23904,1,0,0:0:0:0:
256,192,24215,1,12,0:0:0:0:
256,192,24370,1,0,0:0:0:0:
256,192,24526,1,8,0:0:0:0:
256,192,24603,1,8,0:0:0:0:
256,192,24681,1,0,0:0:0:0:
256,192,24759,1,0,0:0:0:0:
256,192,24837,1,8,0:0:0:0:
256,192,24992,1,8,0:0:0:0:
256,192,25147,1,0,0:0:0:0:
256,192,25458,1,12,0:0:0:0:
256,192,25614,1,0,0:0:0:0:
256,192,25769,1,0,0:0:0:0:
256,192,25847,1,8,0:0:0:0:
256,192,25925,1,0,0:0:0:0:
256,192,26002,1,0,0:0:0:0:
256,192,26080,1,8,0:0:0:0:
256,192,26235,1,8,0:0:0:0:
256,192,26391,1,0,0:0:0:0:
256,192,26702,1,12,0:0:0:0:
256,192,26857,1,0,0:0:0:0:
256,192,27013,1,8,0:0:0:0:
256,192,27090,1,8,0:0:0:0:
256,192,27168,1,0,0:0:0:0:
256,192,27246,1,0,0:0:0:0:
256,192,27324,1,8,0:0:0:0:
256,192,27479,1,8,0:0:0:0:
256,192,27634,1,0,0:0:0:0:
256,192,27790,1,0,0:0:0:0:
256,192,27868,1,0,0:0:0:0:
256,192,27945,1,8,0:0:0:0:
256,192,28101,1,0,0:0:0:0:
256,192,28256,1,8,0:0:0:0:
256,192,28334,1,0,0:0:0:0:
256,192,28412,1,0,0:0:0:0:
256,192,28567,1,8,0:0:0:0:
256,192,28723,1,0,0:0:0:0:
256,192,28878,1,8,0:0:0:0:
256,192,29111,1,0,0:0:0:0:
256,192,29189,1,8,0:0:0:0:
256,192,29344,1,0,0:0:0:0:
256,192,29500,1,0,0:0:0:0:
256,192,29577,1,0,0:0:0:0:
256,192,29733,1,0,0:0:0:0:
256,192,29811,1,8,0:0:0:0:
256,192,29966,1,0,0:0:0:0:
256,192,30121,1,0,0:0:0:0:
256,192,30355,1,0,0:0:0:0:
256,192,30432,1,8,0:0:0:0:
256,192,30588,1,0,0:0:0:0:
256,192,30743,1,8,0:0:0:0:
256,192,30821,1,8,0:0:0:0:
256,192,30976,1,0,0:0:0:0:
256,192,31054,1,8,0:0:0:0:
256,192,31210,1,8,0:0:0:0:
256,192,31365,1,0,0:0:0:0:
256,192,31417,1,0,0:0:0:0:
256,192,31469,1,0,0:0:0:0:
256,192,31520,1,0,0:0:0:0:
256,192,31676,1,8,0:0:0:0:
256,192,31909,1,8,0:0:0:0:
256,192,32064,1,0,0:0:0:0:
256,192,32142,1,8,0:0:0:0:
256,192,32298,1,8,0:0:0:0:
256,192,32453,1,8,0:0:0:0:
256,192,32531,1,8,0:0:0:0:
256,192,32609,1,0,0:0:0:0:
256,192,32764,1,0,0:0:0:0:
256,192,32842,1,0,0:0:0:0:
256,192,32919,1,8,0:0:0:0:
256,192,32997,1,8,0:0:0:0:
256,192,33075,1,0,0:0:0:0:
256,192,33230,1,8,0:0:0:0:
256,192,33308,1,8,0:0:0:0:
256,192,33386,1,0,0:0:0:0:
256,192,33463,1,0,0:0:0:0:
256,192,33541,1,8,0:0:0:0:
256,192,33593,1,8,0:0:0:0:
256,192,33645,1,8,0:0:0:0:
256,192,33697,1,8,0:0:0:0:
256,192,33852,1,4,0:0:0:0:
256,192,34085,1,8,0:0:0:0:
256,192,34163,1,0,0:0:0:0:
256,192,34318,1,8,0:0:0:0:
256,192,34474,1,0,0:0:0:0:
256,192,34629,1,8,0:0:0:0:
256,192,34707,1,8,0:0:0:0:
256,192,34785,1,0,0:0:0:0:
256,192,34940,1,8,0:0:0:0:
256,192,35096,1,4,0:0:0:0:
256,192,35329,1,0,0:0:0:0:
256,192,35406,1,0,0:0:0:0:
256,192,35562,1,8,0:0:0:0:
256,192,35873,1,12,0:0:0:0:
256,192,36184,1,12,0:0:0:0:
256,192,36339,1,4,0:0:0:0:
256,192,36495,1,8,0:0:0:0:
256,192,36546,1,8,0:0:0:0:
256,192,36598,1,8,0:0:0:0:
256,192,36650,1,0,0:0:0:0:
256,192,36805,1,8,0:0:0:0:
256,192,36961,1,0,0:0:0:0:
256,192,37116,1,8,0:0:0:0:
256,192,37168,1,8,0:0:0:0:
256,192,37220,1,8,0:0:0:0:
256,192,37272,1,0,0:0:0:0:
256,192,37427,1,8,0:0:0:0:
256,192,37583,1,4,0:0:0:0:
256,192,37738,1,4,0:0:0:0:
256,192,38049,1,12,0:0:0:0:
256,192,38360,1,4,0:0:0:0:
256,192,38515,1,12,0:0:0:0:
256,192,38826,1,4,0:0:0:0:
256,192,39059,1,8,0:0:0:0:
256,192,39137,1,0,0:0:0:0:
256,192,39292,1,8,0:0:0:0:
256,192,39448,1,0,0:0:0:0:
256,192,39603,1,8,0:0:0:0:
256,192,39681,1,8,0:0:0:0:
256,192,39759,1,0,0:0:0:0:
256,192,39837,1,0,0:0:0:0:
256,192,39914,1,8,0:0:0:0:
256,192,40070,1,4,0:0:0:0:
256,192,40303,1,8,0:0:0:0:
256,192,40381,1,0,0:0:0:0:
256,192,40536,1,8,0:0:0:0:
256,192,40691,1,0,0:0:0:0:
256,192,40847,1,8,0:0:0:0:
256,192,40925,1,0,0:0:0:0:
256,192,41002,1,8,0:0:0:0:
256,192,41080,1,8,0:0:0:0:
256,192,41158,1,0,0:0:0:0:
256,192,41313,1,4,0:0:0:0:
256,192,41469,1,8,0:0:0:0:
256,192,41546,1,8,0:0:0:0:
256,192,41624,1,0,0:0:0:0:
256,192,41702,1,8,0:0:0:0:
256,192,41780,1,0,0:0:0:0:
256,192,41857,1,0,0:0:0:0:
256,192,41935,1,8,0:0:0:0:
256,192,42013,1,0,0:0:0:0:
256,192,42090,1,8,0:0:0:0:
256,192,42168,1,0,0:0:0:0:
256,192,42246,1,8,0:0:0:0:
256,192,42324,1,8,0:0:0:0:
256,192,42401,1,0,0:0:0:0:
256,192,42557,1,12,0:0:0:0:
256,192,42712,1,0,0:0:0:0:
256,192,42790,1,0,0:0:0:0:
256,192,42868,1,8,0:0:0:0:
256,192,43023,1,0,0:0:0:0:
256,192,43178,1,8,0:0:0:0:
256,192,43256,1,8,0:0:0:0:
256,192,43334,1,0,0:0:0:0:
256,192,43489,1,12,0:0:0:0:
256,192,43800,1,4,0:0:0:0:
256,192,44033,1,0,0:0:0:0:
256,192,44111,1,8,0:0:0:0:
256,192,44267,1,0,0:0:0:0:
256,192,44422,1,8,0:0:0:0:
256,192,44500,1,8,0:0:0:0:
256,192,44577,1,0,0:0:0:0:
256,192,44655,1,0,0:0:0:0:
256,192,44733,1,8,0:0:0:0:
256,192,44811,1,0,0:0:0:0:
256,192,44966,1,8,0:0:0:0:
256,192,45044,1,0,0:0:0:0:
256,192,45277,1,0,0:0:0:0:
256,192,45355,1,8,0:0:0:0:
256,192,45510,1,0,0:0:0:0:
256,192,45666,1,0,0:0:0:0:
256,192,45743,1,8,0:0:0:0:
256,192,45821,1,0,0:0:0:0:
256,192,45899,1,0,0:0:0:0:
256,192,45976,1,8,0:0:0:0:
256,192,46054,1,0,0:0:0:0:
256,192,46210,1,8,0:0:0:0:
256,192,46287,1,0,0:0:0:0:
256,192,46520,1,0,0:0:0:0:
256,192,46598,1,8,0:0:0:0:
256,192,46754,1,0,0:0:0:0:
256,192,46909,1,8,0:0:0:0:
256,192,46987,1,8,0:0:0:0:
256,192,47064,1,0,0:0:0:0:
256,192,47142,1,0,0:0:0:0:
256,192,47220,1,8,0:0:0:0:
256,192,47298,1,0,0:0:0:0:
256,192,47453,1,8,0:0:0:0:
256,192,47531,1,0,0:0:0:0:
256,192,47686,1,0,0:0:0:0:
256,192,47764,1,0,0:0:0:0:
256,192,47842,1,8,0:0:0:0:
256,192,47997,1,0,0:0:0:0:
256,192,48153,1,8,0:0:0:0:
256,192,48230,1,0,0:0:0:0:
256,192,48308,1,8,0:0:0:0:
256,192,48463,1,0,0:0:0:0:
256,192,48619,1,8,0:0:0:0:
256,192,48774,1,4,0:0:0:0:
256,192,49007,1,0,0:0:0:0:
256,192,49085,1,8,0:0:0:0:
256,192,49241,1,0,0:0:0:0:
256,192,49396,1,8,0:0:0:0:
256,192,49474,1,8,0:0:0:0:
256,192,49552,1,0,0:0:0:0:
256,192,49629,1,0,0:0:0:0:
256,192,49707,1,8,0:0:0:0:
256,192,49785,1,0,0:0:0:0:
256,192,49862,1,8,0:0:0:0:
256,192,49940,1,8,0:0:0:0:
256,192,50018,1,0,0:0:0:0:
256,192,50251,1,0,0:0:0:0:
256,192,50329,1,8,0:0:0:0:
256,192,50484,1,0,0:0:0:0:
256,192,50640,1,0,0:0:0:0:
256,192,50717,1,8,0:0:0:0:
256,192,50795,1,0,0:0:0:0:
256,192,50873,1,0,0:0:0:0:
256,192,50951,1,8,0:0:0:0:
256,192,51028,1,0,0:0:0:0:
256,192,51106,1,8,0:0:0:0:
256,192,51184,1,8,0:0:0:0:
256,192,51261,1,0,0:0:0:0:
256,192,51495,1,0,0:0:0:0:
256,192,51572,1,8,0:0:0:0:
256,192,51728,1,0,0:0:0:0:
256,192,51883,1,8,0:0:0:0:
256,192,51961,1,8,0:0:0:0:
256,192,52039,1,0,0:0:0:0:
256,192,52116,1,0,0:0:0:0:
256,192,52194,1,8,0:0:0:0:
256,192,52272,1,0,0:0:0:0:
256,192,52349,1,8,0:0:0:0:
256,192,52427,1,8,0:0:0:0:
256,192,52505,1,0,0:0:0:0:
256,192,52660,1,0,0:0:0:0:
256,192,52738,1,0,0:0:0:0:
256,192,52816,1,8,0:0:0:0:
256,192,52971,1,0,0:0:0:0:
256,192,53127,1,8,0:0:0:0:
256,192,53204,1,8,0:0:0:0:
256,192,53282,1,0,0:0:0:0:
256,192,53438,1,8,0:0:0:0:
256,192,53515,1,0,0:0:0:0:
256,192,53593,1,8,0:0:0:0:
256,192,53671,1,8,0:0:0:0:
256,192,53748,1,0,0:0:0:0:
256,192,53904,1,0,0:0:0:0:
256,192,53982,1,0,0:0:0:0:
256,192,54059,1,8,0:0:0:0:
256,192,54215,1,0,0:0:0:0:
256,192,54370,1,8,0:0:0:0:
256,192,54448,1,0,0:0:0:0:
256,192,54526,1,0,0:0:0:0:
256,192,54681,1,8,0:0:0:0:
256,192,54759,1,8,0:0:0:0:
256,192,54837,1,0,0:0:0:0:
256,192,54914,1,8,0:0:0:0:
256,192,54992,1,0,0:0:0:0:
256,192,55147,1,0,0:0:0:0:
256,192,55225,1,0,0:0:0:0:
256,192,55303,1,8,0:0:0:0:
256,192,55458,1,0,0:0:0:0:
256,192,55614,1,8,0:0:0:0:
256,192,55691,1,8,0:0:0:0:
256,192,55769,1,0,0:0:0:0:
256,192,55925,1,8,0:0:0:0:
256,192,56002,1,0,0:0:0:0:
256,192,56080,1,8,0:0:0:0:
256,192,56158,1,8,0:0:0:0:
256,192,56235,1,0,0:0:0:0:
256,192,56313,1,0,0:0:0:0:
256,192,56391,1,8,0:0:0:0:
256,192,56469,1,0,0:0:0:0:
256,192,56546,1,8,0:0:0:0:
256,192,56624,1,8,0:0:0:0:
256,192,56702,1,0,0:0:0:0:
256,192,56780,1,8,0:0:0:0:
256,192,56857,1,0,0:0:0:0:
256,192,56935,1,0,0:0:0:0:
256,192,57013,1,8,0:0:0:0:
256,192,57090,1,0,0:0:0:0:
256,192,57168,1,8,0:0:0:0:
256,192,57246,1,8,0:0:0:0:
256,192,57324,1,0,0:0:0:0:
256,192,57401,1,8,0:0:0:0:
256,192,57479,1,0,0:0:0:0:
256,192,57557,1,0,0:0:0:0:
256,192,57634,1,8,0:0:0:0:
256,192,57686,1,8,0:0:0:0:
256,192,57738,1,8,0:0:0:0:
256,192,57790,1,0,0:0:0:0:
256,192,57868,1,0,0:0:0:0:
256,192,57945,1,8,0:0:0:0:
256,192,57997,1,0,0:0:0:0:
256,192,58049,1,0,0:0:0:0:
256,192,58101,1,8,0:0:0:0:
256,192,58178,1,0,0:0:0:0:
256,192,58256,1,8,0:0:0:0:
256,192,58308,1,8,0:0:0:0:
256,192,58360,1,8,0:0:0:0:
256,192,58412,1,0,0:0:0:0:
256,192,58489,1,0,0:0:0:0:
256,192,58567,1,8,0:0:0:0:
256,192,58619,1,0,0:0:0:0:
256,192,58671,1,0,0:0:0:0:
256,192,58723,1,8,0:0:0:0:
256,192,61210,1,8,0:0:0:0:
256,192,61520,1,0,0:0:0:0:
256,192,61676,1,8,0:0:0:0:
256,192,61987,1,0,0:0:0:0:
256,192,62142,1,8,0:0:0:0:
256,192,62453,1,0,0:0:0:0:
256,192,62609,1,8,0:0:0:0:
256,192,62919,1,0,0:0:0:0:
256,192,63075,1,8,0:0:0:0:
256,192,63230,1,0,0:0:0:0:
256,192,63386,1,8,0:0:0:0:
256,192,63541,1,8,0:0:0:0:
256,192,63697,1,0,0:0:0:0:
256,192,64007,1,8,0:0:0:0:
256,192,64163,1,0,0:0:0:0:
256,192,64474,1,8,0:0:0:0:
256,192,64629,1,0,0:0:0:0:
256,192,64940,1,8,0:0:0:0:
256,192,65096,1,0,0:0:0:0:
256,192,65406,1,8,0:0:0:0:
256,192,65562,1,0,0:0:0:0:
256,192,65717,1,0,0:0:0:0:
256,192,65873,1,8,0:0:0:0:
256,192,66184,1,8,0:0:0:0:
256,192,66495,1,0,0:0:0:0:
256,192,66650,1,8,0:0:0:0:
256,192,66961,1,0,0:0:0:0:
256,192,67116,1,8,0:0:0:0:
256,192,67427,1,0,0:0:0:0:
256,192,67583,1,8,0:0:0:0:
256,192,67894,1,0,0:0:0:0:
256,192,68049,1,8,0:0:0:0:
256,192,68204,1,0,0:0:0:0:
256,192,68360,1,8,0:0:0:0:
256,192,68515,1,8,0:0:0:0:
256,192,68671,1,0,0:0:0:0:
256,192,68982,1,8,0:0:0:0:
256,192,69137,1,0,0:0:0:0:
256,192,69448,1,8,0:0:0:0:
256,192,69603,1,0,0:0:0:0:
256,192,69914,1,8,0:0:0:0:
256,192,70070,1,0,0:0:0:0:
256,192,70381,1,8,0:0:0:0:
256,192,70536,1,0,0:0:0:0:
256,192,70847,1,0,0:0:0:0:
256,192,71158,1,8,0:0:0:0:
256,192,71313,1,8,0:0:0:0:
256,192,71469,1,8,0:0:0:0:
256,192,71624,1,8,0:0:0:0:
256,192,71780,1,0,0:0:0:0:
256,192,71935,1,0,0:0:0:0:
256,192,72090,1,0,0:0:0:0:
256,192,72246,1,0,0:0:0:0:
256,192,72401,1,8,0:0:0:0:
256,192,72557,1,8,0:0:0:0:
256,192,72712,1,8,0:0:0:0:
256,192,72868,1,8,0:0:0:0:
256,192,73023,1,0,0:0:0:0:
256,192,73101,1,0,0:0:0:0:
256,192,73178,1,0,0:0:0:0:
256,192,73334,1,0,0:0:0:0:
256,192,73645,1,8,0:0:0:0:
256,192,73800,1,0,0:0:0:0:
256,192,73956,1,8,0:0:0:0:
256,192,74111,1,8,0:0:0:0:
256,192,74267,1,0,0:0:0:0:
256,192,74422,1,0,0:0:0:0:
256,192,74577,1,8,0:0:0:0:
256,192,74733,1,0,0:0:0:0:
256,192,74888,1,8,0:0:0:0:
256,192,75044,1,8,0:0:0:0:
256,192,75199,1,0,0:0:0:0:
256,192,75355,1,8,0:0:0:0:
256,192,75510,1,0,0:0:0:0:
256,192,75588,1,0,0:0:0:0:
256,192,75666,1,0,0:0:0:0:
256,192,75821,1,0,0:0:0:0:
256,192,76132,1,4,0:0:0:0:
256,192,76287,1,0,0:0:0:0:
256,192,76365,1,0,0:0:0:0:
256,192,76443,1,8,0:0:0:0:
256,192,76598,1,8,0:0:0:0:
256,192,76754,1,8,0:0:0:0:
256,192,76831,1,8,0:0:0:0:
256,192,76909,1,0,0:0:0:0:
256,192,76987,1,0,0:0:0:0:
256,192,77064,1,8,0:0:0:0:
256,192,77142,1,0,0:0:0:0:
256,192,77220,1,8,0:0:0:0:
256,192,77375,1,4,0:0:0:0:
256,192,77531,1,0,0:0:0:0:
256,192,77609,1,0,0:0:0:0:
256,192,77686,1,8,0:0:0:0:
256,192,77842,1,8,0:0:0:0:
256,192,77997,1,8,0:0:0:0:
256,192,78075,1,8,0:0:0:0:
256,192,78153,1,0,0:0:0:0:
256,192,78230,1,8,0:0:0:0:
256,192,78308,1,0,0:0:0:0:
256,192,78386,1,0,0:0:0:0:
256,192,78463,1,8,0:0:0:0:
256,192,78619,1,4,0:0:0:0:
256,192,78774,1,0,0:0:0:0:
256,192,78852,1,0,0:0:0:0:
256,192,78930,1,8,0:0:0:0:
256,192,79007,1,8,0:0:0:0:
256,192,79085,1,0,0:0:0:0:
256,192,79241,1,8,0:0:0:0:
256,192,79292,1,8,0:0:0:0:
256,192,79344,1,8,0:0:0:0:
256,192,79396,1,0,0:0:0:0:
256,192,79474,1,0,0:0:0:0:
256,192,79552,1,8,0:0:0:0:
256,192,79603,1,8,0:0:0:0:
256,192,79655,1,8,0:0:0:0:
256,192,79707,1,0,0:0:0:0:
256,192,80018,1,12,0:0:0:0:
256,192,80329,1,12,0:0:0:0:
256,192,80484,1,12,0:0:0:0:
256,192,80640,1,4,0:0:0:0:
256,192,80795,1,12,0:0:0:0:
256,192,81106,1,4,0:0:0:0:
256,192,81261,1,8,0:0:0:0:
256,192,81313,1,8,0:0:0:0:
256,192,81365,1,8,0:0:0:0:
256,192,81417,1,0,0:0:0:0:
256,192,81572,1,8,0:0:0:0:
256,192,81728,1,4,0:0:0:0:
256,192,81883,1,8,0:0:0:0:
256,192,81935,1,8,0:0:0:0:
256,192,81987,1,8,0:0:0:0:
256,192,82039,1,0,0:0:0:0:
256,192,82194,1,8,0:0:0:0:
256,192,82349,1,4,0:0:0:0:
256,192,82505,1,0,0:0:0:0:
256,192,82583,1,0,0:0:0:0:
256,192,82660,1,8,0:0:0:0:
256,192,82816,1,0,0:0:0:0:
256,192,82971,1,8,0:0:0:0:
256,192,83049,1,8,0:0:0:0:
256,192,83127,1,0,0:0:0:0:
256,192,83282,1,12,0:0:0:0:
256,192,83593,1,4,0:0:0:0:
256,192,83748,1,0,0:0:0:0:
256,192,83826,1,0,0:0:0:0:
256,192,83904,1,8,0:0:0:0:
256,192,84059,1,8,0:0:0:0:
256,192,84215,1,0,0:0:0:0:
256,192,84292,1,0,0:0:0:0:
256,192,84370,1,8,0:0:0:0:
256,192,84448,1,0,0:0:0:0:
256,192,84526,1,8,0:0:0:0:
256,192,84603,1,8,0:0:0:0:
256,192,84681,1,0,0:0:0:0:
256,192,84837,1,0,0:0:0:0:
256,192,84992,1,0,0:0:0:0:
256,192,85070,1,0,0:0:0:0:
256,192,85147,1,8,0:0:0:0:
256,192,85303,1,8,0:0:0:0:
256,192,85381,1,8,0:0:0:0:
256,192,85458,1,0,0:0:0:0:
256,192,85536,1,0,0:0:0:0:
256,192,85614,1,8,0:0:0:0:
256,192,85769,1,0,0:0:0:0:
256,192,86080,1,0,0:0:0:0:
256,192,86235,1,0,0:0:0:0:
256,192,86313,1,0,0:0:0:0:
256,192,86391,1,8,0:0:0:0:
256,192,86546,1,8,0:0:0:0:
256,192,86702,1,0,0:0:0:0:
256,192,86780,1,8,0:0:0:0:
256,192,86857,1,0,0:0:0:0:
256,192,86935,1,0,0:0:0:0:
256,192,87013,1,8,0:0:0:0:
256,192,87090,1,8,0:0:0:0:
256,192,87168,1,0,0:0:0:0:
256,192,87324,1,0,0:0:0:0:
256,192,87479,1,8,0:0:0:0:
256,192,87557,1,8,0:0:0:0:
256,192,87634,1,0,0:0:0:0:
256,192,87790,1,8,0:0:0:0:
256,192,87945,1,0,0:0:0:0:
256,192,88023,1,0,0:0:0:0:
256,192,88101,1,8,0:0:0:0:
256,192,88256,1,8,0:0:0:0:
260,192,88334,1,0,0:0:0:0:
260,192,88412,1,0,0:0:0:0:
256,192,88567,1,4,0:0:0:0:
256,192,88723,1,0,0:0:0:0:
256,192,88800,1,0,0:0:0:0:
256,192,88878,1,8,0:0:0:0:
256,192,89033,1,8,0:0:0:0:
256,192,89189,1,0,0:0:0:0:
256,192,89267,1,0,0:0:0:0:
256,192,89344,1,8,0:0:0:0:
256,192,89422,1,0,0:0:0:0:
256,192,89500,1,8,0:0:0:0:
256,192,89577,1,8,0:0:0:0:
256,192,89655,1,0,0:0:0:0:
256,192,89811,1,0,0:0:0:0:
256,192,89966,1,0,0:0:0:0:
256,192,90044,1,0,0:0:0:0:
256,192,90121,1,8,0:0:0:0:
256,192,90277,1,8,0:0:0:0:
256,192,90355,1,8,0:0:0:0:
256,192,90432,1,0,0:0:0:0:
256,192,90510,1,0,0:0:0:0:
256,192,90588,1,8,0:0:0:0:
256,192,90743,1,0,0:0:0:0:
256,192,91054,1,0,0:0:0:0:
256,192,91210,1,0,0:0:0:0:
256,192,91287,1,0,0:0:0:0:
256,192,91365,1,8,0:0:0:0:
256,192,91520,1,8,0:0:0:0:
256,192,91676,1,0,0:0:0:0:
256,192,91754,1,8,0:0:0:0:
256,192,91831,1,0,0:0:0:0:
256,192,91909,1,0,0:0:0:0:
256,192,91987,1,8,0:0:0:0:
256,192,92064,1,8,0:0:0:0:
256,192,92142,1,0,0:0:0:0:
256,192,92298,1,0,0:0:0:0:
256,192,92453,1,8,0:0:0:0:
256,192,92531,1,8,0:0:0:0:
256,192,92609,1,0,0:0:0:0:
256,192,92764,1,8,0:0:0:0:
256,192,92842,1,8,0:0:0:0:
256,192,92919,1,0,0:0:0:0:
256,192,92997,1,0,0:0:0:0:
256,192,93075,1,0,0:0:0:0:
256,192,93230,1,8,0:0:0:0:
256,192,93541,1,4,0:0:0:0:
256,192,93697,1,0,0:0:0:0:
256,192,93774,1,0,0:0:0:0:
256,192,93852,1,8,0:0:0:0:
256,192,94007,1,8,0:0:0:0:
256,192,94085,1,8,0:0:0:0:
256,192,94163,1,0,0:0:0:0:
256,192,94241,1,8,0:0:0:0:
256,192,94318,1,0,0:0:0:0:
256,192,94396,1,0,0:0:0:0:
256,192,94474,1,8,0:0:0:0:
256,192,94552,1,0,0:0:0:0:
256,192,94629,1,8,0:0:0:0:
256,192,94707,1,8,0:0:0:0:
256,192,94785,1,0,0:0:0:0:
256,192,94940,1,0,0:0:0:0:
256,192,95018,1,0,0:0:0:0:
256,192,95096,1,8,0:0:0:0:
256,192,95173,1,0,0:0:0:0:
256,192,95329,1,8,0:0:0:0:
256,192,95406,1,0,0:0:0:0:
256,192,95484,1,0,0:0:0:0:
256,192,95562,1,8,0:0:0:0:
256,192,95717,1,0,0:0:0:0:
256,192,96028,1,0,0:0:0:0:
256,192,96184,1,0,0:0:0:0:
256,192,96261,1,0,0:0:0:0:
256,192,96339,1,8,0:0:0:0:
256,192,96495,1,8,0:0:0:0:
256,192,96572,1,8,0:0:0:0:
256,192,96650,1,0,0:0:0:0:
256,192,96728,1,0,0:0:0:0:
256,192,96805,1,8,0:0:0:0:
256,192,96883,1,0,0:0:0:0:
256,192,96961,1,8,0:0:0:0:
256,192,97039,1,8,0:0:0:0:
256,192,97116,1,0,0:0:0:0:
256,192,97272,1,0,0:0:0:0:
256,192,97349,1,0,0:0:0:0:
256,192,97427,1,8,0:0:0:0:
256,192,97505,1,0,0:0:0:0:
256,192,97583,1,8,0:0:0:0:
256,192,97660,1,8,0:0:0:0:
256,192,97738,1,0,0:0:0:0:
256,192,97816,1,8,0:0:0:0:
256,192,97894,1,0,0:0:0:0:
256,192,97971,1,0,0:0:0:0:
256,192,98049,1,8,0:0:0:0:
256,192,98204,1,8,0:0:0:0:
256,192,98282,1,8,0:0:0:0:
256,192,98360,1,0,0:0:0:0:
256,192,98515,1,4,0:0:0:0:
256,192,98671,1,0,0:0:0:0:
256,192,98748,1,0,0:0:0:0:
256,192,98826,1,8,0:0:0:0:
256,192,98982,1,8,0:0:0:0:
256,192,99059,1,8,0:0:0:0:
256,192,99137,1,0,0:0:0:0:
256,192,99215,1,8,0:0:0:0:
256,192,99292,1,0,0:0:0:0:
256,192,99370,1,0,0:0:0:0:
256,192,99448,1,8,0:0:0:0:
256,192,99526,1,0,0:0:0:0:
256,192,99603,1,8,0:0:0:0:
256,192,99681,1,8,0:0:0:0:
256,192,99759,1,0,0:0:0:0:
256,192,99914,1,0,0:0:0:0:
256,192,99992,1,0,0:0:0:0:
256,192,100070,1,8,0:0:0:0:
256,192,100147,1,0,0:0:0:0:
256,192,100303,1,8,0:0:0:0:
256,192,100381,1,0,0:0:0:0:
256,192,100458,1,0,0:0:0:0:
256,192,100536,1,8,0:0:0:0:
256,192,100691,1,0,0:0:0:0:
256,192,101002,1,0,0:0:0:0:
256,192,101158,1,0,0:0:0:0:
256,192,101235,1,0,0:0:0:0:
256,192,101313,1,8,0:0:0:0:
256,192,101469,1,8,0:0:0:0:
256,192,101546,1,8,0:0:0:0:
256,192,101624,1,0,0:0:0:0:
256,192,101702,1,0,0:0:0:0:
256,192,101780,1,8,0:0:0:0:
256,192,101857,1,0,0:0:0:0:
256,192,101935,1,8,0:0:0:0:
256,192,102013,1,8,0:0:0:0:
256,192,102090,1,0,0:0:0:0:
256,192,102246,1,0,0:0:0:0:
256,192,102324,1,8,0:0:0:0:
256,192,102401,1,0,0:0:0:0:
256,192,102479,1,0,0:0:0:0:
256,192,102557,1,8,0:0:0:0:
256,192,102634,1,0,0:0:0:0:
256,192,102712,1,8,0:0:0:0:
256,192,102790,1,8,0:0:0:0:
256,192,102868,1,0,0:0:0:0:
256,192,102945,1,8,0:0:0:0:
256,192,103023,1,0,0:0:0:0:
256,192,103178,1,8,0:0:0:0:
256,192,103489,1,12,0:0:0:0:
256,192,103645,1,0,0:0:0:0:
256,192,103723,1,0,0:0:0:0:
256,192,103800,1,8,0:0:0:0:
256,192,103956,1,0,0:0:0:0:
256,192,104111,1,8,0:0:0:0:
256,192,104189,1,8,0:0:0:0:
256,192,104267,1,0,0:0:0:0:
256,192,104344,1,0,0:0:0:0:
256,192,104422,1,8,0:0:0:0:
256,192,104577,1,8,0:0:0:0:
256,192,104733,1,0,0:0:0:0:
256,192,104888,1,8,0:0:0:0:
256,192,104966,1,8,0:0:0:0:
256,192,105044,1,0,0:0:0:0:
256,192,105199,1,0,0:0:0:0:
256,192,105277,1,0,0:0:0:0:
256,192,105355,1,8,0:0:0:0:
256,192,105432,1,0,0:0:0:0:
256,192,105510,1,8,0:0:0:0:
256,192,105588,1,8,0:0:0:0:
256,192,105666,1,0,0:0:0:0:
256,192,105821,1,8,0:0:0:0:
256,192,105976,1,0,0:0:0:0:
256,192,106210,1,0,0:0:0:0:
256,192,106287,1,8,0:0:0:0:
256,192,106443,1,8,0:0:0:0:
256,192,106520,1,8,0:0:0:0:
256,192,106598,1,0,0:0:0:0:
256,192,106676,1,8,0:0:0:0:
256,192,106754,1,0,0:0:0:0:
256,192,106831,1,0,0:0:0:0:
256,192,106909,1,8,0:0:0:0:
256,192,107064,1,8,0:0:0:0:
256,192,107220,1,0,0:0:0:0:
256,192,107375,1,0,0:0:0:0:
256,192,107453,1,0,0:0:0:0:
256,192,107531,1,8,0:0:0:0:
256,192,107686,1,8,0:0:0:0:
256,192,107842,1,0,0:0:0:0:
256,192,107919,1,8,0:0:0:0:
256,192,107997,1,8,0:0:0:0:
256,192,108153,1,0,0:0:0:0:
256,192,108308,1,8,0:0:0:0:
256,192,108463,1,4,0:0:0:0:
256,192,108697,1,0,0:0:0:0:
256,192,108774,1,8,0:0:0:0:
256,192,108930,1,8,0:0:0:0:
256,192,109007,1,8,0:0:0:0:
256,192,109085,1,0,0:0:0:0:
256,192,109163,1,0,0:0:0:0:
256,192,109241,1,8,0:0:0:0:
256,192,109318,1,0,0:0:0:0:
256,192,109396,1,8,0:0:0:0:
256,192,109552,1,0,0:0:0:0:
256,192,109707,1,12,0:0:0:0:
256,192,109862,1,0,0:0:0:0:
256,192,109940,1,0,0:0:0:0:
256,192,110018,1,8,0:0:0:0:
256,192,110173,1,0,0:0:0:0:
256,192,110329,1,8,0:0:0:0:
256,192,110406,1,8,0:0:0:0:
256,192,110484,1,0,0:0:0:0:
256,192,110562,1,8,0:0:0:0:
256,192,110640,1,0,0:0:0:0:
256,192,110717,1,0,0:0:0:0:
256,192,110795,1,8,0:0:0:0:
256,192,110951,1,0,0:0:0:0:
256,192,111106,1,0,0:0:0:0:
256,192,111184,1,0,0:0:0:0:
256,192,111261,1,8,0:0:0:0:
256,192,111417,1,0,0:0:0:0:
256,192,111572,1,8,0:0:0:0:
256,192,111650,1,8,0:0:0:0:
256,192,111728,1,0,0:0:0:0:
256,192,111805,1,0,0:0:0:0:
256,192,111883,1,8,0:0:0:0:
256,192,111935,1,8,0:0:0:0:
256,192,111987,1,8,0:0:0:0:
256,192,112039,1,8,0:0:0:0:
256,192,112349,1,4,0:0:0:0:
256,192,112660,1,12,0:0:0:0:
256,192,112816,1,4,0:0:0:0:
256,192,112971,1,4,0:0:0:0:
256,192,113127,1,12,0:0:0:0:
256,192,113438,1,4,0:0:0:0:
